#TITLE:Special Stage;
#SUBTITLE:Sonic 4\;
#ARTIST:Jun Senoue;
#TITLETRANSLIT:;
#SUBTITLETRANSLIT:;
#ARTISTTRANSLIT:;
#CREDIT:Owem;
#BANNER:BN.PNG;
#BACKGROUND:BG.PNG;
#LYRICSPATH:;
#CDTITLE:../CdTitleOwem.png;
#MUSIC:Sonic 4 Episode I - Special Stage.ogg;
#OFFSET:-0.026;
#SAMPLESTART:74.795;
#SAMPLELENGTH:29.999;
#SELECTABLE:YES;
#BPMS:0.000=130.000;
#STOPS:;
#BGCHANGES:;
// cache tags:
#FIRSTBEAT:0.000;
#LASTBEAT:444.667;
#SONGFILENAME:Songs/Owem's Simfiles 08 - 1.2/Special Stage - [Braeden & Owem] v1.0.1/Special Stage.sm;
#HASMUSIC:1;
#HASBANNER:1;
#MUSICLENGTH:205.271;
// end cache tags

//---------------dance-single - 7- (Braeden)----------------
#NOTES:
     dance-single:
     7- (Braeden):
     Hard:
     7:
     0.532,0.623,0.190,0.667,0.019,589.000,39.000,137.000,0.000,0.000:
1000
1000
0001
0000
0100
0000
0010
0010
,
1000
0000
0001
0000
0010
0010
0100
0000
,
1000
0000
0000
0200
0000
0300
0002
0000
0003
2000
0000
3000
,
0010
0010
1000
0000
0001
0000
0010
0010
,
0100
1000
0101
0110
,
0110
0010
0100
0100
,
0020
1030
1010
2000
,
3001
1001
0002
0103
,
0010
0000
0000
2000
0000
0000
3200
0000
0300
0020
0000
0000
,
0031
0100
0010
1010
,
0010
0100
0101
0001
,
0010
0000
0000
1001
0000
0000
0002
0000
0003
2000
0000
3000
,
0200
0000
0300
0100
0000
0000
0020
0000
0000
0031
0000
0000
2000
0000
0000
3001
0000
0000
0200
0000
0000
0000
0000
0000
,
0010
0000
0001
0300
0100
0100
0100
0000
,
0010
0000
1000
1000
1000
0000
0001
0000
,
0100
0000
0000
0100
0000
0000
0100
0000
0000
0000
0000
0000
0010
0000
0000
0000
0000
0000
0200
0000
0000
0000
0300
0000
,
0020
0000
0000
0000
0030
0000
0100
0000
0010
0000
0100
0000
0010
0000
0000
0010
0000
0000
0010
0000
0000
0000
0000
0000
,
0100
0000
0001
0010
0001
0000
0100
0000
,
0101
0011
0101
1001
,
0010
0000
0010
0000
1000
0100
1000
0000
,
0001
0000
0100
0010
0100
0000
0001
0000
,
0010
0001
0010
0000
0001
0000
1000
0000
,
0200
0000
0000
0000
0300
0000
0010
0000
0001
0000
1000
0000
0100
0000
0000
0100
0000
0000
0100
0000
0000
0000
0000
0000
,
0010
0000
0001
0100
0001
0000
0010
0000
,
0011
1001
1100
1001
,
0001
0000
1000
0000
0020
0000
1030
0001
,
1000
0100
0010
0000
0100
0000
0100
0000
,
1000
0000
0000
0000
0000
0000
0001
0000
0000
0000
0000
0000
1000
0000
0000
0100
0000
0000
2000
0000
0000
0000
3000
0000
,
0020
0000
0000
0000
0030
0000
0200
0000
0000
0000
0300
0000
0001
0000
0000
0000
0000
0000
1000
0000
0000
0100
0000
0000
,
1000
0001
0100
0000
0010
0000
0010
0000
,
1000
0000
0000
0001
0000
0000
0010
0000
0000
0002
0000
0003
,
0020
0000
0000
0000
0030
0000
0200
0000
0000
0000
0300
0000
1000
0000
0000
0010
0000
0000
0100
0000
0000
0001
0000
0000
,
0000
1000
0100
0010
0001
1000
0000
0010
,
0100
0000
0000
0001
0000
0000
1000
0000
0000
0010
0000
0000
0000
0000
0000
0100
0000
0000
0200
0000
0000
0000
0300
0000
,
0002
0000
0000
0000
0003
0000
2000
0000
0000
0000
0000
0000
3010
0000
0000
0100
0000
0000
0010
0000
0000
0100
0000
0000
,
0001
1000
0100
1000
0001
0010
0100
1000
,
0002
0000
0000
0000
0000
0000
0023
0000
0000
0000
0000
0000
0230
0000
0000
0000
0300
0000
2010
0000
0000
0000
0000
3000
,
0120
0000
0000
0000
0000
0030
0201
0000
0000
0000
0300
0000
0001
0000
0000
1000
0000
0000
0100
0000
0000
1000
0000
0000
,
0001
0010
0100
1000
0001
0100
0010
0100
,
0001
0000
0000
0010
0000
0000
0001
0000
0000
1000
0000
0000
0100
0000
0000
0010
0000
0000
0020
0000
0000
0000
0030
0000
,
0200
0000
0000
0000
0300
0000
0020
0000
0000
0000
0000
0000
1030
0000
0000
0100
0000
0000
1000
0000
0000
0001
0000
0000
,
1000
0100
1000
0001
0010
0001
0100
0010
,
0200
0000
0000
0000
0300
0000
0002
0000
0000
0000
0003
0000
2000
0000
0000
0000
3000
0000
2020
0000
0000
3030
0000
0000
,
0202
0303
2002
3003
2000
0000
3100
0010
,
0001
0000
0000
1000
0000
0000
0002
0000
0000
0000
0003
0000
2001
0000
0000
0000
0000
0000
0010
0000
0000
0000
3000
0000
,
0020
0000
0130
0001
1000
0001
0200
0000
,
0010
0000
0000
0000
0000
0000
0010
0000
0000
0000
0300
0000
0020
0000
0000
0000
0000
0000
1030
0000
0000
0001
0000
0000
,
1000
0100
0020
0000
0031
1000
0001
0100
,
0020
0000
1030
0100
1000
0001
0200
0000
,
0310
1000
0010
0100
0002
0000
1000
0000
,
2003
0000
3100
0100
0010
0001
2000
0000
,
3010
0010
0100
0001
1000
0001
0020
0000
,
0230
0000
1000
0300
1000
1000
1000
0000
,
0010
0000
0100
0100
0100
0000
0001
0000
,
1000
0000
0000
1000
0000
0000
1000
0000
0000
0000
0000
0000
0001
0000
0000
0000
0000
0000
2000
0000
0000
0000
3000
0000
,
0020
0000
0000
0000
0030
0000
0200
0000
0000
0000
0300
0000
0001
0000
0000
0001
0000
0000
0001
0000
0000
0000
0000
0000
,
1000
0000
0010
0010
0010
0000
0100
0000
,
0001
1000
1001
0101
,
0010
0010
0100
0020
,
2030
3002
0023
0230
,
1300
0000
0000
0001
0000
0000
0001
0000
0000
0002
0000
0003
,
0020
0000
0030
0200
0000
0300
0100
0000
0000
0010
0000
0000
,
1000
0002
0013
0100
,
2000
0000
0000
3001
0000
0000
1000
0000
0000
0020
0000
0030
,
0002
0000
0000
0000
0003
0000
2000
0000
0000
0000
3000
0000
0020
0000
0030
0010
0000
0000
0200
0000
0000
0301
0000
0000
,
2000
3001
0200
0000
0010
0000
0001
0300
,
0010
1000
0010
0000
0100
0000
0001
0010
,
0001
0000
1000
0000
0001
0100
0001
0000
,
1000
0000
0000
0200
0000
0300
0020
0000
0030
0001
0100
0001
,
0100
0100
0100
0000
0010
0000
1000
0001
,
0100
0010
0110
1001
,
0110
1001
0010
0100
,
0001
0010
0001
0000
0100
0000
0010
1000
,
0010
0000
0100
0000
0001
0001
0001
0000
,
0100
0000
0000
2000
0000
3000
0200
0000
0300
0010
0001
1000
,
0010
1000
0010
0000
0100
0000
0001
0010
,
0001
1000
1001
0110
,
1001
0010
1000
0010
,
0020
0000
1030
0001
1000
0100
0010
0000
,
1000
0100
0010
0100
,
1000
0000
0000
2000
0000
3000
0020
0000
0030
0200
0000
0300
,
0010
0000
1000
0001
0100
0010
2000
0000
,
3010
0100
0010
1000
,
0001
0000
0000
0002
0000
0003
0020
0000
0030
0200
0000
0300
,
1000
0001
0100
0010
0000
1000
0100
1000
,
0001
0010
0000
0100
0100
0010
0100
0010
,
0000
0000
0000
0100
0000
0000
0200
0000
0000
0000
0300
0000
0002
0000
0000
0000
0003
0000
2000
0000
0000
0000
3000
0000
,
0010
0100
0001
1000
0100
0010
0001
0010
,
0100
1000
0001
0100
0002
0000
0023
0000
,
0230
0000
0000
0000
0300
0000
2020
0000
0000
3030
0000
0000
0220
0000
0000
0330
0000
0000
0202
0000
0000
0303
0000
0000
,
0010
0100
1000
0001
0100
0010
1000
0100
,
0010
0001
0010
0100
1000
0001
0100
0010
,
1000
0000
0000
0001
0000
0000
0020
0000
0000
0000
0030
0000
0200
0000
0000
0000
0300
0000
0002
0000
0000
0000
0003
0000
,
1000
0100
1000
0001
0100
0010
1000
0100
,
0010
0000
0000
0100
0000
0000
1000
0000
0000
0000
0000
0000
0200
0000
0000
0000
0300
0000
0002
0000
0000
0000
0003
0000
,
2000
0000
0000
0000
3000
0000
1020
0000
0000
0000
0000
0030
0201
0000
0000
0000
0000
0300
1002
0000
0000
0000
0003
0000
,
2000
0000
0000
0000
0000
0000
3100
0000
0000
0010
0000
0000
0001
0000
0000
1000
0000
0000
0002
0000
0000
0000
0003
0000
,
2001
0000
0000
0000
0000
0000
0010
0000
0000
0000
3000
0000
0020
0000
0000
0000
0000
0000
0130
0000
0000
0001
0000
0000
,
1000
0000
0000
0001
0000
0000
0200
0000
0000
0000
0000
0000
0010
0000
0000
0000
0000
0000
0010
0000
0000
0000
0300
0000
,
0020
0000
1030
0001
1000
0100
0020
0000
,
0031
1000
0001
0100
0020
0000
1030
0100
,
1000
0001
0200
0000
0310
1000
0010
0100
,
0002
0000
1000
0000
2003
0000
3100
0100
,
0010
0001
2000
0000
3010
0010
0100
0001
,
1000
0001
0020
0000
0230
0000
1000
0300
,
0010
1000
0010
0000
0100
0000
0001
0010
,
0001
0000
1000
0000
0001
1000
0001
0000
,
1000
0000
0000
0200
0000
0300
0002
0000
0003
2000
0000
3000
,
0010
0100
0010
0000
1000
0000
0001
1000
,
0001
0000
0000
0000
0000
0000
0200
0000
0300
0020
0000
0030
,
2000
0000
0000
0000
3000
0000
0200
0000
0000
0300
0000
0000
0002
0000
0000
0003
0000
0000
0020
0000
0000
0000
0030
0000
,
2000
0000
3000
0000
0000
0000
0000
0000
0000
0000
0000
0000
;

//---------------dance-single - 15- (Owem)----------------
#NOTES:
     dance-single:
     15- (Owem):
     Challenge:
     15:
     1.000,1.000,0.068,0.594,1.000,1694.000,14.000,122.000,0.000,0.000:
1000
0100
0010
0001
1000
0001
0100
0010
1000
0010
0100
0001
1000
0100
0010
0001
0000
0000
0100
0010
0100
0001
1000
0010
,
1000
0100
0010
0001
1000
0100
1000
0001
0100
0010
0000
0000
1000
0100
1000
0001
0010
0001
0100
0010
1000
0001
1000
0100
,
0010
0001
1000
0010
0000
0000
0200
0000
0000
0000
0300
0000
0002
0000
0000
0000
0003
0000
2000
0000
0000
0000
3000
0000
,
0100
0010
0001
1000
0010
1000
0100
0010
0001
1000
0100
1000
0001
0100
0010
1000
0000
0000
0001
0010
0001
0100
0010
1000
,
0001
1000
0100
0010
0001
1000
0100
1000
0001
0010
0000
0000
0100
1000
0001
1000
0010
0100
0010
1000
0001
0010
0001
0100
,
0010
1000
0001
1000
0000
0000
0100
0010
0001
1000
0001
0100
0010
1000
0001
0010
0100
1000
0100
0010
0001
1000
0000
0000
,
0100
0010
0001
1000
0001
0100
0010
1000
0001
1000
0100
0010
0001
1000
0010
0100
0000
0000
0010
1000
0001
0100
0001
0010
,
0100
1000
0010
1000
0001
0010
0001
0100
0010
1000
0000
0000
0100
1000
0001
0100
0010
1000
0010
0100
0001
1000
0010
1000
,
0100
0010
0001
0100
0000
0000
0020
0000
0000
0000
0030
0000
0200
0000
0000
0000
0300
0000
0002
0000
0000
0000
0003
0000
,
1000
0100
1000
0001
0100
0010
1000
0010
0100
0001
1000
0100
0010
0001
1000
0010
0000
0000
0100
0010
1000
0001
0100
0001
,
0010
0100
1000
0001
0010
0001
0100
0010
1000
0010
0000
0000
0100
0001
1000
0001
0010
0100
1000
0010
1000
0001
0010
0001
,
0100
0010
1000
0010
0000
0000
0200
0000
0000
0000
0300
0000
0002
0000
0000
0000
0003
0000
2000
0000
0000
0000
3000
0000
,
0200
0000
0300
0100
0000
0000
0020
0000
0000
0031
0000
0000
2000
0000
0000
3001
0000
0000
0200
0000
0000
0000
0000
0000
,
0010
0000
0000
0000
0000
0000
0001
0000
0000
0300
0000
0000
0010
1000
0010
0100
0001
1000
0010
1000
0100
0010
0001
1000
,
0100
1000
0001
0100
0000
0000
0010
0100
0010
1000
0001
0010
0001
0100
0010
1000
0100
1000
0001
0010
0100
0010
0000
0000
,
0001
1000
0001
0100
0010
1000
0010
0100
0001
1000
0100
1000
0010
0100
0001
1000
0000
0000
0200
0000
0000
0000
0300
0000
,
0020
0000
0000
0000
0030
0000
0001
0000
0100
0000
0001
0000
1000
0100
0010
0001
1000
0010
1000
0001
0100
0010
0100
0001
,
1000
0100
0010
0001
0000
0000
1000
0010
1000
0100
0010
0001
1000
0010
0100
0010
1000
0001
0010
0001
1000
0100
0000
0000
,
0010
0001
1000
0001
0100
0010
1000
0010
0100
0001
1000
0010
1000
0001
1000
0100
0000
0000
0010
0001
0010
0100
1000
0001
,
1000
0010
0100
0001
0100
0010
1000
0001
0010
0100
0000
0000
1000
0010
1000
0001
0100
0010
0100
0001
1000
0100
0010
0001
,
1000
0001
0100
0010
0000
0000
1000
0010
1000
0100
0010
0001
1000
0100
1000
0001
0010
0001
0100
0010
1000
0010
0000
0000
,
0100
0001
0100
0001
0010
0100
1000
0001
0010
0001
0100
0010
1000
0010
0100
0001
0000
0000
2000
0000
0000
0000
3000
0000
,
0200
0000
0000
0000
0300
0000
0010
0000
0001
0000
1000
0000
0001
0100
0010
1000
0010
0100
0001
1000
0100
0010
0001
1000
,
0001
0100
0010
1000
0000
0000
0001
0010
0001
0100
0010
1000
0001
0010
0100
1000
0100
0010
0001
1000
0010
1000
0000
0000
,
0100
0010
0001
1000
0001
0100
0010
1000
0010
0100
0010
1000
0001
0100
0001
0010
0000
0000
0100
1000
0001
1000
0010
0100
,
0001
1000
0001
0010
0100
1000
0010
1000
0001
0100
0000
0000
0020
0000
0000
0000
0000
0000
1030
0000
0000
0001
0000
0000
,
1000
0000
0000
0100
0000
0000
0010
0001
1000
0001
0100
0010
0100
0001
1000
0010
1000
0100
0010
0001
1000
0010
0000
0000
,
0100
0001
0100
0010
1000
0001
1000
0100
0010
0001
1000
0100
1000
0001
0010
0100
0000
0000
2000
0000
0000
0000
3000
0000
,
0020
0000
0000
0000
0030
0000
0200
0000
0000
0000
0300
0000
0001
1000
0010
0100
0010
1000
0001
1000
0100
0010
0001
1000
,
0100
0010
0100
1000
0000
0000
0001
0010
0100
0010
0001
1000
0001
0100
0010
1000
0010
0100
0010
1000
0001
0100
0000
0000
,
0010
1000
0001
0100
0001
0010
0100
1000
0001
0010
0001
0100
0010
1000
0010
0100
0000
0000
0002
0000
0000
0000
0003
0000
,
0020
0000
0000
0000
0030
0000
0200
0000
0000
0000
0300
0000
1000
0001
1000
0100
0010
0001
1000
0001
0100
0010
1000
0010
,
0100
0001
1000
0010
1000
0100
0010
0001
1000
0100
1000
0001
0010
0001
0100
0010
1000
0010
0100
0010
1000
0001
0100
0001
,
0010
0100
1000
0100
0010
0001
1000
0100
1000
0001
0010
0100
1000
0001
0100
0001
1000
0010
0200
0000
0000
0000
0300
0000
,
0002
0000
0000
0000
0003
0000
2000
0000
0000
0000
3000
0000
0010
0100
0010
1000
0001
0100
0001
0010
0100
1000
0001
0010
,
0001
0100
0010
1000
0010
0100
0001
1000
0010
1000
0100
1000
0001
0010
0001
0100
0010
1000
0010
0100
0010
1000
0001
0100
,
0002
0000
0000
0000
0000
0000
0023
0000
0000
0000
0000
0000
0230
0000
0000
0000
0300
0000
2010
0000
0000
0000
0000
3000
,
0120
0000
0000
0000
0000
0030
0201
0000
0000
0000
0300
0000
0001
1000
0100
1000
0010
0100
0001
0100
0010
1000
0001
1000
,
0100
0010
0001
1000
0100
1000
0001
0100
0010
0100
0001
1000
0100
1000
0001
0010
0100
1000
0100
0010
0001
1000
0001
0100
,
0001
1000
0010
0100
0010
1000
0100
1000
0001
0010
0001
1000
0100
0010
0001
1000
0001
0100
0020
0000
0000
0000
0030
0000
,
0200
0000
0000
0000
0300
0000
0002
0000
0000
0000
0003
0000
1000
0100
0010
0001
1000
0001
0100
0010
1000
0010
0100
0010
,
1000
0001
0100
0001
0010
0100
1000
0001
0010
0001
0100
0010
1000
0010
0100
0001
1000
0010
1000
0100
0010
0001
1000
0010
,
0200
0000
0000
0000
0300
0000
0002
0000
0000
0000
0003
0000
2000
0000
0000
0000
3000
0000
1020
0000
0000
0000
0000
0030
,
0201
0000
0000
0000
0000
0300
1002
0000
0000
0000
0003
0000
2000
0000
0000
0000
0000
0000
3100
0000
0000
0010
0000
0000
,
0001
0000
0000
1000
0000
0000
0002
0000
0000
0000
0003
0000
2001
0000
0000
0000
0000
0000
0010
0000
0000
0000
3000
0000
,
0020
0000
0130
0001
1000
0001
0200
0000
,
0010
0000
0000
0000
0000
0000
0010
0000
0000
0000
0300
0000
0020
0000
0000
0000
0000
0000
1030
0000
0000
0001
0000
0000
,
1000
0100
0020
0000
0031
1000
0001
0100
,
0020
0000
1030
0100
1000
0001
0200
0000
,
0310
1000
0010
0100
0002
0000
1000
0000
,
2003
0000
3100
0100
0010
0001
2000
0000
,
3010
0010
0100
0001
1000
0001
0020
0000
,
0230
0000
0000
0000
0000
0000
1000
0000
0000
0300
0000
0000
1000
0010
0100
0010
1000
0001
0100
0010
1000
0010
0100
0001
,
1000
0100
0010
0001
0000
0000
0100
0010
0100
0001
1000
0010
1000
0100
0010
0001
1000
0100
1000
0001
0100
0010
0000
0000
,
1000
0100
1000
0001
0010
0001
0100
0010
1000
0001
1000
0100
0010
0001
1000
0010
0000
0000
2000
0000
0000
0000
3000
0000
,
0020
0000
0000
0000
0030
0000
0200
0000
0000
0000
0300
0000
0001
0010
0100
1000
0001
0100
0010
0100
0001
1000
0100
1000
,
0001
0100
0010
1000
0000
0000
0001
0010
0001
0100
0010
1000
0001
1000
0100
0010
0001
1000
0100
1000
0001
0010
0000
0000
,
0100
1000
0001
1000
0010
0100
0010
1000
0001
0010
0001
0100
0010
1000
0001
1000
0000
0000
0100
0010
0001
1000
0001
0100
,
0010
1000
0001
0010
0100
1000
0100
0010
0001
1000
0000
0000
0100
0010
0001
1000
0001
0100
0010
1000
0001
1000
0100
0010
,
0001
1000
0010
0100
0000
0000
0010
1000
0001
0100
0001
0010
0100
1000
0010
1000
0001
0010
0001
0100
0010
1000
0000
0000
,
0100
1000
0001
0100
0010
1000
0010
0100
0001
1000
0010
1000
0100
0010
0001
0100
0000
0000
0002
0000
0000
0000
0003
0000
,
0020
0000
0000
0000
0030
0000
0200
0000
0000
0000
0300
0000
1000
0010
0100
0001
0100
0010
1000
0100
0010
0001
1000
0100
,
0010
0001
1000
0010
0000
0000
0100
0010
1000
0001
0100
0001
0010
0100
1000
0001
0010
0001
0100
0010
1000
0010
0000
0000
,
0100
0001
1000
0001
0010
0100
1000
0010
1000
0001
0010
0001
0100
0010
1000
0001
0000
0000
0020
0000
0000
0000
0030
0000
,
0002
0000
0000
0000
0003
0000
2000
0000
0000
0000
3000
0000
0020
0000
0030
0010
0000
0000
0200
0000
0000
0301
0000
0000
,
2000
3001
0200
0000
0010
0000
0001
0300
,
0010
1000
0010
0100
0001
1000
0010
1000
0100
0010
0001
1000
0100
1000
0001
0100
0000
0000
0010
0100
0010
1000
0001
0010
,
0001
0100
0010
1000
0100
1000
0001
0010
0100
0010
0000
0000
0001
1000
0001
0100
0010
1000
0010
0100
0001
1000
0100
1000
,
0010
0100
0001
1000
0000
0000
0200
0000
0000
0000
0300
0000
0020
0000
0000
0000
0030
0000
0001
0000
0100
0000
0001
0000
,
1000
0100
0010
0001
1000
0010
1000
0001
0100
0010
0100
0001
1000
0100
0010
0001
0000
0000
1000
0010
1000
0100
0010
0001
,
1000
0010
0100
0010
1000
0001
0010
0001
1000
0100
0000
0000
0010
0001
1000
0001
0100
0010
1000
0010
0100
0001
1000
0010
,
1000
0001
1000
0100
0000
0000
0010
0001
0010
0100
1000
0001
1000
0010
0100
0001
0100
0010
1000
0001
0010
0100
0000
0000
,
1000
0010
1000
0001
0100
0010
0100
0001
1000
0100
0010
0001
1000
0001
0100
0010
0000
0000
1000
0010
1000
0100
0010
0001
,
1000
0100
1000
0001
0010
0001
0100
0010
1000
0010
0000
0000
0100
0001
0100
0001
0010
0100
1000
0001
0010
0001
0100
0010
,
1000
0010
0100
0001
0000
0000
2000
0000
0000
0000
3000
0000
0200
0000
0000
0000
0300
0000
0010
0000
0001
0000
1000
0000
,
0001
0100
0010
1000
0010
0100
0001
1000
0100
0010
0001
1000
0001
0100
0010
1000
0000
0000
0001
0010
0001
0100
0010
1000
,
0001
0010
0100
1000
0100
0010
0001
1000
0010
1000
0000
0000
0100
0010
0001
1000
0001
0100
0010
1000
0010
0100
0010
1000
,
0001
0100
0001
0010
0000
0000
0100
1000
0001
1000
0010
0100
0001
1000
0001
0010
0100
1000
0010
1000
0001
0100
0000
0000
,
0020
0000
0000
0000
0000
0000
1030
0000
0000
0001
0000
0000
1000
0000
0000
0100
0000
0000
0010
0001
1000
0001
0100
0010
,
0100
0001
1000
0010
1000
0100
0010
0001
1000
0010
0000
0000
0100
0001
0100
0010
1000
0001
1000
0100
0010
0001
1000
0100
,
1000
0001
0010
0100
0000
0000
2000
0000
0000
0000
3000
0000
0020
0000
0000
0000
0030
0000
0200
0000
0000
0000
0300
0000
,
0001
1000
0010
0100
0010
1000
0001
1000
0100
0010
0001
1000
0100
0010
0100
1000
0000
0000
0001
0010
0100
0010
0001
1000
,
0001
0100
0010
1000
0010
0100
0010
1000
0001
0100
0000
0000
0010
1000
0001
0100
0001
0010
0100
1000
0001
0010
0001
0100
,
0010
1000
0010
0100
0000
0000
0002
0000
0000
0000
0003
0000
0020
0000
0000
0000
0030
0000
0200
0000
0000
0000
0300
0000
,
1000
0001
1000
0100
0010
0001
1000
0001
0100
0010
1000
0010
0100
0001
1000
0010
1000
0100
0010
0001
1000
0100
1000
0001
,
0010
0001
0100
0010
1000
0010
0100
0010
1000
0001
0100
0001
0010
0100
1000
0100
0010
0001
1000
0100
1000
0001
0010
0100
,
1000
0001
0100
0001
1000
0010
0200
0000
0000
0000
0300
0000
0002
0000
0000
0000
0003
0000
2000
0000
0000
0000
3000
0000
,
0010
0100
0010
1000
0001
0100
0001
0010
0100
1000
0001
0010
0001
0100
0010
1000
0010
0100
0001
1000
0010
1000
0100
1000
,
0001
0010
0001
0100
0010
1000
0010
0100
0010
1000
0001
0100
0002
0000
0000
0000
0000
0000
0023
0000
0000
0000
0000
0000
,
0230
0000
0000
0000
0300
0000
2010
0000
0000
0000
0000
3000
0120
0000
0000
0000
0000
0030
0201
0000
0000
0000
0300
0000
,
0001
1000
0100
1000
0010
0100
0001
0100
0010
1000
0001
1000
0100
0010
0001
1000
0100
1000
0001
0100
0010
0100
0001
1000
,
0100
1000
0001
0010
0100
1000
0100
0010
0001
1000
0001
0100
0001
1000
0010
0100
0010
1000
0100
1000
0001
0010
0001
1000
,
0100
0010
0001
1000
0001
0100
0020
0000
0000
0000
0030
0000
0200
0000
0000
0000
0300
0000
0002
0000
0000
0000
0003
0000
,
1000
0100
0010
0001
1000
0001
0100
0010
1000
0010
0100
0010
1000
0001
0100
0001
0010
0100
1000
0001
0010
0001
0100
0010
,
1000
0010
0100
0001
1000
0010
1000
0100
0010
0001
1000
0010
0200
0000
0000
0000
0300
0000
0002
0000
0000
0000
0003
0000
,
2000
0000
0000
0000
3000
0000
1020
0000
0000
0000
0000
0030
0201
0000
0000
0000
0000
0300
1002
0000
0000
0000
0003
0000
,
2000
0000
0000
0000
0000
0000
3100
0000
0000
0010
0000
0000
0001
0000
0000
1000
0000
0000
0002
0000
0000
0000
0003
0000
,
2001
0000
0000
0000
0000
0000
0010
0000
0000
0000
3000
0000
0020
0000
0000
0000
0000
0000
0130
0000
0000
0001
0000
0000
,
1000
0000
0000
0001
0000
0000
0200
0000
0000
0000
0000
0000
0010
0000
0000
0000
0000
0000
0010
0000
0000
0000
0300
0000
,
0020
0000
1030
0001
1000
0100
0020
0000
,
0031
1000
0001
0100
0020
0000
1030
0100
,
1000
0001
0200
0000
0310
1000
0010
0100
,
0002
0000
1000
0000
2003
0000
3100
0100
,
0010
0001
2000
0000
3010
0010
0100
0001
,
1000
0001
0020
0000
0230
0000
1000
0300
,
1000
0100
0010
0001
1000
0001
0100
0010
1000
0010
0100
0001
1000
0100
0010
0001
0000
0000
0100
0010
0100
0001
1000
0010
,
1000
0100
0010
0001
1000
0100
1000
0001
0100
0010
0000
0000
1000
0100
1000
0001
0010
0001
0100
0010
1000
0001
1000
0100
,
0010
0001
1000
0010
0000
0000
0200
0000
0000
0000
0300
0000
0002
0000
0000
0000
0003
0000
2000
0000
0000
0000
3000
0000
,
0100
0010
0001
1000
0010
1000
0100
0010
0001
1000
0100
1000
0001
0100
0010
1000
0000
0000
0001
0010
0001
0100
0010
1000
,
0001
1000
0100
0010
0001
1000
0100
1000
0001
0010
0000
0000
0200
0000
0000
0000
0300
0000
0020
0000
0000
0000
0030
0000
,
2000
0000
3000
0002
0000
0000
0200
0003
0000
0020
0300
0030
,
2000
0000
3000
0000
0000
0000
0000
0000
0000
0000
0000
0000
;
