#TITLE:Those Who Fight Further;
#SUBTITLE:The Black Mages (2003);
#ARTIST:The Black Mages;
#TITLETRANSLIT:;
#SUBTITLETRANSLIT:;
#ARTISTTRANSLIT:;
#CREDIT:;
#BANNER:TWFFbn.jpg;
#BACKGROUND:TWFFbg.jpg;
#LYRICSPATH:;
#CDTITLE:omegaspike_revival_cdtitle.png;
#MUSIC:Those Who Fight Further.mp3;
#OFFSET:0.990;
#SAMPLESTART:62.660;
#SAMPLELENGTH:12.000;
#SELECTABLE:YES;
#BPMS:0.000=162.060;
#STOPS:;
#BGCHANGES:;
// cache tags:
#FIRSTBEAT:4.000;
#LASTBEAT:281.667;
#SONGFILENAME:Songs/Astronomic Metal Collection 2/(OMEGAspike) Those Who Fight Further/Those Who Fight Further.sm;
#HASMUSIC:1;
#HASBANNER:1;
#MUSICLENGTH:107.815;
// end cache tags

//---------------dance-single - ----------------
#NOTES:
     dance-single:
     :
     Challenge:
     11:
     1.000,1.000,1.000,1.000,1.000,675.000,186.000,232.000,0.000,79.000:
0000
0000
0000
0000
,
1001
1000
1000
0020
0000
0030
0100
0100
0100
0002
0000
0003
,
1000
1000
1000
0010
0001
0100
0010
1000
1000
0012
0000
0013
,
1001
1000
1000
0020
0000
0030
0100
0100
0100
0002
0000
0003
,
1000
1000
1000
0100
0010
1000
0010
0010
0100
1002
0000
1013
,
1001
1000
1000
0022
0000
0033
0100
0100
0100
2002
0000
3003
,
1000
1000
1000
0110
0001
0100
0010
1000
1000
0002
0010
0103
,
1001
1000
1000
0022
0000
0033
0100
0100
0100
2002
0000
3003
,
1000
0000
1000
0000
1000
0000
0001
0000
0010
0000
0010
0000
0100
0000
1000
0000
2000
3200
0312
0000
0000
0000
0003
0000
,
1001
1000
1000
0202
0000
0303
0100
0100
0100
0022
0000
0033
,
1000
1000
1000
0011
0100
0100
0010
1000
1000
0220
0000
0331
,
1000
1000
1000
0202
0000
0303
0100
0100
0100
0022
0000
0033
,
1000
1000
1000
0011
0100
0100
0010
1000
1000
0220
0000
0331
,
1010
1000
1000
0022
0000
0033
0100
0100
0100
2002
0000
3003
,
0100
0100
0100
1001
0010
0010
0100
1000
1000
0202
0000
0313
,
1000
1000
1000
0022
0000
0033
0100
0100
0100
2002
0000
3003
,
0100
0100
0100
1001
0010
0010
0100
1000
1000
0202
1000
0313
,
1002
0000
0123
2030
3200
0320
0032
0023
0230
0320
0230
2300
,
3012
0003
1020
0230
0320
0032
0023
0230
2300
3002
0023
0230
,
0302
0000
0010
1100
0010
0000
0010
0000
0010
1203
0010
1000
,
0321
0000
0001
1100
0001
0000
2031
0000
0010
0101
0000
3000
,
1002
0000
1023
0230
2300
3200
0320
0230
2300
3002
0023
0230
,
1302
0000
0003
0000
1020
0000
0230
0000
0320
1000
0032
0100
1023
0000
0230
0000
2310
0000
3002
0000
1023
0000
0230
0000
,
0302
0000
0010
1100
0010
0000
0010
0000
0010
1203
0010
1000
,
0321
0000
0001
1100
0001
0000
2031
0000
0010
0101
0000
3010
,
1001
0000
0100
0011
1000
1000
0100
1000
0100
0011
1000
1000
,
0100
1000
0100
1001
0000
0100
1001
0110
1001
0110
1001
0110
,
1001
0100
0010
0101
0010
0100
1000
0010
0100
1010
0100
0010
,
0001
0010
0100
0011
0100
1000
0001
0010
0100
1010
0100
0010
,
1000
0100
0010
0101
0010
0100
1000
0010
0100
1010
0100
0010
,
0001
0010
0100
1010
0100
0010
0001
0100
0010
2100
0001
3100
,
1001
0100
0010
0101
0010
0100
1000
0010
0100
1010
0100
0010
,
0001
0010
0100
0011
0100
1000
0001
0010
0100
1010
0100
0002
,
1003
0100
0010
0101
0010
0100
1000
0010
0100
1010
0001
0010
,
0100
0010
0100
1010
0100
0002
0013
0101
1010
0201
1000
0310
,
2001
0000
0001
0110
0001
0000
3201
0000
0001
1320
0001
0000
,
0032
0000
1000
0110
1000
0000
1000
0000
1000
0110
1000
0013
,
2001
0000
3001
2100
0001
0000
3201
0000
0001
1320
0001
0000
,
0032
0000
1000
0110
1000
0000
1000
0000
1000
0110
1000
0103
,
2001
0000
0001
0110
0001
0000
3021
0000
0001
1230
0001
0000
,
0302
0000
1000
0110
1000
0000
1000
0000
1000
0110
1000
0103
,
2001
0000
3001
2100
0001
0000
3021
0000
0001
1230
0001
1000
,
0302
0000
0100
1010
0000
0000
1003
1000
1000
1000
1000
1000
,
0120
0030
0020
1032
0000
0100
0100
0000
0103
2001
3200
0320
,
0032
0000
0013
1200
0000
0310
0002
0000
0103
0021
0230
2300
,
3020
0030
0200
0321
0000
0100
0100
0000
0130
2001
3020
0230
,
0302
0000
0000
1203
0000
0000
0320
0000
0000
2130
0010
0010
,
3201
0300
0200
0321
0000
0100
0100
0000
1030
0201
0320
0032
,
0203
0000
0310
2100
0000
3100
0002
0000
0103
0021
0230
2300
,
3020
0030
2000
3210
0000
0010
0010
0000
0310
1200
0320
0032
,
2103
0000
0000
3210
0000
0000
0321
0000
0000
1032
0100
0100
,
1023
0030
0020
1032
0000
0100
0100
0000
0103
2001
3200
0320
,
0032
0000
0013
1200
0000
0310
0002
0000
0103
0021
0230
2300
,
3020
0030
0200
0321
0000
0100
0100
0000
0130
2001
3020
0230
,
0302
1000
0010
1203
0000
0000
0321
0000
0000
2130
0010
0010
,
3201
0300
0200
1320
0000
0100
0100
0000
1030
0201
0320
0032
,
1203
0000
0000
0000
0310
0000
2000
0000
0000
0000
3100
0000
0020
0000
0000
0000
0130
1000
0012
0000
0203
0000
0320
0000
,
0231
2300
3200
0320
0230
0320
1032
0023
0230
0320
0230
2300
,
3201
2300
3020
0230
0320
0032
2013
3200
0320
0230
0320
0032
,
0213
0000
0010
1001
0000
0000
1000
0000
1300
0012
0000
0000
,
0123
0000
0001
1100
0000
1100
0001
0100
0001
1100
0000
0030
,
0201
0000
0000
1001
0000
0000
1000
0010
1000
0011
0000
0000
,
2300
0000
0001
0110
0000
0101
3020
1100
0001
1100
0001
0130
,
1001
0010
0100
1010
0100
0001
1100
0001
0100
1001
0010
0100
,
1001
0010
0100
0011
0100
0001
1010
0100
0001
1010
0100
0010
,
1001
0100
0010
1100
0001
0100
0011
0100
0001
0110
1000
0001
,
1010
0100
1000
0011
1100
0011
1100
0011
1100
0011
1100
0011
,
1000
0100
0010
0001
0010
0100
1000
0010
0100
0001
0100
0010
,
0001
0010
0100
0010
0100
1000
0010
0100
1000
0100
0010
0001
,
2020
0000
3030
0000
2020
0000
0000
0000
0000
0000
0000
0000
3030
0100
0001
1000
0010
0100
2002
0000
3003
0000
2002
0000
,
0000
0000
0000
3003
0000
0000
0000
0000
;

//---------------dance-single - ----------------
#NOTES:
     dance-single:
     :
     Hard:
     10:
     0.878,0.849,0.844,0.519,1.000,516.000,91.000,56.000,0.000,8.000:
0000
0000
0000
0000
,
1000
0100
0010
0002
0000
0003
0010
0100
1000
0002
0000
0003
,
0010
0010
0001
0001
0100
0100
0010
0010
1000
2000
0000
3000
,
0010
0100
0001
2000
0000
3000
0100
0010
0001
2000
0000
3000
,
0001
0001
0100
0100
0010
0010
1000
0100
0010
0002
0000
0003
,
1000
0010
0100
0002
0000
0003
1000
0010
0100
0002
0000
0003
,
1000
0100
1000
0100
1000
0100
0010
0001
0010
0002
0000
0003
,
0010
0100
0001
2000
0000
3000
0100
0010
1000
0002
0000
0003
,
1000
0001
1000
0001
1000
0001
0100
0010
0100
0020
0000
0030
,
1000
0100
1000
0200
0000
0300
0001
0100
0001
0200
0000
0300
,
0001
0010
0100
1000
0001
0010
0100
1000
0100
0020
0000
0030
,
0001
0010
0001
0020
0000
0030
0100
1000
0100
2000
0000
3000
,
0001
0010
0100
1000
0010
0100
0001
0010
0100
2000
0000
3000
,
0001
0100
0010
2000
0000
3000
0010
0100
0001
2000
0000
3000
,
0001
0010
0001
0010
0001
0010
0100
1000
0100
0020
0000
0030
,
1000
0100
0010
0002
0000
0003
1000
0010
0100
0002
0000
0003
,
1000
1000
1000
0100
0100
0100
0010
0010
0001
0002
0000
0003
,
1100
0000
0001
0010
0100
1000
0001
0010
0100
1000
0100
0010
,
0001
0000
1000
0100
0010
0001
0010
0100
1000
0001
0010
0100
,
1000
0000
0110
0000
0101
0000
1010
0000
0101
0000
1100
0000
,
0011
0000
1010
0000
0101
0000
2000
0000
0000
0000
3000
0000
,
0011
0000
0100
0010
0001
0100
0010
1000
0100
0010
0001
0010
,
0100
0000
1000
0100
0010
0001
0010
0100
1000
0100
1000
0100
,
1000
0000
0110
0000
0011
0000
1100
0000
0110
0000
0101
0000
,
1010
0000
0101
0000
0110
0000
1001
0000
0000
0000
0000
0000
,
0011
0000
1000
0100
0010
0001
0010
0100
1000
0100
0010
0001
,
0010
0100
1000
0100
1000
0100
0010
0010
0010
0010
0010
0010
,
1000
0100
1000
0100
1000
0100
0010
0001
0010
0001
0010
0001
,
1000
0100
0010
0001
1000
0100
0010
0001
0010
0001
0010
0001
,
1000
0100
1000
0100
1000
0100
0010
0001
0010
0001
0010
0001
,
1000
0100
0010
0001
0010
0100
1000
0100
0010
2000
0000
3000
,
0001
0100
0001
0100
0001
0100
0010
1000
0010
1000
0010
1000
,
0001
1000
0001
1000
0001
1000
0010
0100
0010
0100
0010
0100
,
0001
0010
0001
0010
0001
0010
0100
1000
0100
1000
0100
1000
,
0001
0010
0100
1000
0100
0010
0001
0010
0100
2000
0000
3000
,
0200
0000
0020
0002
,
2000
0000
0000
0000
0000
0000
0000
0000
0000
0000
3333
0000
,
2000
0000
0200
0020
,
0002
0000
0000
0000
0000
0000
0000
0000
0000
0000
3333
0000
,
0002
0000
0200
0020
,
2000
0000
0000
0000
0000
0000
0000
0000
0000
0000
3333
0000
,
0020
0000
0200
0002
,
2000
0000
0000
0000
0000
0000
0000
0000
0000
0000
3333
0000
,
1100
0000
0001
0020
0000
0000
0000
0000
0030
1000
0100
0010
,
0001
0000
0000
0110
0000
0000
0110
0000
0000
0001
1000
0001
,
1000
0000
0001
0200
0000
0000
0000
0000
0300
1000
0100
0010
,
0001
0110
1010
0101
,
1100
0000
0001
0020
0000
0000
0000
0000
0030
0001
0010
0100
,
1000
0000
0000
1001
0000
0000
0110
0000
0000
0010
0100
0010
,
0100
0000
1000
0200
0000
0000
0000
0000
0300
0010
1000
0001
,
0100
0110
0101
1010
,
0101
0000
0001
2000
0000
0000
0000
0000
3000
0100
1000
0001
,
0010
0000
0000
0110
0000
0000
1010
0000
0000
0001
0010
0100
,
1000
0000
0001
0020
0000
0000
0000
0000
0030
1000
0100
0010
,
0001
1100
0011
1100
,
1001
0000
0001
2000
0000
0000
0000
0000
3000
0001
1000
0010
,
0100
0000
0000
0110
0000
0000
1010
0000
0000
0001
0010
0100
,
1000
0001
0100
0010
1000
0001
0100
0010
1000
0001
0100
0010
,
1000
0001
0010
0001
0010
0001
0010
0100
1000
0100
1000
0100
,
1000
0000
0110
0000
0101
0000
1010
0000
0101
0000
1010
0000
,
1100
0000
0011
0000
1100
0000
0011
0000
1100
0000
0110
0000
,
1001
0000
0101
0000
1010
0000
1100
0000
0011
0000
0110
0000
,
1100
0000
0101
0000
1001
0000
0110
0000
1001
0000
0110
0000
,
1010
0000
1010
0000
0101
0000
0101
0000
0011
0000
0011
0000
,
1100
0000
1100
0000
0110
0000
0110
0000
1001
0000
1001
0000
,
1010
0000
0101
0000
1010
0000
0101
0000
0011
0000
1100
0000
,
0011
0000
1100
0000
0110
0000
1001
0000
0000
0220
0000
0330
,
1000
1000
1000
0100
0100
0100
0010
0010
0010
0001
0001
0001
,
1000
0100
0010
0001
0010
0100
1000
0100
0010
0001
0010
0100
,
1001
0000
2020
0000
0000
0000
0000
0000
3030
1010
0000
2002
,
0000
0000
0000
0000
0000
3003
0000
0000
0000
0000
0000
0000
;

//---------------dance-single - Hard Edit----------------
#NOTES:
     dance-single:
     Hard Edit:
     Edit:
     12:
     1.000,1.000,1.000,1.000,1.000,675.000,255.000,232.000,0.000,145.000:
0000
0000
0000
0000
,
1011
1000
1000
0120
0000
0030
0110
0100
0100
0012
0000
0003
,
1010
1000
1000
0110
0001
0100
0011
1000
1000
0012
0000
0013
,
1101
1000
1000
0120
0000
0030
0110
0100
0100
0012
0000
0003
,
1100
1000
1000
0101
0010
1000
0011
0010
0100
1002
0000
1013
,
1101
1000
1000
0022
0000
0033
0110
0100
0100
2002
0000
3003
,
1100
1000
1000
1110
0001
0100
0011
1001
1010
0102
1010
0113
,
1011
1000
1000
0022
0000
0033
0110
0100
0100
2002
0000
3003
,
1100
0000
1000
0000
1010
0000
0101
0000
0110
0000
1010
0000
0101
0000
1010
0000
2001
3200
0312
0000
0000
0000
0003
0000
,
1011
1000
1000
0202
0000
0303
0100
0100
0100
0022
0000
0033
,
1000
1000
1000
0011
0100
0100
0010
1000
1000
0220
0000
1331
,
1000
1000
1000
0202
0000
0303
0100
0100
0100
0022
0000
0033
,
1000
1000
1000
0011
0100
0100
0010
1000
1000
0221
0000
1331
,
1011
1000
1000
0022
0000
0033
0100
0100
0100
2002
0000
3003
,
0100
0100
0100
1001
0010
0010
0100
1000
1000
0202
0000
1313
,
1000
1000
1000
0022
0000
0033
0100
0100
0100
2002
0000
3003
,
0100
0100
0100
1011
0010
0010
0100
1000
1000
0212
1000
0313
,
1002
0000
0123
2030
3200
0320
0032
1023
1230
0321
0231
2310
,
3012
0003
1020
0230
0320
0032
1023
1230
2310
3102
0123
0231
,
0302
0000
0010
1100
0010
0000
0010
0000
0010
1203
0010
1000
,
1321
0000
0001
1100
0001
0000
2131
0000
0010
0111
0000
3000
,
1002
0000
1123
0230
2300
3200
0321
0231
2310
3102
0123
1230
,
1302
0000
0003
0000
1020
0000
0230
0000
0320
1000
0032
0103
1021
0000
0230
0000
2311
0000
3002
0000
1123
0000
0230
0000
,
0302
0000
0010
1100
0010
0000
0010
0000
0010
1203
0010
1000
,
1321
0000
0001
1100
0001
0000
2131
0000
0010
0111
0000
3010
,
1101
0000
0100
0011
1000
1000
0100
1000
0100
0011
1000
1000
,
0100
1000
0100
1011
0000
0100
1001
1001
1001
1001
1001
1001
,
1011
0100
0010
0101
0010
0100
1000
0010
0100
1010
0100
0010
,
0001
0010
0100
0011
0100
1000
0001
0010
0100
1010
0100
0010
,
1000
0100
0010
0101
0010
0100
1000
0010
0100
1010
0100
0010
,
0001
0010
0100
1010
0100
0010
0001
0100
0010
2100
0001
3110
,
1011
0100
0010
0101
0010
0100
1000
0010
0100
1010
0100
0010
,
0001
0010
0100
0011
0100
1000
0001
0010
0100
1010
0100
0002
,
1003
0100
0010
0101
0010
0100
1000
0010
0100
1010
0001
0010
,
0100
0010
0100
1010
0100
0002
0013
0101
1010
0201
1000
0310
,
2101
0000
0001
0110
0001
0000
3201
0000
0001
1320
0001
0000
,
0032
0000
1000
0110
1000
0000
1000
0000
1000
0110
1000
0013
,
2101
0000
3001
2100
0001
0000
3201
0000
0001
1320
0001
0000
,
0032
0000
1000
0110
1000
0000
1000
0000
1000
0110
1000
0113
,
2011
0000
0001
0110
0001
0000
3021
0000
0001
1230
0001
0000
,
0302
0000
1000
0110
1000
0000
1000
0000
1000
0110
1000
0103
,
2011
0000
3001
2100
0001
0000
3021
0000
0001
1230
0001
1000
,
0312
0000
0100
1110
0000
0000
1003
1000
1000
1000
1000
1000
,
1120
0030
0020
1032
0000
0100
0100
0000
0103
2001
3200
0320
,
0032
0000
0013
1200
0000
0310
0002
0000
0103
0021
0230
2300
,
3020
0030
0200
0321
0000
0100
0100
0000
0130
2001
3020
0230
,
0302
0000
0000
1203
0000
0000
0320
0000
0000
2130
0010
0010
,
3211
0300
0200
0321
0000
0100
0100
0000
1030
0201
0320
0032
,
0203
0000
0310
2100
0000
3100
0002
0000
0103
0021
0230
2300
,
3020
0030
2000
3210
0000
0010
0010
0000
0310
1200
0320
0032
,
2113
0000
0000
3211
0000
0000
1321
0000
0000
1032
0100
0100
,
1123
0030
0020
1032
0000
0100
0100
0000
0103
2001
3200
0320
,
0032
0000
0013
1200
0000
0310
0002
0000
0103
0021
0230
2300
,
3020
0030
0200
0321
0000
0100
0100
0000
0130
2001
3020
0230
,
0302
1000
0010
1213
0000
0000
1321
0000
0000
2130
0010
0010
,
3211
0300
0200
1321
0000
0100
0100
0000
1030
0201
0320
0032
,
1213
0000
0000
0000
0310
0000
2000
0000
0000
0000
3100
0000
0020
0000
0000
0000
0130
1000
0112
0000
0203
0000
0320
0000
,
0231
2300
3200
0320
0230
0320
1132
0023
0230
0320
0230
2300
,
3211
2300
3020
1231
0320
0032
2113
3200
0320
1230
0321
1032
,
1213
0000
0010
1001
0000
0000
1000
0000
1300
0112
0000
0000
,
1123
0000
0001
1100
0000
1100
0001
0100
0001
1101
0000
0030
,
1201
0000
0000
1011
0000
0000
1000
0010
1000
1011
0000
0000
,
2311
0000
0001
0110
0000
0101
3020
1101
0001
1101
0001
0130
,
1011
0010
0100
1011
0100
0001
1110
0001
0100
1011
0010
0100
,
1101
0010
0100
1011
0100
0001
1110
0100
0001
1011
0100
0010
,
1101
0100
0010
1110
0001
0100
1011
0100
0001
0111
1000
0001
,
1011
0100
1000
0101
0101
0101
0101
0101
0101
0101
0101
0101
,
1000
0100
0010
0001
0010
0100
1000
0010
0100
0001
0100
0010
,
1001
0011
1100
0011
0110
1100
0011
0110
1100
1100
0110
0011
,
2120
0000
3030
0000
2120
0000
0000
0000
0000
0000
0000
0000
3030
0100
0001
1000
0010
0100
2012
0000
3003
0000
2012
0000
,
0000
0000
0000
3003
0000
0000
0000
0000
;
