#TITLE:Die Nigga Die;
#SUBTITLE:;
#ARTIST:Frazzbass & Komprex;
#TITLETRANSLIT:;
#SUBTITLETRANSLIT:;
#ARTISTTRANSLIT:;
#CREDIT:;
#BANNER:../fallback - bn.png;
#BACKGROUND:../fallback - bg.png;
#LYRICSPATH:;
#CDTITLE:;
#MUSIC:Die Nigga Die.ogg;
#OFFSET:-0.125;
#SAMPLESTART:65.441;
#SAMPLELENGTH:11.980;
#SELECTABLE:YES;
#BPMS:0.000=277.500;
#STOPS:;
#BGCHANGES:;
// cache tags:
#FIRSTBEAT:24.000;
#LASTBEAT:688.000;
#SONGFILENAME:Songs/Beast Aoreo BEAST!/Die Nigga Die - [Aoreo]/Niggas.sm;
#HASMUSIC:1;
#HASBANNER:1;
#MUSICLENGTH:150.641;
// end cache tags

//---------------dance-single - J. Nero----------------
#NOTES:
     dance-single:
     J. Nero:
     Challenge:
     14:
     0.958,1.000,0.392,0.093,0.395,930.000,59.000,14.000,21.000,3.000:
0000
0000
0000
0000
,
0000
0000
0000
0000
,
0000
0000
0000
0000
,
0000
0000
0000
0000
,
0000
0000
0000
0000
,
0000
0000
0000
0000
,
1000
0000
0010
0100
0000
0001
1000
0000
,
0100
0000
1000
0010
0000
0100
0001
0000
,
0010
0000
0100
1000
0000
0010
0100
0000
,
0101
0000
0000
0000
1001
0000
0001
0010
,
0100
0000
1000
0010
0000
0100
0001
0000
,
1000
0000
0001
0010
0000
0010
0100
0000
,
1000
0000
0010
0100
0000
0001
1000
0000
,
1010
0000
0000
0000
0110
0000
0100
0001
,
0101
0000
0001
0010
0011
0001
0010
0000
,
0100
0000
1000
0010
0110
0100
0002
0003
,
2000
3000
0020
0030
0110
0000
0000
0000
,
0111
0000
1001
0000
,
1000
0000
0100
0010
0011
0001
0100
0000
,
0010
0000
1000
0100
1100
1000
0010
0100
,
0000
0000
0000
0000
,
0000
0000
0000
0000
,
1111
0000
0000
0000
,
0000
0000
0000
0000
,
0000
0000
0000
0000
,
0000
0000
0000
0000
,
0000
0001
0000
0000
0000
0100
0000
0000
0000
0100
0000
0000
0000
0010
0000
0000
,
0000
1000
0000
0000
0000
0404
0000
0000
0000
0000
0000
0000
0000
0000
0000
0303
,
0000
0001
0000
0000
0000
1000
0000
0000
0000
1000
0000
0000
0000
0010
0000
0000
,
0000
1000
0000
0000
0000
4040
0000
0000
0000
0000
0000
0000
0000
0000
3030
0000
,
0000
0010
0100
0000
0101
0000
0000
0000
,
0001
1000
0001
0000
1001
0000
0000
0000
,
1000
0100
0010
0000
0011
0000
0000
0000
,
0001
0000
0100
0000
0010
0000
0000
0000
0100
0001
0100
0001
0100
0001
0100
0001
,
0100
0001
0010
0000
0110
0000
0100
0000
,
1000
0010
0100
0000
0110
0000
0000
0000
,
0010
1000
0100
0000
1100
0000
1000
0000
,
0100
0010
0001
0000
0011
0000
0000
0000
,
0010
0100
1000
0000
1010
0000
0000
0000
,
0010
0100
0001
0000
0100
0000
0000
0000
,
0000
0000
0000
0000
,
0000
0000
0000
0000
,
0001
0100
0010
1000
0100
0010
0001
1000
,
0100
1000
0010
0100
0001
0000
1000
0000
,
0010
0000
0100
0000
0001
0000
0010
0000
0100
0000
1000
0000
0010
0000
1000
0010
,
1000
0000
0010
0000
0100
0000
0001
0000
1000
0000
0100
0000
1000
0000
0001
0100
,
0001
1000
0010
0100
0001
0010
0100
1000
,
0010
0100
0001
1000
0100
0000
1000
0000
,
0001
0100
0001
0010
0100
1000
0010
1000
,
0001
1000
0001
1000
0001
1000
0001
1000
0001
0000
0000
0000
0000
0000
0000
0000
,
1000
0010
0100
0001
0010
0100
1000
0010
,
0100
0001
0010
0100
1000
0010
0100
0001
,
1000
0000
0100
0000
1000
0000
0010
0000
0100
0000
0001
0000
1000
0000
0010
0100
,
0010
0000
0100
0000
0001
0000
0010
0000
0100
0000
1000
0000
0100
0000
1000
0001
,
1000
0001
0010
0100
0010
0001
0100
0010
,
1000
0100
0010
0100
1000
0000
0010
0000
,
0100
0001
1000
0100
1000
0010
0100
0001
,
1000
0001
1000
0001
4000
0000
0000
0000
3001
0000
0000
0000
0000
0000
0000
0000
,
M000
00M0
0M00
000M
,
M000
0000
0000
0000
00M0
0000
0000
0000
0000
0001
1000
0100
0010
0001
0010
0100
,
1000
0000
0000
0000
,
0000
0000
0000
0000
0000
0000
0000
0000
0000
0001
0100
0010
1000
0001
0100
0010
,
1000
0000
0000
0000
0000
0010
0000
0000
0000
0000
0100
0000
0000
0000
0001
0000
,
0000
1000
0000
1000
0000
0010
0000
0100
,
0101
0001
1000
0100
,
4000
0000
0000
0000
0000
0000
0000
3000
,
1101
0001
0100
0010
,
0100
0000
0000
0001
0100
0000
0010
0000
,
1100
1010
0110
0100
,
0001
1000
0010
0100
0001
0100
0010
1000
,
0100
1000
1010
0010
,
0100
0001
0011
0010
,
0110
0000
0000
0000
0000
0000
0100
0000
0000
1000
0000
0000
0010
0000
0000
0000
0000
0000
0100
0000
0010
0000
1000
0000
,
0001
0010
0100
1000
0010
0100
0001
1000
0100
1000
0000
0000
,
1010
0010
0101
0001
,
0010
0100
1100
1000
,
1001
0000
0000
0000
0001
0100
0001
0000
0100
0000
0000
0000
0001
0000
0010
0000
,
0110
0100
1000
0010
0100
0001
1000
0100
,
1000
0002
0000
0000
,
0003
0000
0000
0000
,
0001
0000
1000
0000
0001
0000
1000
0100
1000
0000
0100
0000
0010
0000
0001
0010
,
0001
0100
0010
1000
0100
1000
0010
1000
,
0001
0000
1000
0100
1000
0000
0001
0010
0100
0000
0010
0100
1000
0000
0010
0000
,
0100
0001
1000
0100
1100
0000
1010
0000
,
0010
0000
0100
0000
0001
0000
1000
0001
1000
0000
0001
0000
0100
0010
0100
0000
,
0010
0000
1000
0000
0100
0000
0010
0000
0001
0000
0100
0000
0010
1000
0010
1000
,
0010
0000
0100
0000
0001
0000
1000
0100
1000
0000
0100
0000
0010
0000
0001
0010
,
0001
0010
0100
1000
0010
0100
0001
0100
,
0010
0000
1000
0000
0100
0000
1000
0010
1000
0000
0010
0000
0100
0010
0100
0000
,
0010
0000
1000
0000
0001
0010
0001
0000
0010
0000
0100
0000
1000
0100
1000
0100
,
1000
0000
0100
0000
1000
0000
0010
0100
0010
0000
0100
0000
0001
0010
0001
0000
,
0100
0000
0010
0000
1000
0000
0001
0000
1000
0001
1000
0001
1000
0001
1000
0001
,
1000
0000
0001
0000
0100
0000
0010
0100
0010
0000
0100
0000
0001
0000
1000
0000
,
0100
1000
0100
0000
1000
0100
1000
0000
0100
0000
0010
0000
0001
0010
0001
0010
,
0001
0000
0010
0000
0001
0000
0100
0001
0100
0000
0001
0000
1000
0000
0100
1000
,
0100
1000
0100
1000
0100
1000
0100
1000
0100
0000
0000
0000
0000
0000
0000
0000
,
1010
0000
0000
0000
,
0000
0000
0000
0100
,
0001
0000
0000
0000
,
0000
0000
0000
0000
0000
0000
0000
0000
0000
0000
0000
0000
0000
0000
0000
0000
0000
0000
0000
0000
0000
0000
0000
0000
0000
0000
0000
0000
0000
0000
0000
0000
0200
0000
0000
0000
0000
0000
0000
0000
0000
0000
0000
0000
0000
0000
0000
0300
0200
0000
0000
0000
0000
0000
0000
0000
0000
0000
0000
0000
0000
0000
0000
0300
,
1010
0000
1000
0000
0001
0000
0000
0100
,
0010
0000
0100
0000
0000
0000
0001
1000
,
0100
0000
1000
0000
0010
0000
0000
0100
,
0001
0100
0010
1000
,
0100
0000
1000
0010
0100
0001
1000
0000
,
0001
0000
0010
0000
0100
0000
1000
0010
,
0100
0001
0100
0010
,
1000
0100
0010
0001
,
0101
0000
0100
0000
0010
0000
0000
1000
,
0100
0000
1000
0000
0000
0000
0001
0010
,
0100
0010
0001
0000
,
0100
0101
0001
0000
,
1000
0100
1000
0010
0100
0001
0010
0100
,
1000
0100
1000
0010
0100
0001
0010
0100
,
1000
0010
0100
0001
,
0000
0100
0000
0010
,
1001
0000
0000
0000
0101
0000
0000
0010
,
0100
0000
0001
0000
0011
0000
0010
0100
,
1000
0010
0110
0100
,
1010
1000
1001
0000
,
0001
0000
0100
0000
0010
0000
0000
1000
,
0100
0010
0100
1000
,
0020
0000
0130
0001
0100
0000
0002
0003
,
2000
0000
3010
0100
0010
0000
0100
0000
,
0101
0001
1100
0000
,
1000
0000
0010
0000
0110
0000
0100
0001
,
1000
0100
1010
0000
,
0010
0100
0001
0000
,
2000
0000
0000
0000
0000
3000
0020
0000
,
0000
0000
0000
0000
0000
0000
0000
0030
,
0200
0001
0000
0302
,
0000
1003
0010
0000
,
1100
1000
0000
0000
,
0000
0000
MM1M
0000
,
MM1M
0000
MM1M
0000
,
MM1M
0000
MM1M
0000
,
0100
0001
0010
0100
1000
0010
0100
0001
,
1000
0100
1000
0010
0100
0001
1000
0100
,
0010
0100
1000
0010
0100
0001
0010
0100
,
1000
0000
0010
0000
0100
0000
0001
0000
1000
0001
1000
0001
1000
0001
1000
0001
,
1000
0001
0010
0100
1000
0010
0100
0001
,
1000
0010
0100
0001
1000
0010
0100
0010
,
1000
0001
0010
0100
0010
0001
0100
0010
,
1000
0001
0100
0010
0110
0000
0000
0000
,
0101
0001
0100
0010
1000
0100
0010
0001
,
0100
0010
1000
0100
0010
0100
1000
0010
,
0100
0000
0001
0000
0100
0000
0010
0000
1000
0000
0100
0000
1000
0000
0001
0100
,
0001
0000
0100
0000
0010
0000
1000
0000
0100
1000
0100
1000
0100
1000
0100
1000
,
0100
1000
0010
0100
0001
0010
0100
1000
,
0100
1000
0010
0100
0001
0010
0100
0010
,
0001
0100
0010
1000
0100
1000
0010
0100
,
0001
0100
0001
0100
0004
0000
0000
0000
0103
0000
0000
0000
0000
0000
0000
0000
,
1001
0000
0000
0000
,
0001
0000
0000
0000
0000
0000
0000
0000
1000
0000
0000
0000
0000
0000
0000
0000
0010
0000
0000
0000
0000
0000
0000
0000
0100
0000
0000
0000
0000
0000
0000
0000
0001
0000
0000
0000
0000
0000
0000
0000
0000
1000
0000
0000
0000
0010
0000
0000
,
0100
0000
0010
0000
1000
0000
0100
0000
0010
0000
0001
0000
0100
0000
0001
0100
,
0001
0000
1000
0000
0010
0000
0100
0000
0001
0000
1000
0000
0100
0010
0100
0000
,
0010
0000
0001
0000
0100
0000
0010
1000
0010
0000
1000
0000
0010
0000
0100
0001
,
0100
0000
0001
0000
0010
0000
0100
0000
1000
0000
0001
0000
1000
0001
1000
0001
,
1000
0000
0001
1000
0001
0000
1000
0000
0100
1000
0100
0000
1000
0000
0010
0100
,
0010
0000
0100
0001
0100
0000
0001
0100
0001
0100
0001
0100
0001
0000
0100
0000
,
0010
0000
1000
0000
0100
0000
1000
0010
1000
0000
0010
0100
0010
0000
0100
0001
,
0100
0001
1000
0100
1100
0000
0000
0000
,
1000
0010
0100
0001
0010
0100
1000
0010
,
0100
0001
1000
0100
1000
0010
0100
0001
,
0010
0100
0010
0001
0100
0010
1000
0100
,
1000
0100
1000
0100
1000
0100
1000
0100
1000
0000
0000
0000
0000
0000
0000
0000
,
0010
0100
0001
1000
0100
0010
0100
1000
,
0010
0100
0001
1000
0100
0010
0001
0100
,
0010
0000
1000
0000
0001
0100
0001
0000
0100
0000
0010
1000
0010
0000
1000
0100
,
1000
0000
0100
0000
0010
0000
0001
0000
0100
0001
0100
0001
0100
0001
0100
0001
,
0200
0000
0000
0000
,
0000
0000
0000
0000
,
0300
0000
0000
0000
;
