#TITLE:M.A.M.A.;
#SUBTITLE:;
#ARTIST:Jea;
#TITLETRANSLIT:;
#SUBTITLETRANSLIT:;
#ARTISTTRANSLIT:;
#CREDIT:;
#BANNER:mama bn.png;
#BACKGROUND:mama bg.png;
#LYRICSPATH:;
#CDTITLE:;
#MUSIC:mama.ogg;
#OFFSET:0.353;
#SAMPLESTART:113.485;
#SAMPLELENGTH:21.941;
#SELECTABLE:YES;
#BPMS:0.000=175.000;
#STOPS:;
#BGCHANGES:;
// cache tags:
#FIRSTBEAT:12.000;
#LASTBEAT:411.000;
#SONGFILENAME:Songs/SHARPNELSTREAMZ v2/mama/mama.sm;
#HASMUSIC:1;
#HASBANNER:1;
#MUSICLENGTH:141.257;
// end cache tags

//---------------dance-single - 15+ (Aoreo)----------------
#NOTES:
     dance-single:
     15+ (Aoreo):
     Challenge:
     15:
     1.000,1.000,0.021,0.014,1.000,1488.000,3.000,2.000,0.000,0.000:
0000
0000
0000
0000
,
0000
0000
0000
0000
,
0000
0000
0000
0000
,
1000
0001
0000
1000
0100
1000
0001
0100
0010
0100
0001
1000
0001
0100
0001
1000
,
0100
0010
0100
0010
0001
1000
0100
1000
0001
0100
0010
0100
0001
1000
0001
0100
,
0010
1000
0010
0100
0001
1000
0001
0010
0100
0010
0100
1000
0001
1000
0010
0100
,
0001
1000
0001
0100
0010
0100
0001
1000
0100
1000
0001
0010
0100
0010
0001
1000
,
0001
0100
0010
0100
0001
1000
0010
0100
0010
1000
0001
0100
0001
1000
0100
1000
,
0001
0010
0100
0010
0100
1000
0001
0010
0001
1000
0100
1000
0001
0100
0010
0100
,
0001
1000
0100
0010
0100
1000
0001
0010
0001
1000
0001
0100
0010
0100
0001
1000
,
0001
1000
0100
0010
0100
1000
0001
0010
0001
1000
0010
1000
0100
0010
0001
1000
,
0001
0100
0001
0010
0100
1000
0001
0100
0010
1000
0100
1000
0100
0010
0001
1000
,
0001
0100
0010
0100
0001
0010
0001
1000
0010
1000
0100
0010
0001
1000
0001
0100
,
0010
1000
0010
1000
0100
0010
0001
1000
0010
0100
0001
0010
0001
1000
0100
1000
,
0001
0100
0010
1000
0100
1000
0001
0100
0001
0100
0010
1000
0001
0010
0100
1000
,
0001
1000
0100
1000
0010
0100
0010
1000
0001
0010
0001
0100
0010
0100
0001
1000
,
0001
0010
0100
1000
0010
1000
0010
0100
0001
0100
0001
0010
0100
1000
0001
1000
,
0010
0100
0010
1000
0100
0010
0100
1000
0001
0100
0010
0100
0001
1000
0100
0010
,
0004
4000
0000
0000
0000
0000
0000
0000
0000
0000
0000
0000
0000
0000
0000
0000
0000
0000
0000
0000
0000
0000
0000
3003
,
0010
1000
0001
0100
0001
1000
0100
0010
0001
1000
0001
0100
0010
0100
0001
1000
,
0001
0100
0010
0100
0001
1000
0100
0010
0001
1000
0100
1000
0001
0100
0001
1000
,
0010
0100
0010
1000
0001
0100
0001
1000
0001
0010
0100
1000
0001
0100
0010
0100
,
0001
1000
0100
0010
0001
1000
0100
1000
0001
0100
0010
1000
0010
0100
0001
1000
,
0100
1000
0010
0100
0010
1000
0001
1000
0100
0010
0100
0010
0001
1000
0100
1000
,
0001
0100
0010
0100
0001
1000
0001
0100
0010
0100
0001
1000
0001
0010
0100
1000
,
0001
0100
0010
0100
0001
1000
0100
0010
0001
1000
0001
0100
0010
0100
0001
1000
,
0001
0100
0001
1000
0100
0010
0100
0010
0001
0100
0010
1000
0100
0010
0100
1000
,
0010
0100
0010
1000
0001
0010
0001
0100
0001
1000
0010
1000
0001
0010
0001
0100
,
0001
1000
0010
1000
0001
0010
0001
0100
0001
1000
0100
0010
0100
1000
0001
0100
,
0010
0100
0001
1000
0100
1000
0010
1000
0001
0100
0001
1000
0100
1000
0010
1000
,
0001
0100
0001
1000
0100
1000
0010
1000
0001
0100
0010
0100
0001
0010
0100
1000
,
0010
0100
0010
1000
0001
0010
0001
0100
0001
1000
0010
1000
0001
0010
0001
0100
,
0001
1000
0010
1000
0001
0010
0001
0100
0001
1000
0100
0010
0100
1000
0001
0100
,
0010
0100
0001
1000
0100
1000
0010
1000
0001
0100
0001
1000
0100
1000
0010
1000
,
0001
0100
0001
1000
0100
1000
0001
0100
0001
1000
0100
0010
0001
1000
0010
0100
,
0010
1000
0001
0100
0001
1000
0100
1000
0001
0010
0100
1000
0001
0100
0001
1000
,
0010
0100
0010
1000
0001
0100
0001
1000
0100
0010
0100
0010
0001
1000
0001
0100
,
0010
1000
0001
0100
0001
1000
0100
0010
0001
1000
0100
0010
0100
1000
0001
0100
,
0001
1000
0010
0100
0010
1000
0001
0100
0001
1000
0100
0010
0001
1000
0100
1000
,
0001
0100
0001
1000
0010
0100
0010
0100
0001
1000
0001
0010
0100
1000
0001
0100
,
0001
1000
0100
0010
0100
1000
0001
0100
0010
0100
0001
1000
0100
0010
0001
1000
,
0100
1000
0001
1000
0010
0100
0010
1000
0001
0100
0001
1000
0100
0010
0001
1000
,
0001
0100
0010
0100
0001
1000
0100
0010
0001
1000
0001
0100
0010
0100
0010
1000
,
0100
0010
0001
1000
0100
1000
0001
0100
0010
0100
0001
1000
0010
0100
0010
1000
,
0100
0010
0100
1000
0010
0100
0001
0010
0001
1000
0100
1000
0010
0100
0001
0100
,
0001
0010
0100
1000
0001
0100
0001
0010
0100
1000
0100
1000
0010
0100
0001
0010
,
0100
1000
0010
0100
0001
1000
0100
1000
0100
0010
0001
1000
0010
0100
0001
0010
,
0100
1000
0010
0100
0001
1000
0001
0100
0010
0100
0001
1000
0100
0010
0001
0100
,
0010
0100
0001
1000
0001
0010
0100
0010
0001
1000
0100
1000
0001
0100
0010
1000
,
0100
1000
0001
0100
0010
0100
0001
1000
0001
0010
0100
1000
0001
0100
0010
1000
,
0100
0010
0100
1000
0001
0100
0010
1000
0010
1000
0001
0010
0100
1000
0010
1000
,
0100
0010
0001
1000
0010
0100
0001
1000
0100
1000
0001
0100
0001
0010
0100
1000
,
0010
0100
0010
1000
0001
0100
0001
1000
0100
1000
0010
0100
0001
1000
0100
0010
,
0001
0100
0010
1000
0010
0100
0001
1000
0001
1000
0100
1000
0001
0100
0010
1000
,
0100
1000
0001
0100
0010
0100
0001
1000
0001
0010
0100
1000
0001
0100
0010
0100
,
0001
0010
0001
1000
0100
1000
0001
0100
0010
0100
0001
1000
0001
0010
0100
1000
,
0010
0100
0010
1000
0001
0100
0001
1000
0100
0010
0100
1000
0001
0100
0010
0100
,
0001
0010
0100
1000
0001
0100
0010
0100
0001
1000
0100
1000
0001
0100
0010
1000
,
0100
1000
0001
0100
0010
0100
0001
1000
0001
0010
0100
1000
0001
0100
0010
0100
,
0001
0010
0001
1000
0100
1000
0001
0100
0010
0100
0001
1000
0001
0010
0100
1000
,
0010
0100
0010
1000
0001
1000
0100
0010
0100
1000
0001
1000
0010
0100
0001
0100
,
0001
0010
0100
1000
0001
0100
0001
1000
0010
0100
0010
1000
0001
0010
0100
0010
,
0001
0100
0010
1000
0010
0100
0001
0100
0010
1000
0001
0100
0001
0010
0100
1000
,
0010
0100
0001
1000
0001
0010
0100
0010
0001
1000
0100
1000
0001
0100
0010
1000
,
0100
1000
0001
0100
0010
0100
0001
1000
0001
0010
0100
1000
0001
0100
0010
1000
,
0100
0010
0100
1000
0001
0100
0010
1000
0010
1000
0001
0010
0100
1000
0010
1000
,
0100
0010
0001
0100
0010
1000
0100
0010
0001
0100
0010
1000
0100
0010
0001
1000
,
0010
0100
0010
1000
0001
0100
0001
1000
0100
1000
0010
0100
0001
1000
0100
0010
,
0001
0100
0010
1000
0010
0100
0001
1000
0001
1000
0100
1000
0001
0100
0010
1000
,
0100
1000
0001
0100
0010
0100
0001
1000
0001
0010
0100
1000
0001
0100
0010
0100
,
0001
0010
0001
1000
0100
1000
0001
0100
0010
0100
0001
1000
0001
0010
0100
1000
,
0010
0100
0010
1000
0001
0100
0001
1000
0100
0010
0100
1000
0001
0100
0010
0100
,
0001
0010
0100
1000
0001
0100
0010
0100
0001
1000
0100
1000
0001
0100
0010
1000
,
0100
1000
0001
0100
0010
0100
0001
1000
0001
0010
0100
1000
0001
0100
0010
0100
,
0001
0010
0100
1000
0010
0100
0001
0010
0100
1000
0010
0100
0001
0010
0100
1000
,
0001
0100
0001
1000
0100
1000
0001
0100
0010
0100
0001
1000
0001
0100
0001
1000
,
0100
0010
0100
0010
0001
1000
0100
1000
0001
0100
0010
0100
0001
1000
0001
0100
,
0010
1000
0010
0100
0001
1000
0001
0010
0100
0010
0100
1000
0001
1000
0010
0100
,
0001
1000
0001
0100
0010
0100
0001
1000
0100
1000
0001
0010
0100
0010
0001
1000
,
0001
0100
0010
0100
0001
1000
0010
0100
0010
1000
0001
0100
0001
1000
0100
1000
,
0001
0010
0100
0010
0100
1000
0001
0010
0001
1000
0100
1000
0001
0100
0010
0100
,
0001
1000
0100
0010
0100
1000
0001
0010
0001
1000
0001
0100
0010
0100
0001
1000
,
0001
0100
0010
1000
0100
1000
0010
0100
0001
0010
0001
0100
0010
1000
0100
1000
,
0001
0010
0100
1000
0001
0100
0010
0100
0001
1000
0100
0010
0100
1000
0010
0100
,
0001
0010
0100
1000
0001
0100
0010
0100
0001
1000
0100
0010
0100
1000
0010
0100
,
0001
0010
0001
1000
0100
1000
0001
0100
0010
0100
0001
0010
0100
0010
0100
1000
,
0010
0100
0010
1000
0001
0100
0010
1000
0001
1000
0100
0010
0100
1000
0010
0100
,
0001
0010
0001
1000
0100
1000
0001
0100
0010
0100
0001
1000
0100
0010
0100
1000
,
0010
0100
0010
1000
0001
0100
0010
0100
0001
1000
0100
0010
0001
1000
0010
0100
,
0001
0010
0100
1000
0001
1000
0010
0100
0010
0100
0001
0010
0100
1000
0100
1000
,
0010
0100
0010
1000
0001
0010
0100
0010
0001
1000
0010
0100
0010
1000
0001
0100
,
0001
0010
0001
1000
0100
0010
0100
1000
0010
0100
0001
1000
0100
1000
0001
0010
,
0100
1000
0010
0100
0010
1000
0001
1000
0010
0100
0001
0010
0100
1000
0010
0100
,
0001
1000
0100
1000
0001
0100
0010
0100
0001
1000
0100
0010
0100
1000
0010
0100
,
0001
0010
0001
1000
0100
1000
0001
0100
0010
0100
0001
0010
0100
1000
0001
0100
,
0010
0100
0001
1000
0100
0010
0100
1000
0010
0100
0001
0010
0100
1000
0010
0100
,
0001
1000
0100
0010
0100
1000
0010
0100
0001
0010
0100
1000
0010
0100
0001
1000
,
0004
4000
0000
0000
0000
0000
0000
0000
0000
0000
0000
0000
0000
0000
0000
0000
0000
0000
0000
0000
0000
0000
0000
0000
,
0000
0000
0000
0000
,
0000
0000
0000
0000
,
0000
0000
0000
0000
0000
0000
0000
0000
0000
0000
0000
0000
0000
0000
0000
3003
,
2002
0000
0000
0003
0000
0000
0000
0000
0000
0000
0000
0000
0000
0000
0000
0000
,
0000
0000
0000
3000
;
