#TITLE:Crystal Wind;
#SUBTITLE:;
#ARTIST:Glome;
#TITLETRANSLIT:;
#SUBTITLETRANSLIT:;
#ARTISTTRANSLIT:;
#CREDIT:;
#BANNER:cwbn.png;
#BACKGROUND:cwbg.png;
#LYRICSPATH:;
#CDTITLE:WC cdtitle.png;
#MUSIC:Crystal Wind.ogg;
#OFFSET:0.000;
#SAMPLESTART:32.086;
#SAMPLELENGTH:12.000;
#SELECTABLE:YES;
#BPMS:0.000=187.010,1.000=186.996,3.000=187.010,4.000=186.996,7.000=187.010,8.000=186.996,11.000=187.010,12.000=186.996,14.000=187.010,15.000=186.996,18.000=187.010,19.000=186.996,22.000=187.010,23.000=186.996,26.000=187.010,27.000=186.996,29.000=187.010,30.000=186.996,33.000=187.010,34.000=186.996,37.000=187.010,38.000=186.996,41.000=187.010,42.000=186.996,45.000=187.010,46.000=186.996,48.000=187.010,49.000=186.996,52.000=187.010,53.000=186.996,56.000=187.010,57.000=186.996,59.000=187.010,60.000=186.996,63.000=187.010,64.000=186.996,67.000=187.010,68.000=186.996,71.000=187.010,72.000=186.996,75.000=187.010,76.000=186.996,78.000=187.010,79.000=186.996,82.000=187.010,83.000=186.996,86.000=187.010,87.000=186.996,90.000=187.010,91.000=186.996,93.000=187.010,94.000=186.996,97.000=187.010,98.000=186.996,101.000=187.010,102.000=186.996,104.000=187.010,105.000=186.996,108.000=187.010,109.000=186.996,112.000=187.010,113.000=186.996,116.000=187.010,117.000=186.996,119.000=187.010,120.000=186.996,123.000=187.010,124.000=186.996,127.000=187.010,128.000=186.996,131.000=187.010,132.000=186.996,134.000=187.010,135.000=186.996,138.000=187.010,139.000=186.996,142.000=187.010,143.000=186.996,146.000=187.010,147.000=186.996,150.000=187.010,151.000=186.996,153.000=187.010,154.000=186.996,157.000=187.010,158.000=186.996,161.000=187.010,162.000=186.996,165.000=187.010,166.000=186.996,168.000=187.010,169.000=186.996,172.000=187.010,173.000=186.996,176.000=187.010,177.000=186.996,180.000=187.010,181.000=186.996,183.000=187.010,184.000=186.996,187.000=187.010,188.000=186.996,191.000=187.010,192.000=186.996,195.000=187.010,196.000=186.996,198.000=187.010,199.000=186.996,202.000=187.010,203.000=186.996,206.000=187.010,207.000=186.996,209.000=187.010,210.000=186.996,213.000=187.010,214.000=186.996,217.000=187.010,218.000=186.996,221.000=187.010,222.000=186.996,224.000=187.010,225.000=186.996,228.000=187.010,229.000=186.996,232.000=187.010,233.000=186.996,236.000=187.010,237.000=186.996,239.000=187.010,240.000=186.996,243.000=187.010,244.000=186.996,247.000=187.010,248.000=186.996,251.000=187.010,252.000=186.996,254.000=187.010,255.000=186.996,258.000=187.010,259.000=186.996,262.000=187.010,263.000=186.996,266.000=187.010,267.000=186.996,269.000=187.010,270.000=186.996,273.000=187.010,274.000=186.996,277.000=187.010,278.000=186.996,281.000=187.010,282.000=186.996,284.000=187.010,285.000=186.996,288.000=187.010,289.000=186.996,292.000=187.010,293.000=186.996,296.000=187.010,297.000=186.996,300.000=187.010,301.000=186.996,304.000=187.010,305.000=186.996,307.000=187.010,308.000=186.996,311.000=187.010,312.000=186.996,315.000=187.010,316.000=186.996,318.000=187.010,319.000=186.996,322.000=187.010,323.000=186.996,326.000=187.010,327.000=186.996,330.000=187.010,331.000=186.996,333.000=187.010,334.000=186.996,337.000=187.010,338.000=186.996,341.000=187.010,342.000=186.996,345.000=187.010,346.000=186.996,348.000=187.010,349.000=186.996,352.000=187.010,353.000=186.996,356.000=187.010,357.000=186.996,360.000=187.010,361.000=186.996,363.000=187.010,364.000=186.996,367.000=187.010,368.000=186.996,371.000=187.010,372.000=186.996,375.000=187.010,376.000=186.996,378.000=187.010,379.000=186.996,382.000=187.010,383.000=186.996,386.000=187.010,387.000=186.996,390.000=187.010,391.000=186.996,393.000=187.010,394.000=186.996,397.000=187.010,398.000=186.996,401.000=187.010,402.000=186.996,405.000=187.010,406.000=186.996,408.000=187.010,409.000=186.996,412.000=187.010,413.000=186.996,416.000=187.010,417.000=186.996,419.000=187.010,420.000=186.996,423.000=187.010,424.000=186.996;
#STOPS:;
#BGCHANGES:;
// cache tags:
#FIRSTBEAT:4.000;
#LASTBEAT:423.500;
#SONGFILENAME:Songs/Farewell, My Little Stepmania Pack/Crystal Wind[wc]/Crystal Wind.sm;
#HASMUSIC:1;
#HASBANNER:1;
#MUSICLENGTH:137.138;
// end cache tags

//---------------dance-single - ----------------
#NOTES:
     dance-single:
     :
     Hard:
     7:
     1.000,1.000,1.000,1.000,1.000,1159.000,403.000,159.000,0.000,36.000:
0000
0000
0000
0000
,
1000
0000
0000
0000
0000
0000
0000
0000
0000
0000
0000
0000
0100
0000
0000
0000
0010
0000
0000
0000
0000
0000
0000
0000
0000
0000
0000
0000
0000
0000
0000
0000
0000
0000
0000
0000
0010
0000
0000
0000
0000
0000
0000
0000
0000
0000
0000
0000
0000
0000
0000
0000
0000
0000
0000
0000
0000
0000
0000
0000
0001
0000
0000
0000
0000
0000
0000
0000
0000
0000
0000
0000
0010
0000
0000
0000
0000
0000
0000
0000
0000
0100
0000
0000
0000
0000
0000
0000
0000
0000
0000
0000
0000
0000
0000
0000
,
0000
0000
0000
0000
0000
1000
0101
0001
,
1000
0000
0000
0000
0000
0000
1000
0100
0010
0000
0000
0000
0000
0000
0000
0000
0000
0000
0010
0000
0000
0000
0000
0000
0000
0000
0000
0000
0000
0000
0001
0000
0000
0000
0000
0000
0010
0000
0000
0000
0000
0000
0100
0000
0000
0000
0000
0000
,
0000
0000
0000
0000
0000
1000
0010
0001
,
0100
0000
0000
0000
0000
0000
1000
0100
0010
0000
0000
0000
0000
0000
0000
0000
0000
0000
0010
0000
0000
0000
0000
0000
0000
0000
0000
0000
0000
0000
0101
0000
0000
0000
0000
0000
0110
0000
0000
0000
0000
0000
1001
0000
0000
0000
0000
0000
,
0000
0000
0000
0000
0000
1000
0101
0001
,
1000
0000
0000
0000
0000
0000
1000
0100
0010
0000
0000
0000
0000
0000
0000
0000
0000
0000
0010
0000
0000
0000
0000
0000
0000
0000
0000
0000
0000
0000
0001
0000
0000
0000
0000
0000
0010
0000
0000
0000
0000
0000
0100
0000
0000
0000
0000
0000
,
0000
0000
0000
0000
0000
1000
0100
0010
,
1000
0100
0010
1000
0001
0010
1000
0010
,
0001
0010
1000
0010
0100
1000
0001
0100
,
1000
0100
0010
1000
0001
0100
1000
0100
,
0001
0010
1000
0010
0100
1000
0001
0100
,
1001
0100
0011
1000
0001
1010
0101
0010
,
1001
0010
1100
0011
0100
1010
0110
0100
,
1001
0100
0011
1000
0001
0110
1010
0100
,
1001
0000
0010
0000
1100
0000
0001
0100
1010
0000
0100
0000
1001
0000
0010
0000
,
1100
0010
0001
1000
0011
0100
1000
0010
0100
0001
1010
0100
0011
1000
0100
0010
,
1001
0100
1001
0010
0101
0010
1000
0001
0010
0001
1100
0010
0101
1010
0001
1100
,
0011
1100
0011
0100
1001
0010
0100
0010
1000
0001
1100
0010
0101
1000
0110
0001
,
1010
0100
0010
1001
0100
0001
1010
0001
1100
0010
1100
0010
0001
0110
1001
0010
,
1100
0001
1000
0100
0011
0100
0010
0001
0100
0010
1100
0000
0011
0000
0001
0000
,
1100
0010
1100
0010
0101
1000
0100
0001
0010
0100
1001
0100
0011
1100
0010
0101
,
1010
0101
1010
0001
0110
1000
0001
0100
0010
0001
1010
0100
0011
1000
0101
0010
,
1100
0001
0100
1010
0101
0010
1100
0001
1100
0011
1100
0010
0101
1010
0101
0010
,
2002
0000
0000
3000
0003
0000
0000
0000
0000
0000
0000
0000
0100
0000
0000
0000
0000
0000
0000
0000
0000
0000
0000
0000
0001
0000
0000
0000
0000
0000
0000
0000
0000
0000
0000
0000
0010
0000
0000
0000
0000
0000
0000
0000
0000
0000
0000
0000
1001
0000
0000
0000
0000
0000
0000
0000
0000
0000
0000
0000
0100
0000
0000
0000
0000
0000
0000
0000
0000
0000
0000
0000
1000
0000
0000
0000
0000
0000
0000
0000
0000
0000
0000
0000
0010
0000
0000
0000
0000
0000
0000
0000
0000
0000
0000
0000
0100
0000
0000
0000
0000
0000
0000
0000
0000
0000
0000
0000
0001
0000
0000
0000
0000
0000
0000
0000
0000
0000
0000
0000
1100
0000
0000
0000
0000
0000
0000
0000
0000
0000
0000
0000
0010
0000
0000
0000
0000
0000
0000
0000
0000
0000
0000
0000
0101
0000
0000
0000
0000
0000
0000
0000
0000
0000
0000
0000
1000
0000
0000
0000
0000
0000
0000
0000
0000
0000
0000
0000
0001
0000
0000
0000
0000
0000
0000
0000
0000
0000
0000
0000
1000
0000
0000
0000
0000
0000
0000
0000
0000
0000
0000
0000
,
0110
0001
0110
1000
0101
0010
0100
0001
0010
0100
1001
0100
0011
1100
0010
1001
,
0110
1001
0110
1000
0011
0100
0010
0001
0100
0001
1100
0010
0101
0010
1100
0001
,
1010
0100
0001
1010
0101
0010
1001
0100
0011
1100
0011
1000
0101
1010
0101
0010
,
1001
0010
0100
1000
0110
0001
0100
1000
0001
0100
1010
0100
0011
1000
0001
0010
,
1100
0001
1100
0010
0101
1000
0010
0100
0001
0100
1001
0010
1100
0011
1000
0011
,
1100
0011
1100
0010
0101
1000
0100
0010
0001
1000
0101
0010
1100
0010
0101
1000
,
0011
0100
0010
0101
1020
0000
1100
0000
1100
0000
1100
0000
0131
1010
0101
0010
,
2101
0001
3200
0000
,
0320
0000
0000
1000
0230
0000
0310
0000
,
0002
0000
0000
0000
0000
0000
0000
0000
0000
0000
0000
0000
0000
0000
0000
0000
0000
0000
0000
0000
0000
0000
0000
0000
0000
0000
0000
0000
0000
0000
0000
0000
0000
0000
0000
0000
0000
0000
0000
0000
0000
0000
0000
0000
0000
0000
0000
0000
0000
0000
0000
0000
0000
0000
0000
0000
0000
0000
0000
0000
0000
0000
0000
0000
0000
0000
0000
0000
0000
0000
0000
0000
0000
0000
0000
0000
0000
0000
0000
0000
0000
0000
0000
0000
0000
0000
0000
0000
0000
0000
0000
0000
0000
0000
0000
0000
0203
0300
0000
0000
0000
0000
2000
3000
0000
0000
0000
0000
0002
0003
0000
0000
0000
0000
0200
0300
0000
0000
0000
0000
0020
0030
0000
0000
0000
0000
2000
3000
0000
0000
0000
0000
0200
0300
0000
0000
0000
0000
0020
0030
0000
0000
0000
0000
0002
0000
0000
0000
0000
0000
0000
0000
0000
0000
0000
0000
0000
0000
0000
0000
0000
0000
0000
0000
0000
0000
0000
0000
0000
0000
0000
0000
0000
0000
0000
0000
0000
0000
0000
0000
0000
0000
0000
0000
0000
0000
0000
0000
0000
0000
0000
0000
,
0000
0000
0023
0000
0100
0000
0032
1103
,
1020
0130
0100
0001
0100
0100
0010
1000
,
1000
0010
1000
1000
0001
1000
0010
1000
,
0100
0010
1000
0010
0001
0100
1000
0010
,
1000
0001
0010
0001
0010
0100
1000
0010
,
1201
0300
0000
0000
0000
0000
0010
0000
0000
0000
0000
0000
0001
0000
0000
0000
0000
0000
1100
0000
0000
0000
0000
0000
0011
0000
0000
0000
0000
0000
0100
0000
0000
0000
0000
0000
1010
0000
0000
0000
0000
0000
0100
0000
0000
0000
0000
0000
0012
0003
0000
0000
0000
0000
1100
0000
0000
0000
0000
0000
0011
0000
0000
0000
0000
0000
1000
0000
0000
0000
0000
0000
0011
0000
0000
0000
0000
0000
0100
0000
0000
0000
0000
0000
1010
0000
0000
0000
0000
0000
0001
0000
0000
0000
0000
0000
,
2100
3000
0000
0000
0000
0000
0010
0000
0000
0000
0000
0000
0001
0000
0000
0000
0000
0000
1010
0000
0000
0000
0000
0000
0101
0000
0000
0000
0000
0000
1000
0000
0000
0000
0000
0000
0110
0000
0000
0000
0000
0000
0001
0000
0000
0000
0000
0000
1200
0300
0000
0000
0000
0000
0011
0000
0000
0000
0000
0000
1100
0000
0000
0000
0000
0000
0010
0000
0000
0000
0000
0000
1001
0000
0000
0000
0000
0000
0100
0000
0000
0000
0000
0000
0011
0000
0000
0000
0000
0000
1000
0000
0000
0000
0000
0000
,
0120
0000
0030
0000
0000
0000
0000
0000
0000
0000
0000
0000
0001
0000
0000
0000
0000
0000
0000
0000
0000
0000
0000
0000
0110
0000
0000
0000
0000
0000
0000
0000
0000
0000
0000
0000
1001
0000
0000
0000
0000
0000
0000
0000
0000
0000
0000
0000
0110
0000
0000
0000
0000
0000
0000
0000
0000
0000
0000
0000
0001
0000
0000
0000
0000
0000
0000
0000
0000
0000
0000
0000
1010
0000
0000
0000
0000
0000
0000
0000
0000
0000
0000
0000
0100
0000
0000
0000
0000
0000
0000
0000
0000
0000
0000
0000
2000
3000
0000
0000
0000
0000
0200
0300
0000
0000
0000
0000
0020
0030
0000
0000
0000
0000
0002
0003
0000
0000
0000
0000
0200
0300
0000
0000
0000
0000
0020
0030
0000
0000
0000
0000
2000
3000
0000
0000
0000
0000
0200
0300
0000
0000
0000
0000
0002
0003
0000
0000
0000
0000
0000
0000
0000
0000
0000
0000
0010
0000
0000
0000
0000
0000
0000
0000
0000
0000
0000
0000
1100
0000
0000
0000
0000
0000
0000
0000
0000
0000
0000
0000
0001
0000
0000
0000
0000
0000
0000
0000
0000
0000
0000
0000
,
1010
0000
0000
0000
0000
0000
0101
0000
0000
0000
0000
0000
0010
0000
0000
0000
0000
0000
1100
0000
0000
0000
0000
0000
0012
0003
0000
0000
0000
0000
1000
0000
0000
0000
0000
0000
0110
0000
0000
0000
0000
0000
1001
0000
0000
0000
0000
0000
0010
0000
0000
0000
0000
0000
0101
0000
0000
0000
0000
0000
1010
0000
0000
0000
0000
0000
0101
0000
0000
0000
0000
0000
2010
3000
0000
0000
0000
0000
0100
0000
0000
0000
0000
0000
1001
0000
0000
0000
0000
0000
0100
0000
0000
0000
0000
0000
,
2010
3000
0000
0000
0000
0000
0100
0000
0000
0000
0000
0000
0011
0000
0000
0000
0000
0000
1100
0000
0000
0000
0000
0000
0011
0000
0000
0000
0000
0000
1000
0000
0000
0000
0000
0000
0110
0000
0000
0000
0000
0000
0001
0000
0000
0000
0000
0000
1100
0000
0000
0000
0000
0000
0011
0000
0000
0000
0000
0000
1100
0000
0000
0000
0000
0000
0011
0000
0000
0000
0000
0000
1100
0000
0000
0000
0000
0000
0010
0000
0000
0000
0000
0000
0101
0000
0000
0000
0000
0000
0000
0000
0000
0000
0000
0000
,
1100
0010
0001
1010
0101
0010
1001
0110
1001
0110
0001
1100
0011
0100
1001
0010
,
0100
0010
1000
0010
0001
0010
1000
0010
,
0200
0000
0000
0000
0000
0000
0000
0000
0000
0000
0000
0000
1000
0000
0000
0000
0000
0000
0000
0000
0000
0000
0000
0000
0010
0000
0000
0000
0000
0300
1011
0000
0000
0000
0000
0000
1011
0000
0000
0000
0000
0000
1011
0000
0000
0000
0000
0000
,
1110
0000
0001
0000
0010
0000
0100
0000
0011
0000
1000
0000
0100
0000
0010
0000
1000
0000
0101
0000
1010
0000
0001
0000
1100
0000
0010
0000
0000
0001
0000
0000
,
1010
0100
1000
0010
1001
0100
1000
0110
0001
0110
1001
0010
0101
0010
0001
0010
,
1100
0011
1100
0010
1001
0100
0010
0001
0100
0010
1100
0001
1010
0100
1000
0001
,
0110
0001
1000
0100
0011
1000
0010
0001
0100
0000
1001
0000
0100
0010
0001
0100
,
1001
0100
0010
0100
1010
0001
0010
0100
0010
1001
0110
1000
0101
0010
0100
1000
,
0110
0001
0010
0100
1001
0010
0100
0011
1000
0011
1100
0010
1001
0100
0010
0100
,
1010
0101
1000
0001
0110
1000
0001
0010
1000
0001
1010
0100
1001
0100
0010
1000
,
0011
0100
1000
0010
0101
0010
1000
0100
0011
1000
0011
1100
0011
1100
0011
1100
,
0022
0033
0000
0000
1000
0000
0000
0000
0100
0000
0000
0000
0010
0000
0000
0000
1001
0000
0000
0000
0100
0000
0000
0000
0010
0000
0000
0000
0100
0000
0000
0000
0001
0000
0000
0000
1100
0000
0000
0000
0011
0000
0000
0000
0100
0000
0000
0000
1001
0000
0000
0000
0100
0000
0000
0000
0010
0000
0000
0000
0001
0000
0000
0000
,
1010
0100
1000
0010
1100
0001
0100
1010
0001
1010
0101
1000
0011
0100
1000
0010
,
0101
1010
0100
1000
0011
0100
0010
1000
0100
0001
1100
0010
1001
0100
0010
0100
,
1010
0000
0000
0000
0000
0000
0122
0033
0000
0000
0000
0000
0122
0033
0000
0000
0000
0000
0000
0000
0000
0000
0000
0000
1122
0033
0000
0000
0000
0000
0000
0000
0000
1122
0033
0000
0000
0000
0000
0000
0000
0000
1122
0033
0000
0000
0000
0000
,
1000
0100
0010
0100
1001
0010
0100
1000
0010
0101
1010
0100
1001
0010
0100
1000
,
0011
0100
1000
0001
1010
0100
1000
0011
0100
0011
1100
0010
0101
1000
0010
0001
,
1010
0101
1010
0001
1100
0010
0001
1000
0010
0001
1100
0010
0101
0010
1000
0100
,
1001
0010
0100
1000
0011
1100
0010
0101
1010
0101
1010
0001
0110
1001
0110
1001
,
0220
0330
0000
0000
0000
0000
0000
0000
0000
0000
0000
0000
0000
0000
0000
0000
0000
0000
0000
0000
0000
0000
0000
0000
0000
0000
0000
0000
0000
0000
0000
0000
0000
0000
0000
0000
0000
0000
0000
0000
0000
0000
0000
0000
0000
0000
0000
0000
0000
0000
0000
0000
0000
0000
0000
0000
0000
0000
0000
0000
0000
0000
0000
0000
0000
0000
0000
0000
0000
0000
0000
0000
0020
0000
0000
0000
0000
0000
0000
0000
0000
0000
0000
0000
0000
0000
0000
0000
0000
0000
0000
0000
0000
0000
0000
0000
,
0230
0000
0302
0000
0023
0000
0030
0200
,
2300
0000
0000
3200
,
0000
0000
0000
0000
0320
0032
0000
0000
,
0203
0000
0000
0000
0320
0000
0000
0000
0230
0000
0000
0000
0320
2030
3200
0000
,
0000
2300
0000
3002
,
0000
0023
0230
2300
0000
0000
3020
0000
,
0000
0000
0230
0000
,
0312
0000
0010
0100
2003
0000
3012
0000
1000
0000
0000
0000
0023
0000
0000
0000
,
0000
0000
1000
0000
0001
0000
0100
1000
0000
0000
0032
0000
0023
0000
0230
0000
,
2301
0000
0001
0010
0000
0010
3002
0000
0000
0000
1000
0000
1023
0000
1000
0000
,
1000
0000
0231
0010
0000
0000
0010
0000
2310
0000
0100
0001
3020
0000
1000
0000
,
1230
0000
0302
0010
0203
0000
2301
0000
0010
0000
0100
0001
3020
0000
1000
0000
,
1000
0000
0000
1000
0000
0000
1000
0100
1000
0000
0101
0000
0001
1000
0000
0000
,
1000
0000
1000
0000
0000
0000
0100
1000
0000
1000
0100
0000
0000
0000
0001
0030
,
0001
0000
0001
0100
0000
0000
0001
0100
0000
0000
0011
0100
0000
0000
0101
0010
,
1001
0000
0100
0010
0000
1000
0100
0010
0001
0000
0112
0003
0111
0000
0111
0000
,
1000
0001
0010
0100
1000
0001
0100
0010
0001
0100
1001
0000
1012
0003
1001
0000
,
2110
3000
0000
0001
0000
0000
0010
0000
0000
0100
0000
0000
0011
0000
0000
1000
0000
0000
0200
0300
0000
0010
0000
0000
0100
0000
0000
1001
0000
0000
0110
0000
0000
1000
0000
0000
0021
0030
0000
0100
0000
0000
0010
0000
0000
0001
0000
0000
,
1100
0000
0000
0010
0000
0000
0002
0003
0000
1000
0000
0000
0110
0000
0000
0001
0000
0000
0100
0000
0000
1010
0000
0000
0200
0300
0000
1001
0000
0000
0110
0000
0000
1000
0000
0000
0012
0003
0000
0100
0000
0000
0010
0000
0000
0100
0000
0000
,
2001
3000
0000
0110
0000
0000
1000
0000
0000
0100
0000
0000
0011
0000
0000
1000
0000
0000
0200
0300
0000
0001
0000
0000
1000
0000
0000
0010
0000
0000
1100
0000
0000
0001
0000
0000
1020
0030
0000
0100
0000
0000
0001
0000
0000
1000
0000
0000
,
0110
0000
0000
1000
0000
0000
0002
0003
0000
0100
0000
0000
1001
0000
0000
0010
0000
0000
0001
0000
0000
0100
0000
0000
2000
3000
0000
0000
0000
0000
1100
0000
0000
0000
0000
0000
0021
0030
0000
0100
0000
0000
0010
0000
0000
0100
0000
0000
,
1002
0003
0000
0010
0000
0000
0100
0000
0000
1000
0000
0000
0011
0000
0000
0100
0000
0000
0010
0000
0000
0001
0000
0000
1000
0000
0000
0101
0000
0000
2010
3000
0000
0100
0000
0000
0011
0000
0000
1000
0000
0000
0020
0030
0000
0100
0000
0000
,
1002
0000
0003
0000
0000
0000
0100
0000
0000
0000
0000
0000
0020
0000
0030
0000
0000
0000
1000
0000
0000
0000
0000
0000
0201
0000
0300
0000
0000
0000
1000
0000
0000
0000
0000
0000
0020
0000
0030
0000
0000
0000
0001
0000
0000
0000
0000
0000
1000
0000
0000
0100
0000
0000
0010
0000
0000
0001
0000
0000
1000
0000
0000
0100
0000
0000
0010
0000
0000
0001
0000
0000
0100
0000
0000
0000
0000
0000
1000
0000
0000
0000
0000
0000
0010
0000
0000
0000
0000
0000
1000
0000
0000
0000
0000
0000
,
0102
0003
0000
0010
0000
0000
2100
3000
0000
0010
0000
0000
1002
0003
0000
0100
0000
0000
0020
0030
0000
1000
0000
0000
0001
0000
0000
0010
0000
0000
0102
0003
0000
1000
0000
0000
0110
0000
0000
0001
0000
0000
2000
3000
0000
0100
0000
0000
,
0021
0030
0000
1000
0000
0000
0100
0000
0000
0010
0000
0000
1200
0300
0000
0001
0000
0000
0010
0000
0000
0100
0000
0000
1002
0003
0000
0100
0000
0000
1010
0000
0000
0101
0000
0000
2010
3000
0000
0101
0000
0000
1010
0000
0000
0101
0000
0000
,
2020
0030
0000
3001
0000
0000
0020
0030
0000
0100
0000
0000
2001
3000
0000
0100
0000
0000
0020
0030
0000
0001
0000
0000
1000
0000
0000
0011
0000
0000
2100
3000
0000
0001
0000
0000
0120
0030
0000
0001
0000
0000
2000
3000
0000
0001
0000
0000
,
0120
0030
0000
1000
0000
0000
0020
0030
0000
0100
0000
0000
2001
3000
0000
0100
0000
0000
0020
0030
0000
1001
0000
0000
0010
0000
0000
0101
0000
0000
2000
3000
0000
0001
0000
0000
0210
0300
0000
0001
0000
0000
2000
3000
0000
0100
0000
0000
,
0020
0030
0000
1200
0300
0000
0021
0030
0000
0200
0300
0000
1020
0030
0000
0100
0000
0000
0002
0003
0000
0010
0000
0000
0100
0000
0000
0001
0000
0000
2100
3000
0000
0001
0000
0000
0120
0030
0000
0001
0000
0000
2000
3000
0000
0100
0000
0000
,
1001
0000
0000
0000
0000
0000
0122
0033
0000
0000
0000
0000
0122
0033
0000
0000
0000
0000
0000
0000
0000
0000
0000
0000
1122
0033
0000
0000
0000
0000
0000
0000
0000
1122
0033
0000
0000
0000
0000
0000
0000
0000
1122
0033
0000
0000
0000
0000
,
1001
0100
0010
0100
0011
1000
0010
0100
1000
0110
1001
0100
0011
0100
0010
1000
,
0101
1000
0010
0001
1100
0010
1000
0101
0010
1100
0011
1000
0110
1000
0001
0100
,
1001
0110
1001
0010
1100
0010
0001
1000
0100
0001
0110
0001
1010
0100
0010
0100
,
0011
1000
0001
0010
0101
1010
0001
1100
0011
1100
0011
1100
0011
1100
0011
1100
,
0022
0003
0000
0000
0000
0000
0000
0000
0000
0000
0000
0000
0000
0000
0000
0000
,
0000
0000
0000
0000
0000
1000
0101
0001
,
1030
0000
0000
0000
0000
0000
1000
0100
0010
0000
0000
0000
0000
0000
0000
0000
0000
0000
0010
0000
0000
0000
0000
0000
0000
0000
0000
0000
0000
0000
0001
0000
0000
0000
0000
0000
0010
0000
0000
0000
0000
0000
0100
0000
0000
0000
0000
0000
,
0000
0000
0000
0000
0000
1000
0101
0001
,
0100
0000
0000
0000
0000
0000
1000
0100
0010
0000
0000
0000
0000
0000
0000
0000
0000
0000
0010
0000
0000
0000
0000
0000
0000
0000
0000
0000
0000
0000
0101
0000
0000
0000
0000
0000
0110
0000
0000
0000
0000
0000
1001
0000
0000
0000
0000
0000
,
0000
0000
0000
0000
0000
1000
0101
0001
,
1000
0000
0000
0000
0000
0000
1000
0100
0010
0000
0000
0000
0000
0000
0000
0000
0000
0000
0010
0000
0000
0000
0000
0000
0000
0000
0000
0000
0000
0000
0001
0000
0000
0000
0000
0000
0010
0000
0000
0000
0000
0000
0100
0000
0000
0000
0000
0000
,
0000
0000
0000
0000
;
