#TITLE:Crownless;
#SUBTITLE:;
#ARTIST:Nightwish;
#TITLETRANSLIT:;
#SUBTITLETRANSLIT:;
#ARTISTTRANSLIT:;
#CREDIT:B. Abear;
#BANNER:Bn-Crown.png;
#BACKGROUND:Bg-Crown.png;
#LYRICSPATH:;
#CDTITLE:;
#MUSIC:Nightwish_-_Crownless.ogg;
#OFFSET:-0.219;
#SAMPLESTART:40.500;
#SAMPLELENGTH:12.000;
#SELECTABLE:YES;
#BPMS:0.000=148.030,418.500=74.015,419.000=148.030;
#STOPS:;
#BGCHANGES:;
// cache tags:
#FIRSTBEAT:16.000;
#LASTBEAT:644.750;
#SONGFILENAME:Songs/SSSC PACK/[Cosmic Pope] - Crownless/Crownless.sm;
#HASMUSIC:1;
#HASBANNER:1;
#MUSICLENGTH:268.773;
// end cache tags

//---------------dance-single - ----------------
#NOTES:
     dance-single:
     :
     Challenge:
     12:
     0.969,1.000,0.506,0.450,1.000,1566.000,136.000,121.000,119.000,0.000:

0000
0000
0000
0000
,
0000
0000
0000
0000
,
0000
0000
0000
0000
,
0000
0000
0000
0000
,
2MM2
0000
0000
0000
,
0000
0000
0000
0000
0000
0000
0000
0000
0000
0000
0000
0000
0000
0000
0000
0000
0000
0000
3003
0000
0000
0010
0100
0010
,
0100
0000
0000
M0M1
0000
0000
0000
0M00
0000
0000
0000
0000
0000
0000
000M
0000
0000
0000
0000
M000
0000
0000
0000
0000
,
0000
0000
0M00
0000
0000
0000
0000
0000
00M0
0000
0000
000M
0000
0000
0000
0M00
0000
0000
0000
0000
0000
00M0
0000
0000
,
1000
0001
1000
0200
0000
1300
0001
0010
0100
1000
0001
0200
0000
0310
0100
0001
,
1000
0100
0001
0100
0010
1000
0010
0001
0100
1000
0100
0010
0001
0010
1000
0001
,
0010
0100
1000
0200
0000
0310
0001
1000
0002
0000
0013
00M0
2000
0000
3100
0M00
,
0001
1000
0010
0200
0000
0310
1000
0100
0020
0000
0031
000M
0200
0000
1300
M000
,
1000
0001
0010
0002
0000
0103
0010
1000
0100
0010
0100
2000
0000
3010
0100
0001
,
0010
1000
0010
0100
0001
0100
1000
0001
0100
1000
0100
0010
0001
0010
1000
0001
,
0010
0100
1000
0002
0000
1003
0100
0010
0200
0000
0310
00M0
2000
0000
3010
00M0
,
0001
1000
0100
0020
0000
0130
1000
0010
2000
0000
3010
00M0
0002
0000
0103
0M00
,
2001
0000
3001
0100
0101
0000
0001
0010
0011
0000
0001
0100
0101
0000
0001
1000
,
0100
0000
0100
0010
0000
0010
0001
0000
1000
0000
1000
0000
1000
0010
0100
0001
,
1000
0000
0010
0000
0100
0000
0001
0000
0010
0000
0100
0000
1000
1000
0100
0000
,
0010
0000
0001
0000
0100
0000
0010
0000
1000
0000
0100
0000
0010
0010
0001
0000
,
1MM1
0000
1000
0000
0010
0010
0100
0000
M1M1
0000
0001
0000
1000
1000
0100
0000
,
M11M
0000
0010
0000
0001
0001
1000
0000
1MM1
0000
0001
0000
0100
0100
0010
0000
,
M1M1
0000
0001
0000
1000
0000
0100
0000
0010
0000
0001
0000
1000
1000
0010
0000
,
0100
0000
0001
0000
0010
0000
0100
0000
1000
0000
0100
0000
0010
0010
0100
0000
,
11MM
0000
1000
0000
0001
0001
0100
0000
M11M
0000
0010
0000
1000
1000
0100
0000
,
11MM
0000
1000
0000
0001
0001
0010
0000
M11M
0000
0100
0000
1000
0010
0100
0001
,
0010
0100
1000
0002
0000
1003
0010
0100
0010
1000
0100
0020
0000
0130
0010
0001
,
0100
1000
0100
0010
0001
0010
1000
0100
0001
0100
0010
1000
0010
0001
1000
0100
,
1000
0010
0100
0002
0000
0103
0010
1000
0002
0000
0013
00M0
2000
0000
3100
0M00
,
0001
0010
0100
2000
0000
3010
0100
0001
2000
0000
3100
0M00
0002
0000
0013
00M0
,
1000
0001
1000
0200
0000
0310
0001
1000
0100
0010
0100
2000
0000
3001
0100
0010
,
0100
1000
0100
0010
0001
0010
1000
0100
0001
0100
0010
1000
0010
0001
1000
0010
,
0100
0001
0100
0002
0000
1003
0100
0010
0002
0000
0013
00M0
2000
0000
3100
0M00
,
0001
0100
0010
2000
0000
3001
0100
0010
0200
0000
0310
00M0
0002
0000
1003
M000
,
2001
0000
3001
0010
0100
1000
0001
0100
0010
0100
0001
1000
0100
0010
0100
1000
,
0001
0000
0001
0100
0000
0100
0010
0000
0100
0000
0100
0000
0100
0001
0010
0100
,
1000
0000
0010
0000
0100
0000
0001
0000
0010
0000
0100
0000
0010
0010
0100
0000
,
1000
0000
0001
0000
0100
0000
0010
0000
1000
0000
0100
0000
0010
0010
0001
0000
,
1MM1
0000
1000
0000
0001
0001
0100
0000
M1M1
0000
0001
0000
0010
0010
0100
0000
,
M11M
0000
0010
0000
0001
0001
1000
0000
1MM1
0000
0001
0000
0100
0100
0010
0000
,
M1M1
0000
0001
0000
1000
0000
0100
0000
0010
0000
0001
0000
1000
1000
0010
0000
,
0100
0000
0001
0000
0010
0000
0100
0000
1000
0000
0100
0000
0010
0010
0100
0000
,
11MM
0000
1000
0000
0001
0001
0100
0000
M11M
0000
0010
0000
1000
1000
0100
0000
,
11MM
0000
1000
0000
0001
0001
0010
0000
0100
1000
0100
1000
0001
0100
0001
0100
,
0010
1000
0001
0010
0100
1000
0001
0100
0010
0100
0001
0010
0100
1000
0100
1000
,
0001
0100
0010
1000
0010
0100
0001
0010
0100
1000
0001
0010
0100
0010
0001
0100
,
0010
1000
0001
1000
0001
0010
0100
1000
0010
0100
0010
1000
0001
0100
0010
1000
,
0100
0010
0001
0010
0100
1000
0001
0100
0010
1000
0100
0010
0002
0023
0230
2300
,
3001
0100
0010
1000
0001
0010
0001
1000
0100
0010
0001
0010
0001
1000
0010
0100
,
0001
0100
0001
1000
0100
1000
0001
0010
0100
1000
0001
0100
0010
1000
0001
0000
,
0101
0000
0000
0110
0000
0000
1010
0000
0000
1100
0000
0000
0110
0000
0011
0000
,
1001
0000
0000
1010
0000
0000
1100
0000
0000
0110
0000
0000
0011
0000
1001
0000
,
1000
0100
0010
0001
0010
0100
1000
0001
0100
0001
1000
0100
1000
0010
0100
0001
,
0100
0010
0100
0001
0010
0100
1000
0100
0010
0100
1000
0001
0100
0001
1000
0100
,
0010
0001
1000
0001
1000
0010
0100
0001
1000
0010
0100
0010
1000
0100
0010
0001
,
0010
0001
0100
0010
1000
0001
0010
0100
1000
0001
0100
0010
2000
3020
0230
0302
,
1003
0100
0010
0001
1000
0100
1000
0001
0100
0001
0100
0010
1000
0001
0010
0001
,
1000
0100
1000
0001
0100
0001
0010
0001
1000
0100
0010
0001
0010
0100
1000
0001
,
0101
0000
1000
0010
0100
0001
0101
0000
1000
0010
0100
0001
0101
0000
1000
0010
,
0100
0001
0101
0000
1000
0010
0100
0001
0101
0000
1000
0010
0100
0001
0101
0000
,
0100
0001
0000
2000
0000
3100
0010
0001
1000
0100
0000
0020
0000
0130
1000
0001
,
0100
1010
0001
1100
0010
1001
1010
1100
,
0100
0010
0000
0200
0000
1300
0001
0100
0010
0100
0000
0002
0000
1003
0100
1000
,
0001
1001
0100
1010
0001
1100
0110
0011
,
0001
1000
0100
2000
0000
3100
0010
0001
1000
0010
0100
0002
0000
1003
0100
0010
,
0001
1000
0100
2000
0000
3001
0100
0010
0100
0001
1MM1
0000
0000
0000
11MM
0000
,
0100
0010
0001
2000
0000
3001
0010
0100
1000
0001
0100
0020
0000
0130
0001
1000
,
0100
1000
0100
0020
0000
0031
1000
0001
0100
0010
M11M
0000
0000
0000
1M1M
0000
,
1000
0100
0010
0002
0000
1003
0100
1000
0010
0100
0001
0200
0000
0310
1000
0001
,
0010
0100
1000
0200
0000
1300
0001
0100
0010
1000
1M1M
0000
0000
0000
1MM1
0000
,
0002
0023
0230
2300
3001
0100
0010
1000
0001
0010
0001
0010
0100
1000
0100
1000
,
0001
0100
0001
0100
0010
1000
0010
1000
0100
0001
0100
1000
0010
0001
0010
2000
,
0000
00M0
0000
0000
0000
0000
000M
0000
0000
0000
0000
0M00
0000
0000
0000
0000
0000
000M
0000
0000
0000
0000
00M0
0000
,
0004
0000
0000
0000
0000
0000
0000
0000
0M00
0000
0000
0000
0000
0000
0000
0000
00M0
0000
3000
0000
0000
0000
0000
0000
1003
0000
0000
0100
0000
0000
0000
0000
0000
0100
0000
0000
0000
0000
0000
0100
0000
0000
0000
0000
0000
0100
0000
0000
,
2000
0000
0000
0002
3000
0000
0200
0003
0020
0300
0000
2000
0030
0000
0200
3000
,
0020
0300
0000
0002
0030
0000
2000
0003
3002
0000
0010
0000
0000
0000
0103
0000
,
0010
1000
0010
0100
0001
0010
0001
0100
2000
0000
0000
0000
0000
0000
0000
0000
,
3200
0000
0000
0000
0000
0000
0301
0000
0000
1000
0000
0000
0100
0000
0000
0000
0000
0000
0010
0000
0000
0000
0000
0000
0001
0000
0010
0000
0100
0000
1000
0000
0100
0000
0010
0000
0002
0000
0000
0000
0000
0000
0000
0000
0000
0000
0000
0000
,
1003
0000
0000
0000
2002
0000
0000
0000
0000
0000
0000
0040
0000
0000
0000
0000
,
0000
0000
0000
3033
,
0100
0001
0010
0100
0000
0100
1000
0000
1001
0000
0000
0101
0000
0000
0110
0000
,
0010
1000
0010
1000
0010
0100
0010
0100
0001
0100
0001
0100
0001
1000
0001
1000
,
0100
0000
0000
0010
0000
0000
0001
0000
1000
0000
0000
0100
0000
0000
1000
0000
,
0010
0000
0000
0000
0000
0200
0000
0000
0000
0000
0000
0000
0301
0000
0000
0000
0020
0000
0000
0000
0000
0000
0000
0000
0030
0000
MMMM
0000
0000
0000
0000
0000
,
0100
0000
0000
1000
0000
0000
0001
0000
0100
0000
0000
0010
0000
0000
1000
0000
,
0001
0000
0000
0100
0000
0000
0010
0000
2000
0000
0004
0000
3000
0000
0103
0000
,
0010
0000
0000
0100
0000
0000
0001
0000
1000
0000
0000
0100
0000
0000
0010
0000
,
0000
0000
0000
0001
0000
0000
1000
0000
0100
0000
1100
0000
0000
0000
1001
0000
,
0001
0000
0100
0001
0000
0100
0001
0000
1001
0000
0000
1100
0000
0000
0110
0000
,
0010
0001
0010
0100
1000
0010
1000
0001
0100
0010
0100
0001
2000
3200
0320
0032
,
1003
0100
0000
2000
0000
3001
0100
0010
0100
0001
1000
0200
0000
0310
0001
1000
,
0001
0010
0100
1000
0010
0100
0001
1000
0010
0100
0001
0010
0100
1000
0100
0010
,
0001
1000
0000
0200
0000
0310
0001
1000
0001
0100
0010
2000
0000
3010
0100
0001
,
1000
1000
0100
0000
0010
0010
0001
0000
1000
0010
1000
0010
0100
0001
0100
0001
,
1000
0100
0010
0002
0000
1003
0010
0100
0001
0100
0010
2000
0000
3001
0010
0100
,
1000
0100
0001
0100
0010
1000
0010
0001
0100
1000
0100
0010
1000
0001
0010
0100
,
1000
0000
0001
0000
1000
0000
0001
0000
0000
0000
0000
0000
0100
0000
0010
0000
0100
0000
0010
0000
0000
0000
0000
0000
0100
0000
0000
0001
0000
0000
0010
0000
0000
0000
0000
0000
0100
0000
0000
1000
0000
0000
0010
0000
0000
0000
0000
0000
,
0200
0302
0023
0230
1300
0001
0010
0001
1000
0001
0010
0000
0000
0000
0110
0000
,
0000
0100
0000
1000
1001
0001
0000
0100
,
0000
0000
0010
0000
0010
0000
1000
0100
0010
0001
1000
0000
0000
0000
1100
0000
,
0000
0100
0000
0010
0011
0001
0000
1001
,
0000
0000
1000
0010
0100
0001
1000
0010
0100
0001
0011
0000
0000
0000
0010
0000
,
0000
1100
0000
0100
0110
0010
0000
0011
,
0000
0000
0001
0000
0100
0010
1000
0001
0100
0010
1010
0000
0000
0000
1000
0000
,
1100
0100
0000
0110
0010
2MM2
0000
0000
,
0000
0000
3003
0000
,
0000
0000
0000
0000
,
0000
0000
0000
0000
,
0000
0000
2002
0000
,
0000
0000
0000
0000
,
0000
0000
0000
0000
0000
0000
3003
0000
0000
0010
0100
0010
0100
0000
0000
0001
0000
0000
0000
0000
0000
0000
0000
0000
,
0000
0000
0000
0000
,
0000
0000
0000
0000
0000
0000
0000
0000
1002
0000
1003
0100
2000
0000
3001
0100
,
0002
0000
1003
0100
2000
0000
3001
0100
0101
0000
0001
1000
0000
1000
0100
0000
,
0110
0000
0011
0000
0010
0100
1000
0001
1000
0000
0010
0000
0100
0000
0001
0000
,
0010
0000
0100
0000
1000
1000
0100
0000
0010
0000
0001
0000
0100
0000
0010
0000
,
1000
0000
0100
0000
0010
0010
0001
0000
1MM1
0000
1000
0000
0010
0010
0100
0000
,
M1M1
0000
0001
0000
1000
1000
0100
0000
M11M
0000
0010
0000
0001
0001
1000
0000
,
1MM1
0000
0001
0000
0100
0100
0010
0000
M1M1
0000
0001
0000
1000
0000
0100
0000
,
0010
0000
0001
0000
1000
1000
0010
0000
0100
0000
0001
0000
0010
0000
0100
0000
,
1000
0000
0100
0000
0010
0010
0100
0000
11MM
0000
1000
0000
0001
0001
0100
0000
,
M11M
0000
0010
0000
1000
1000
0100
0000
11MM
0000
1000
0000
0001
0001
0010
0000
,
0100
1000
0100
1000
0001
0100
0001
0100
0010
1000
0001
0010
0100
1000
0001
0100
,
0010
0100
0001
0010
0100
1000
0100
1000
0001
0100
0010
1000
0010
0100
0001
0010
,
0100
1000
0001
0010
0100
0010
0001
0100
0010
1000
0001
1000
0001
0010
0100
1000
,
0010
0100
0010
1000
0001
0100
0010
1000
0100
0010
0001
0010
0100
1000
0001
0100
,
0010
1000
0100
0010
0002
0023
0230
2300
3001
0100
0010
1000
0001
0010
0001
1000
,
0100
0010
0001
0010
0001
1000
0010
0100
0001
0100
0001
1000
0100
1000
0001
0010
,
0100
1000
0001
0100
0010
1000
0001
0000
0101
0000
0000
0110
0000
0000
1010
0000
,
0000
1100
0000
0000
0110
0000
0011
0000
1001
0000
0000
1010
0000
0000
1100
0000
,
0000
0110
0000
0000
0011
0000
1001
0000
1000
0100
0010
0001
0010
0100
1000
0001
,
0100
0001
1000
0100
1000
0010
0100
0001
0100
0010
0100
0001
0010
0100
1000
0100
,
0010
0100
1000
0001
0100
0001
1000
0100
0010
0001
1000
0001
1000
0010
0100
0001
,
1000
0010
0100
0010
1000
0100
0010
0001
0010
0001
0100
0010
1000
0001
0010
0100
,
1000
0001
0100
0010
2000
3020
0230
0302
1003
0100
0010
0001
1000
0100
1000
0001
,
0100
0001
0100
0010
1000
0001
0010
0001
1000
0100
1000
0001
0100
0001
0010
0001
,
1000
0100
0010
0001
0010
0001
0100
0010
1010
0000
0001
0100
0010
1000
1010
0000
,
0001
0100
0010
1000
1010
0000
0001
0100
0010
1000
1010
0000
0001
0100
0010
1000
,
1010
0000
0001
0100
0010
1000
1010
0000
0010
0100
0010
0100
0001
1000
0001
0100
,
0010
0100
0001
0010
0100
1000
0100
1000
0001
0100
0010
1000
0010
0100
0001
0010
,
0100
1000
0001
0010
0100
0010
0001
0100
0010
1000
0001
1000
0001
0010
0100
1000
,
0010
0100
0010
1000
0001
0100
0010
1000
0100
0010
0001
0010
0100
1000
0001
0100
,
0010
1000
0100
0010
0002
0023
0230
2300
3001
0000
0000
0000
011M
0000
0000
0000
,
0010
11M0
0001
101M
,
0100
0000
0M11
0000
0011
1MM1
0000
1010
,
1MM1
0000
0101
1MM1
0000
1100
1MM1
0000
,
0110
0000
0MM0
0000
1001
0000
M00M
0000
0001
1000
0100
0010
0001
0100
0010
0100
,
1000
0100
0001
1000
0100
0010
0001
0010
0100
0001
0100
1000
0001
0100
0010
1000
,
0001
0010
0100
1000
0100
0001
0100
1000
0001
0100
0010
0100
0010
0001
0010
1000
,
0001
1000
0100
0001
0100
1000
0001
0010
0120
0000
0000
0000
0130
0000
1000
0000
,
0101
1000
0001
0010
0012
0000
1003
0010
,
1001
0000
0000
0000
0000
0000
0000
0000
0000
0000
0000
0000
0000
0000
0000
0000
0000
0000
0000
0000
0000
0000
0000
0000
0000
0000
0000
0000
0000
0000
0000
0000
0001
0000
0000
0000
0000
0000
0000
0000
0000
0000
0000
0000
0000
0000
0000
0000
0000
0000
0000
0000
0000
0000
0000
0000
0100
0000
0000
0000
0000
0000
0000
0000
0000
0000
0000
0000
0000
0000
0000
0000
0000
0000
0000
0000
0000
0000
0000
0000
0000
0000
0000
0000
0010
0000
0000
0000
0000
0000
0000
0000
0000
0000
0000
0000
0000
0000
0000
0000
0000
0000
0000
0000
0000
0000
0000
0000
0000
0000
0000
0000
0000
0000
2010
0000
0000
0000
0000
0000
0000
0000
0000
0000
0000
0000
0000
0000
0000
0000
0000
0000
0000
0000
0000
0000
0000
0000
0000
0000
0000
0000
0000
0000
0000
0000
0000
0000
0000
0000
0000
0000
0000
0000
0000
0000
0000
0000
0000
0000
0000
0000
0000
0000
0000
0000
0000
0000
3100
0000
0000
0000
0000
0000
0000
0000
0000
0000
0000
0000
0000
0000
0000
0000
0000
0000
0000
0000
0000
0000
0000
0000
,
0000
0000
0000
0000
0010
0000
0000
0000
0000
0000
0000
0000
0000
0000
0000
0000
0000
0000
0000
0000
0000
0000
0000
0000
0000
0000
0000
0000
0000
0000
0000
0000
0000
0000
0000
0000
1100
0000
0000
0000
0000
0000
0000
0000
0000
0000
0000
0000
0000
0000
0000
0000
0000
0000
0000
0000
0000
0000
0000
0000
0000
0000
0000
0000
0000
0000
0000
0000
0010
0000
0000
0000
0000
0000
0000
0000
0000
0000
0000
0000
0000
0000
0000
0000
0000
0000
0000
0000
0000
0000
0000
0000
0000
0000
0000
0000
0000
0000
0000
0000
0000
0000
0000
0000
1100
0000
0000
0000
0000
0000
0000
0000
0000
0000
0000
0000
0000
0000
0000
0000
0000
0000
0000
0000
0000
0000
0000
0000
0000
0000
0000
0000
0000
0000
0000
0010
0000
0000
0000
0000
0000
0000
0000
0000
0000
0000
0000
0000
0000
0000
0000
0000
0000
0000
0000
0000
0000
0000
0000
0000
0000
0000
0000
0000
0000
0000
0000
0000
2002
0000
0000
0000
0000
0000
0000
0000
0000
0000
0000
0000
0000
0000
0000
0000
0000
0000
0000
0000
0000
0000
0000
0000
,
0000
0000
0000
0000
,
0000
0000
0000
0000
,
0000
0000
0000
0000
,
0000
0000
0000
0000
0000
0000
0000
0000
0000
0000
0000
0000
0000
0000
3003
0220
,
0000
0000
0000
0000
,
0000
0000
0000
0000
,
0000
0000
0000
0000
,
0000
0000
0000
0000
,
0330
0000
0000
1001
0000
0000
0000
0000
0000
0000
0000
0000
0000
0000
0000
0000
;
