#TITLE:Molto Vivace;
#SUBTITLE:;
#ARTIST:Franz Liszt;
#TITLETRANSLIT:;
#SUBTITLETRANSLIT:;
#ARTISTTRANSLIT:;
#CREDIT:;
#BANNER:../fthescorept1bn.png;
#BACKGROUND:../fthescorept1bg.png;
#LYRICSPATH:;
#CDTITLE:;
#MUSIC:Molto Vivace.ogg;
#OFFSET:-0.071;
#SAMPLESTART:5.920;
#SAMPLELENGTH:12.250;
#SELECTABLE:YES;
#BPMS:0.000=350.000;
#STOPS:;
#BGCHANGES:;
// cache tags:
#FIRSTBEAT:0.000;
#LASTBEAT:159.500;
#SONGFILENAME:Songs/Fuck The Score Part I/Molto Vivace [Dossar]/Molto Vivace.sm;
#HASMUSIC:1;
#HASBANNER:1;
#MUSICLENGTH:27.935;
// end cache tags

//---------------dance-single - ----------------
#NOTES:
     dance-single:
     :
     Challenge:
     24:
     1.000,1.000,0.000,0.000,0.626,282.000,0.000,0.000,0.000,0.000:
1000
0010
0100
0001
,
1000
0000
0000
0001
,
0010
0100
1000
0000
,
0000
1000
0100
0010
,
0001
1000
0010
0100
,
0001
0000
0010
0000
0100
0000
1000
0010
,
0100
0001
0010
0100
1000
0010
0100
0001
,
1000
0000
0001
0100
0010
1000
0100
0010
,
0001
0100
0010
1000
0001
0010
0001
0010
,
0100
1000
0100
1000
0001
0100
0001
0100
,
0010
1000
0010
1000
0001
0010
0001
0010
,
0100
1000
0100
1000
0001
0100
0001
0100
,
0010
1000
0010
1000
0001
0010
0001
0010
,
0100
1000
0100
1000
0001
0100
0001
0100
,
0010
1000
0010
1000
0100
0010
0100
1000
,
0100
0010
0001
0010
0100
0010
0001
1000
,
0010
0100
0010
1000
0010
0100
0001
0100
,
0010
0100
0001
1000
0001
0100
0001
1000
,
0010
1000
0001
1000
0100
0010
0100
1000
,
0100
0010
0001
0010
0100
0010
0001
1000
,
0010
1000
0001
1000
0100
0000
0000
0000
,
1000
0100
0010
0001
0100
0000
0000
0000
,
0000
0001
0010
0100
1000
0010
0100
0001
,
0010
0100
1000
0010
0100
0001
0010
0100
,
1000
0010
0100
0000
0000
0001
0100
0010
,
1000
0100
0010
0001
0100
0010
1000
0001
,
1000
0000
0010
0000
0100
0000
0001
0000
1000
0100
1000
0100
1000
0001
1000
0001
,
1000
0010
0100
0001
0100
0010
0100
0010
1000
0001
1000
0010
1000
0001
0100
0001
,
0100
0001
1000
0000
0000
0000
0100
0000
0000
0000
0010
0000
0000
0000
0001
0000
,
0000
0000
1000
0000
0000
0000
0010
0000
0000
0000
1000
0001
1000
0001
0100
0010
,
1000
0001
0100
0010
1000
0001
0100
0001
1000
0010
1000
0010
0100
0001
1000
0010
,
0100
0001
0100
0001
0100
0001
1000
0000
0000
0000
0001
0000
0000
0000
1000
0000
,
0000
0100
0000
0010
0000
0001
0000
0100
,
0000
0000
0010
0000
0000
0000
1000
0000
0000
0000
0001
0000
0000
0000
1000
0001
,
0010
0001
1000
0100
0010
0001
1000
0000
0000
0000
0010
0000
0000
0000
0100
0000
,
0000
0001
0000
0010
0000
0100
0000
0010
,
0000
0000
0001
0000
0000
0000
1000
0000
0000
0000
0010
0000
0000
0000
1000
0001
,
0100
0001
1000
0010
0100
0001
1000
0000
0000
0000
0010
0000
0000
0000
0100
0000
,
0000
0001
0000
0010
0000
0100
0000
1000
,
0000
0010
0000
0100
0000
0001
0000
1000
;
