#TITLE:Sympathizer;
#SUBTITLE:KuroKami OP theme;
#ARTIST:Kuribayashi Minami;
#TITLETRANSLIT:;
#SUBTITLETRANSLIT:;
#ARTISTTRANSLIT:;
#CREDIT:ALICE_;
#BANNER:Sympathizer.png;
#BACKGROUND:Sympathizer.jpg;
#LYRICSPATH:;
#CDTITLE:cdtitle.png;
#MUSIC:Sympathizer.mp3;
#OFFSET:0.980;
#SAMPLESTART:60.960;
#SAMPLELENGTH:20.040;
#SELECTABLE:YES;
#BPMS:0.000=193.000;
#STOPS:;
#BGCHANGES:3.125=Sympathizer.avi=1.000=0=0=1,
286.000=Sympathizer.jpg=1.000=1=0=1,
99999=-nosongbg-=1.000=0=0=0 // don't automatically add -songbackground-
;
// cache tags:
#FIRSTBEAT:4.000;
#LASTBEAT:286.000;
#SONGFILENAME:Songs/alice 4th complete step/Sympathizer/Sympathizer.sm;
#HASMUSIC:1;
#HASBANNER:1;
#MUSICLENGTH:88.720;
// end cache tags

//---------------dance-single - ----------------
#NOTES:
     dance-single:
     :
     Hard:
     8:
     0.746,0.681,0.248,0.147,0.000,428.000,22.000,13.000,0.000,0.000:
0000
0000
0000
0000
,
0001
1000
0010
0200
0300
0001
0010
2000
,
3000
0010
0001
0100
0010
1000
0010
0100
,
0001
1000
0010
0200
0300
1000
0100
0002
,
0003
0100
1000
0010
0100
0001
1000
0000
,
0001
0000
0101
0000
0001
1000
1000
0100
,
0000
1000
0010
0001
1000
0100
0001
0001
,
1000
0000
1100
0000
1000
0001
0001
0100
,
0000
0001
0010
1000
0001
0100
1000
1000
,
0001
0100
0001
0010
0000
1000
0100
0010
,
0000
1000
0001
0100
0001
0010
0100
1000
,
0010
1000
0001
0100
0000
0001
0100
0010
,
0000
1000
0100
1000
0010
0100
0001
1000
,
0000
0000
0000
0000
,
0000
0000
0000
0000
0020
0000
0000
0030
,
1000
0000
0010
0000
0100
0100
0001
1000
,
0000
0010
0100
0001
0010
0100
1000
0000
,
0001
0000
1000
0000
0010
0010
0100
0001
,
0000
1000
0100
0010
0001
1000
0010
0000
,
0102
0000
1000
0000
0013
0000
0100
0010
,
0000
1000
0001
0000
0100
0010
1000
0000
,
0001
1000
0100
0010
0001
0100
0010
1000
,
0000
0001
0010
0001
1000
0010
1000
0010
,
0100
0000
0001
0000
1000
1000
0010
0100
,
0000
0001
1000
0010
0001
0010
0100
0000
,
0001
0000
1000
0000
0100
0100
0010
0001
,
0000
1000
0010
0100
1000
0100
0001
0000
,
2010
0000
0001
0000
3010
0000
0001
0100
,
0000
1000
0010
0000
0100
0001
1000
0000
,
0001
0010
0100
1000
0010
0100
0001
0010
,
0000
0100
0010
0100
1000
0010
1000
0001
,
0100
0100
0000
0100
0100
0000
1000
1000
,
0000
0001
0001
0000
0100
0010
0100
0000
,
0001
0001
0000
1000
1000
0000
0010
0010
,
0000
0010
0010
0000
0100
0001
0100
0001
,
1000
0000
0000
0100
0010
0000
0100
1000
,
0000
0010
0100
0000
0001
1000
0010
0100
,
0001
1000
0000
0001
0100
0100
0001
1000
,
0000
0010
0100
0010
1001
0000
0101
0100
,
0010
1000
0000
1000
0010
0000
0010
1000
,
0000
1000
0010
0000
0100
0001
1000
0100
,
0010
0001
0000
0001
0010
0000
0010
0001
,
0000
0001
0010
0000
0001
0100
0010
1000
,
0002
0000
1003
0100
0001
1000
0010
0001
,
1000
0010
0001
1000
0100
0001
1000
0010
,
0001
0010
0100
0010
1000
0010
0100
0001
,
1000
0100
0010
0100
0001
0100
1000
0010
,
1000
1000
0000
1000
1000
0000
1000
1000
,
0000
1000
1000
0000
1001
0000
1001
0000
,
0102
0000
0013
0000
0100
0100
1000
0010
,
0000
0100
1000
0100
0001
0010
0001
0000
,
2100
0000
3010
0000
0100
0100
0001
0010
,
0000
0100
0001
0100
1000
0010
1000
0001
,
0100
0000
1001
0000
0100
1000
0001
0000
,
0010
0000
0101
0000
0010
1000
0001
0010
,
0000
0100
1000
0010
0000
0100
0001
0010
,
0000
0100
1000
0010
0100
0010
0100
0001
,
1000
0000
0012
0000
1003
0010
0100
0001
,
0000
0100
1000
0000
0010
0100
0001
1000
,
0001
0000
2010
0000
3001
0100
0010
1000
,
0000
0010
0001
1000
0010
0100
0010
0000
,
1000
0100
0010
0001
0000
0100
0010
0001
,
0000
1000
0010
0000
1100
0000
0110
0000
,
0001
1000
0100
0010
0001
1000
0010
0100
,
0000
0001
0001
0010
0001
0001
1000
1000
,
0001
0100
0010
1000
0000
0100
0010
1000
,
0000
0001
0010
0000
1100
0000
0101
0000
,
1020
0000
0130
0001
1000
0100
1000
0010
,
0000
0100
0001
0001
1000
0001
0001
0001
,
0010
0100
0000
1000
0010
0000
0100
0001
,
0000
0010
0100
0000
0110
0000
1001
0000
,
0100
0110
0000
0000
0000
0000
0000
0000
;

//---------------dance-single - ----------------
#NOTES:
     dance-single:
     :
     Challenge:
     15:
     1.000,1.000,1.000,0.721,0.462,596.000,188.000,64.000,0.000,17.000:
0000
0000
0000
0000
,
0010
1000
0100
2002
3003
0100
1000
0022
,
0033
1000
0100
0010
0001
0100
1000
0001
,
0010
1000
0100
2002
3003
0100
1000
0022
,
0033
0000
1000
0000
0100
0000
0010
0000
0001
1000
0100
0000
0001
1000
0100
0000
,
2010
0000
3001
0010
0100
0110
0110
2001
,
0000
0000
0100
0000
3010
0000
1000
0000
0101
0000
0100
0000
1010
0000
0100
0001
,
0200
0000
1301
0010
0100
0110
0110
1002
,
0000
0000
0100
0000
1013
0000
0100
0000
0011
0000
1000
0001
1000
0001
0100
0010
,
1000
0000
0100
0000
0011
0000
0002
0000
0100
0003
1010
0000
0110
0000
1002
0000
,
0000
0000
0100
0000
0010
0000
1003
0000
0110
0000
0100
0000
1001
0000
0010
0100
,
0001
0010
1100
0020
0130
1001
0011
0200
,
0000
0000
1000
0000
0011
0300
0000
0000
1000
0000
0010
0001
0010
0001
0100
0010
,
1000
0100
1000
0001
1000
0100
1000
0001
,
1000
0000
0100
0000
1000
0000
0001
0000
1000
0100
0010
0001
1000
0100
0010
0001
,
0100
1000
0011
1000
0100
1000
0011
1100
,
0010
0110
1001
0100
0011
1000
0110
1000
,
0101
0010
1001
0100
0010
0100
1001
0110
,
0001
0100
0011
1000
0101
0010
0011
1000
,
0210
0000
0000
0000
0001
0000
0000
0000
0010
0000
0010
0000
0001
0300
1020
0000
,
0000
0000
0100
0000
0001
0000
0000
0000
1000
0000
1000
0000
0001
0000
0000
0030
,
1001
0100
1100
0010
1000
0101
0010
2001
,
0000
0100
0001
0100
3010
1001
0100
1001
,
0202
0303
0010
0000
1100
0000
1000
0000
1010
0000
1000
0000
1100
0000
0022
0033
,
0100
0010
1001
1000
0101
0101
1001
0010
,
2200
3300
0100
0000
0011
0000
0001
0000
0101
0000
0001
0000
0011
0000
2200
3300
,
0010
0100
1001
0001
1010
1010
0101
1000
,
0202
0303
0010
0000
1010
0000
0010
0000
0110
0000
0110
0000
1001
0000
2020
3030
,
0100
1000
0011
0100
0001
0010
1001
0100
,
0012
0000
1000
0000
0100
0000
1000
0000
0010
0000
0100
0003
1001
0000
0120
0000
,
0000
0000
1000
0000
1000
0000
0130
0000
1000
0001
0010
0100
1000
0010
0100
0000
,
1001
0001
0100
1001
1011
0000
0101
0101
,
1000
0011
0101
0010
1001
1000
0101
0010
,
1001
1000
0010
1001
1101
0000
1010
1010
,
0001
1100
1010
0100
1001
0010
1010
0100
,
1001
0010
0100
1010
0011
0100
1100
1001
,
0100
0011
1000
0100
1010
0001
0100
0010
,
1100
0001
0100
0010
1001
0001
0100
1000
,
0010
1001
0010
0100
1011
1000
0110
1100
,
0011
0111
0000
0011
1011
0000
0011
0111
,
0000
0011
1011
0000
0110
0001
0110
1000
,
1100
1101
0000
1100
1110
0000
1100
1101
,
0000
0000
1100
0000
2110
0000
0000
0000
3001
0010
0001
0100
0010
1000
0001
1000
,
0100
0000
0100
0000
1001
0010
0001
0000
1000
0000
1000
0000
0101
0010
0001
0000
,
1100
0000
1000
0000
0110
0001
0010
0000
1001
0000
0001
0000
1100
0010
0100
0000
,
0001
0010
0001
0100
0010
1000
0100
1000
0001
0010
0100
1000
0010
0100
0001
0010
,
1000
0100
1000
0010
0100
0001
0010
0001
1000
0100
0010
0001
1000
0100
1000
0010
,
0101
0001
0000
0001
0001
0000
0001
0001
,
0000
0001
0001
0000
0110
0000
0110
0000
,
2200
0000
3301
0010
0100
0110
0110
1002
,
0000
0103
1001
0100
0010
1000
0011
0100
,
0022
0000
1033
0100
0010
1001
1001
0210
,
0000
0000
0310
0000
1001
0000
0010
0000
0100
0000
0001
0000
1100
0000
0010
0001
,
0110
1000
0010
0001
0100
1000
0010
0001
,
1000
0010
1000
0001
0100
0100
0010
2002
,
0000
3003
0100
0000
0011
0000
2200
0000
0000
3300
0010
0000
1100
0000
0012
0000
,
0000
0000
0100
0000
1000
0000
0103
0000
0010
0000
1000
0001
0100
0010
1000
0100
,
0001
1000
0001
1000
0010
1000
0010
1000
0001
0100
0010
0100
0001
0100
2020
0000
,
3000
0000
0130
1000
0010
1000
0100
1000
0001
0010
0001
0100
0010
1000
0001
0100
,
1000
0010
1000
0010
0100
0010
0100
0010
1000
0001
0100
0001
0010
0001
2200
0000
,
0300
0000
3010
0001
0100
0010
1000
0010
0100
0001
0010
0001
1000
0001
0010
0001
,
0100
1000
0010
0202
0303
0011
1000
2200
,
0000
3300
0010
0000
0101
0000
1000
0000
0110
0000
0100
0000
1001
0000
0101
0001
,
0020
1000
0100
1030
0010
0100
1001
2010
,
0100
0000
0001
0000
3001
0000
1000
0000
0001
0000
0010
0000
0001
0100
0001
1000
,
0100
1000
0010
0202
0303
0011
1000
2002
,
0000
3003
0100
0000
0011
0000
1000
0000
0101
0000
0010
0000
1001
0000
0110
1000
,
0200
0001
1301
0010
0110
0110
1001
0220
,
0000
0330
1000
0000
0001
0100
0001
0100
0001
0000
1000
0010
0100
0010
0100
0010
,
1001
0101
0010
1001
0101
0010
1001
1010
,
0100
1001
1010
0100
1001
0010
0110
1000
,
0110
0202
0000
0000
0303
0000
0000
0000
;

//---------------dance-single - ----------------
#NOTES:
     dance-single:
     :
     Medium:
     7:
     0.605,0.561,0.147,0.180,0.000,347.000,13.000,16.000,0.000,0.000:
0000
0000
0000
0000
,
0000
1000
0000
0001
,
0000
0100
0001
1000
,
0000
0001
0000
1000
,
0000
0100
1000
0001
,
0010
0100
0010
0100
0000
1000
0001
1000
,
0000
0010
0100
0001
1000
0100
0010
0000
,
0001
1000
0001
1000
0000
0010
0100
0010
,
0000
1000
0001
0100
0010
1000
0100
0000
,
0010
0001
0010
0001
0000
0100
0010
1000
,
0000
0001
0100
0010
1000
0010
0100
0000
,
0010
1000
0010
1000
0000
0100
0010
0001
,
0000
1000
0010
0100
0001
0100
0010
0000
,
1000
0001
1000
0001
,
1000
0001
2000
0000
,
3001
0000
0001
0100
0001
0100
0001
0010
,
0000
0100
1000
0001
,
1000
0000
1000
0100
1000
0100
1000
0010
,
0000
0100
0001
1000
,
0220
0000
0000
0000
0000
0330
2000
0002
,
0000
0000
0000
0000
0000
3003
0000
0000
,
0001
0100
0010
1000
0000
0100
0010
0001
,
0000
1000
0100
0010
0001
0100
1000
0100
,
0001
0000
0100
0010
1000
0010
0100
0001
,
0000
0001
1000
0010
,
1000
0000
0100
0010
0001
0010
0100
1000
,
0000
0001
0100
0010
,
2002
0000
0000
0000
3003
0000
0200
0020
,
0000
0000
0330
0000
1000
0001
0100
0000
,
0001
0000
0010
0000
0001
0000
0100
0010
,
0000
1000
0001
1000
0100
1000
0010
0000
,
0100
0001
0000
0100
0001
0000
0100
0001
,
0000
0100
0001
0000
1001
0000
1001
0000
,
0100
1000
0000
0100
1000
0000
0100
1000
,
0000
0100
1000
0000
0010
1000
0001
0000
,
1000
0000
0101
1000
,
0010
0100
0001
1000
,
0010
0100
0000
0010
0100
0001
1000
0100
,
0000
0010
0001
0010
0011
0000
1000
0010
,
0100
0001
0000
0100
0001
0000
0100
0001
,
0000
0100
0001
0000
0010
0001
1000
0000
,
0001
0000
1010
0001
,
0100
0000
0010
0000
1000
0001
0100
0000
,
0010
0000
1010
0000
0010
0001
0010
0000
,
0100
0000
0101
0000
0010
1000
0010
0000
,
0200
0001
0010
1300
,
0020
1000
0100
0031
,
2000
0000
0000
0000
,
0000
3000
0110
1001
,
1000
0100
1000
0100
0001
0100
0001
0100
,
0000
1000
0010
0100
0001
1000
0100
0000
,
0001
0100
0001
0100
1000
0100
1000
0100
,
0000
1000
0001
0100
0010
1000
0100
0000
,
1000
0001
0001
0100
,
0010
0000
1000
0000
1000
0000
1000
0001
,
0000
0000
0100
0010
0000
0000
1000
0001
,
0000
0100
0110
1001
,
0001
0010
0001
0010
1000
0010
0001
0100
,
0000
0000
0010
1000
0010
1000
0001
0000
,
1000
0100
1000
0100
0001
0100
1000
0010
,
0000
0100
0001
0100
0001
0010
0100
0000
,
1000
0001
0100
0010
0000
1000
0001
0100
,
0000
0010
1000
0000
0001
0100
0010
0000
,
2000
0000
0010
0000
0100
0000
3001
0002
,
0000
0010
1000
0103
,
0001
1000
0010
0100
0000
0001
1000
0100
,
0000
0010
0001
0000
1000
0001
0100
0000
,
0002
0000
0010
0000
0100
0000
1003
2000
,
0000
0010
0001
3010
,
1000
0100
0000
1000
0100
0000
1000
0100
,
0000
0001
0100
0000
1000
0000
0001
0000
,
0100
0010
0000
0000
0000
0000
0000
0000
;

//---------------dance-single - ----------------
#NOTES:
     dance-single:
     :
     Easy:
     4:
     0.366,0.361,0.000,0.011,0.000,226.000,0.000,1.000,0.000,0.000:
0000
0000
0000
0000
,
1000
0001
0100
0010
,
0000
1000
1000
1000
,
0001
1000
0010
0100
,
0000
0001
0001
0001
,
1000
0001
0100
0010
,
0000
1000
0000
0001
,
0001
1000
0010
0100
,
0000
0001
0000
1000
,
0001
0010
0100
1000
,
0000
0001
0000
0001
,
1000
0010
0100
0001
,
0000
1000
0000
1000
,
0000
0000
0000
0000
,
0000
0000
0000
0000
,
0001
0010
0001
0100
,
0010
1000
0001
0001
,
1000
0100
1000
0010
,
0100
0001
1000
1000
,
0010
0000
0100
0000
,
0001
0000
1000
0000
,
0001
0000
1000
0000
,
0001
1000
0001
1000
,
1000
0010
1000
0100
,
0010
0001
1000
1000
,
0001
0100
0001
0010
,
0100
1000
0001
0001
,
1000
0000
0001
0000
,
0100
0000
0010
0000
,
0100
0000
0001
0000
,
0100
0010
1000
0001
,
1000
1000
0100
0100
,
0010
0010
0100
1000
,
0001
0001
0100
0100
,
0010
0010
0100
0001
,
1000
0000
0001
0000
,
0100
0001
1000
0000
,
0010
0100
0001
0100
,
0010
1000
0001
0100
,
0001
0001
0010
0010
,
0100
0100
0010
0001
,
1000
1000
0010
0010
,
0100
0100
0010
1000
,
0001
0100
1000
0010
,
0010
1000
0100
0001
,
0010
0000
0000
0000
,
0100
0000
0000
0000
,
0020
0000
0000
0000
,
0000
0030
1000
0001
,
0100
0100
0001
1000
,
0010
0100
0000
0100
,
0001
0001
1000
0001
,
0010
0100
0000
0100
,
1000
0010
0001
0010
,
1000
0100
0001
0100
,
0000
1000
0000
0001
,
0000
0100
0010
0100
,
0001
1000
0010
0010
,
0100
0001
0000
1000
,
0010
0100
0001
1000
,
0100
0100
0000
0010
,
0001
1000
0100
0010
,
0001
1000
0010
0100
,
0001
0100
1000
0100
,
0000
1000
0001
1000
,
0001
0010
0100
1000
,
0100
0010
0001
0100
,
0010
1000
0001
0100
,
0000
0001
0000
1000
,
0001
0000
0000
0100
0000
0000
1000
0000
,
0000
0001
0000
0000
0100
0000
0010
0000
,
1000
0001
0000
0000
0000
0000
0000
0000
;
