#TITLE:Zamknij Kurwa Ryj Bo Napierdalam;
#SUBTITLE:;
#ARTIST:Loffciamcore;
#TITLETRANSLIT:;
#SUBTITLETRANSLIT:;
#ARTISTTRANSLIT:;
#CREDIT:Fraxtil;
#BANNER:Zamknij Kurwa Ryj Bo Napierdalam - bn.png;
#BACKGROUND:Zamknij Kurwa Ryj Bo Napierdalam - bg.png;
#LYRICSPATH:;
#CDTITLE:;
#MUSIC:Zamknij Kurwa Ryj Bo Napierdalam.ogg;
#OFFSET:-0.020;
#SAMPLESTART:42.520;
#SAMPLELENGTH:16.000;
#SELECTABLE:YES;
#DISPLAYBPM:240.000;
#BPMS:0.000=240.000,352.000=480.000,353.000=160.000,354.000=240.000;
#STOPS:;
#BGCHANGES:;
// cache tags:
#FIRSTBEAT:16.000;
#LASTBEAT:565.000;
#SONGFILENAME:Songs/SPEEEDCOOOORE 4/Zamknij Kurwa Ryj Bo Napierdalam - [Fraxtil]/Zamknij Kurwa Ryj Bo Napierdalam.sm;
#HASMUSIC:1;
#HASBANNER:1;
#MUSICLENGTH:141.435;
// end cache tags

//---------------dance-single - Fraxtil----------------
#NOTES:
     dance-single:
     Fraxtil:
     Challenge:
     17:
     1.000,1.000,0.134,0.431,1.000,1209.000,19.000,61.000,100.000,0.000:

0000
0000
0000
0000
,
0000
0000
0000
0000
,
0000
0000
0000
0000
,
0000
0000
0000
0000
,
10M0
0001
0100
0001
0010
0100
1000
0010
,
1000
0100
0010
0001
0100
0001
1000
0001
,
0010
0100
0010
0001
0100
0010
1000
0100
,
1000
0000
0001
0000
0100
0000
0001
0000
0010
0100
1000
0001
1000
0010
0100
0001
,
1000
0000
0100
0000
0010
0000
0100
1000
0001
1000
0001
0000
0100
0000
0100
0000
,
0010
0000
1000
0000
0001
0000
0010
0000
0100
0010
0001
1000
0001
0100
0010
1000
,
0001
0000
0010
0000
0100
0000
1000
0001
0100
0001
0100
0000
0010
1000
0001
1000
,
0100
0000
0010
0000
0001
0000
1000
0000
0010
0000
0100
0000
0001
1000
0001
0000
,
0020
0000
0000
0000
0031
0000
0000
0001
0020
0000
0000
0000
0130
0000
1000
0000
,
00M1
0100
0001
1000
0100
0010
0001
1000
0010
0100
0010
1000
0001
1000
0100
0010
,
0001
1000
0010
0100
0010
1000
0001
0010
0100
1000
0001
0100
0010
1000
0100
0010
,
0001
0100
0010
1000
0001
0010
0100
1000
0001
0100
0001
1000
0100
1000
0010
0100
,
0001
0100
0010
1000
0001
0010
0100
0010
0001
0100
0010
1000
0100
0010
0001
0100
,
0010
0000
0100
0000
0001
0000
1000
0000
010M
0010
0100
1000
0001
1000
0010
0100
,
0001
1000
0100
0010
0100
1000
0001
0100
0010
1000
0001
0010
0100
1000
0010
0100
,
0001
0010
0001
1000
0010
0100
0010
1000
0001
0010
0100
0010
0001
1000
0010
0100
,
0001
1000
0010
1000
0001
0010
0100
1000
0001
0100
0001
0010
0100
1000
0010
1000
,
0001
0000
0010
0000
0001
0000
1000
0010
0100
0010
1000
0000
0001
0000
0010
0100
,
1000
0000
0001
0000
0100
0000
0010
1000
0001
1000
0100
0000
0010
0000
0001
1000
,
0010
0000
1000
0000
0001
0000
0010
0100
0010
0001
1000
0000
0010
0000
0100
0001
,
1000
0000
0100
0000
0010
0000
0001
1000
0010
0000
0010
0000
1000
0000
1000
0000
,
00M1
0000
0100
0000
0001
0000
1000
0100
0010
0100
1000
0000
0001
0000
0100
0010
,
100M
0000
0001
0000
0010
0000
0100
0000
100M
0000
0010
0000
0100
0010
1000
0001
,
0M10
0000
0001
0000
1000
0000
0010
0100
0010
1000
0001
0000
0010
0000
0100
1000
,
00M1
0000
0100
0000
0010
0000
1000
0001
0010
0100
0010
0100
1000
0000
0000
0000
,
1001
0000
0000
0000
1001
0000
0000
0000
0001
0100
0001
0100
0010
0000
0000
0000
,
1000
0000
0001
0010
0001
0010
0100
0000
1000
0001
1000
0001
0100
0000
0000
0000
,
0110
0000
0000
0000
0110
0000
0000
0000
0010
1000
0010
1000
0001
0000
0000
0000
,
0000
00M0
0000
M000
0000
0000
000M
0000
00M0
0M00
0000
0000
,
20M2
0000
0000
0000
0000
0000
0000
3003
0001
1000
0001
1000
0100
0000
0010
0000
,
M022
0000
0000
0000
0000
0000
0000
0033
2M02
0000
0000
0000
0000
0000
0000
3003
,
2M20
0000
0000
0000
0000
0000
0000
3030
0010
0100
0010
0100
0001
0000
0000
0000
,
02M2
0000
0000
0000
,
M303
0000
0000
0000
0000
00M0
0000
0000
0000
0000
0M00
0000
0000
0000
0000
000M
0000
0000
0000
0000
00M0
0000
0000
0000
0M00
0000
0000
0000
M000
0000
0000
0000
,
000M
0000
0000
0000
0000
0000
0M00
0000
0000
0000
0M00
0M00
0M00
0000
0000
0000
0000
00M0
0000
0000
0000
M000
0000
0000
0000
0000
0000
0000
0000
0000
000M
0000
,
0000
0000
0000
0000
0000
0000
00M0
0000
0000
0000
000M
0000
0M00
0000
0000
0000
00M0
0000
0000
0000
M000
0000
0000
0000
0000
0M00
0000
0000
0000
0000
0000
0000
,
00M0
0000
0000
0000
,
0000
0000
0000
0000
0000
0000
0000
0000
000M
000M
000M
000M
000M
000M
000M
000M
,
200M
0000
000M
0000
320M
0000
000M
0000
0320
0000
0000
0000
0032
0000
0000
0003
1000
0000
0100
0000
1000
0000
0001
0000
0100
0000
0010
0000
1000
0000
0001
0000
,
0010
0001
1000
0010
1000
0001
0010
0100
1000
0001
0100
0010
0100
0001
1000
0100
,
1000
0001
0100
0001
0010
0100
1000
0010
0100
0001
1000
0100
0010
0001
1000
0010
,
1000
0001
0010
0100
1000
0001
0100
0010
1000
0001
0010
0001
1000
0010
1000
0001
,
0200
0000
0000
0000
0000
0000
0000
0000
M310
0100
0001
1000
0100
1000
0001
0100
,
0010
1000
0001
0010
0100
0010
0001
1000
0010
1000
0001
0010
0001
1000
0100
1000
,
0010
0100
0001
0010
0100
1000
0010
0100
0010
1000
0100
1000
0001
0100
0001
0010
,
0100
1000
0010
1000
0001
0010
0001
0100
0010
1000
0100
1000
0001
0100
0001
0010
,
0200
0000
0000
0000
1300
0001
1000
0010
,
0100
0001
0010
0001
1000
0010
0100
0001
,
0010
0000
0100
0000
1000
0001
1000
0001
0100
0000
0010
0000
1000
0000
0001
0000
,
0010
0001
1000
0010
0100
0001
1000
0100
,
0020
0000
0000
0000
0130
1000
0001
0100
,
0010
1000
0010
1000
0001
0000
0001
0000
0010
0000
0100
0000
1000
0000
0001
0000
,
0100
0000
0010
0000
0100
0000
0001
0000
2002
0000
0000
0000
0000
0000
0000
3003
,
2002
0000
0000
0000
0000
0000
0000
0000
0000
0000
0000
0000
0000
0000
0000
0000
0000
0000
0000
0000
0000
3003
0000
0000
1000
0000
0000
0000
0100
0000
0000
0000
1000
0000
0000
0000
0010
0000
0000
0000
0100
0000
0000
0000
0001
0000
0000
0000
,
0010
0000
0001
0000
0100
0000
0010
0000
1000
0000
0100
0000
10M0
0000
0000
0001
0000
0000
0100
0000
0000
0100
0000
0000
,
0010
1000
0100
0010
0001
1000
0010
0010
,
0100
0001
0010
0100
1000
0001
0100
0100
,
0010
0000
1000
0000
0100
0000
1000
0000
0001
0100
0001
0100
0010
0000
0000
0000
,
2000
0000
0000
0000
0000
0000
0000
3000
2000
0000
0000
0000
0000
0000
0000
3000
1001
0000
0000
0000
0001
0000
0000
0000
0010
0000
0000
0000
0010
0000
0000
0000
,
0100
1000
0010
0100
0001
1000
0100
0100
,
0010
0001
0100
0001
1000
0100
0010
0010
,
0001
0000
0000
1000
0000
0000
0010
0000
0000
0100
0000
0000
0001
0000
0100
0000
0001
0000
0010
0000
0100
0000
1000
0000
,
0010
0000
1000
0000
0100
0000
0010
0000
0001
0000
0100
0000
0002
0000
0000
0023
0000
0000
0230
0000
0000
2300
0000
0000
,
3010
0000
0100
0000
0001
0000
0001
0000
1000
0100
1000
0100
0010
0000
0010
0000
,
0001
0000
0000
0000
1000
0000
1000
0000
0010
0100
0010
0100
0001
0000
0001
0000
,
1000
0100
1000
0001
0100
0010
1000
0001
0000
0000
0000
0000
0000
0000
0000
0000
,
0M00
0000
00M0
0000
1M01
1000
0010
0100
,
0001
0010
0100
1000
10M1
0001
0100
0001
,
10M1
1000
0100
1000
10M1
0001
0100
0010
,
1000
0100
0010
0001
M022
0000
0000
0000
,
0000
0000
0000
0000
0000
0000
0000
0033
0M00
M000
0M00
00M0
M000
000M
0M00
M000
,
00M0
0000
0M00
0000
000M
0000
00M0
0000
0000
0000
M000
0000
M000
M000
0000
0000
00M0
0000
0000
0000
0000
0M00
0000
0000
0000
0000
000M
0000
0000
0000
0000
0000
,
0000
M000
0000
0000
0000
0000
0000
0000
0000
0M00
0000
0000
0000
0000
0000
0000
MMMM
0000
0000
0000
0000
0000
0000
0000
0000
0000
0000
0000
0000
0000
0000
0000
,
0001
0000
1000
0000
0200
0000
0000
0320
,
0000
0032
0003
0200
,
0000
0320
0000
0000
2030
0000
0000
3200
,
0000
0000
0320
0000
0000
0030
0000
0000
,
0100
0000
1000
0000
0001
0000
0000
0100
,
0000
0000
0001
0000
0020
0000
0000
0230
,
0000
0000
1300
0000
0002
0000
0000
0203
,
0000
0000
0320
0000
0000
0030
0000
0000
,
0100
0000
0001
0000
2000
0000
0000
3200
,
0000
0000
0320
0000
0000
0030
0200
0000
,
0000
0000
1300
0000
0002
0000
0000
0203
,
0000
M3M0
0000
0000
,
0010
0000
0100
0000
0002
0000
0000
2003
,
0000
0000
0000
0000
3100
0000
0000
0000
0010
0000
0000
0000
000M
000M
000M
000M
,
000M
000M
000M
000M
022M
000M
000M
000M
000M
0000
0330
0000
2002
0000
0000
0000
,
0000
0000
0000
0000
0000
0000
0000
0000
0000
0000
3003
0000
0001
0100
0001
1000
,
0010
1000
0001
0010
0100
0010
0001
1000
0010
0100
0001
1000
0100
0010
0100
1000
,
0001
1000
0010
0100
0001
1000
0010
1000
0100
0010
0001
0100
0010
0100
0001
1000
,
0001
0010
0100
1000
0100
0010
0001
1000
0010
1000
0001
0100
0001
0000
1000
0000
,
0100
0000
0010
0000
0001
0000
0100
0000
0010
0000
1000
0000
0001
0100
0010
1000
,
0100
0010
0001
0100
0010
0100
0001
1000
0100
0010
0100
1000
0001
0100
0010
1000
,
0001
1000
0100
1000
0010
0100
0001
0010
0100
1000
0010
0100
0001
0010
0001
0100
,
0001
1000
0100
1000
0010
0100
0010
1000
0001
0010
0100
0010
0001
1000
0001
1000
,
0010
0000
0100
0000
0002
0000
0000
0000
1003
0100
1000
0100
0010
0000
0001
0000
,
0010
0001
0100
0010
1000
0100
0010
0001
,
0100
0010
1000
0010
0100
0001
1000
0100
,
1000
0100
0010
0001
0100
0010
1000
0100
,
0010
0001
0100
0001
0010
0100
1000
0010
,
1000
0010
0100
0001
0010
0100
1000
0010
,
0100
0001
0010
0001
0100
0010
1000
0001
,
1000
0001
0010
0100
1000
0010
1000
0001
,
0010
0001
0100
0010
1000
0100
0010
0001
,
0100
0100
0010
1000
0100
0010
0001
1000
,
0010
0010
0100
0001
0010
0100
1000
0001
,
0100
0100
0010
1000
0100
0010
0001
0100
,
0010
0010
1000
0001
1000
0001
0010
0001
,
0100
0010
1000
0100
1000
0001
0010
0001
,
0100
0010
1000
0100
1000
0001
0100
0001
,
0010
0100
1000
0010
1000
0001
0100
0001
,
0010
0100
1000
0001
0100
0100
0001
0010
,
0001
0100
0010
1000
0100
1000
0001
0100
,
0001
0010
0100
1000
0010
1000
0001
0010
,
0001
0100
0010
1000
0100
1000
0010
0010
,
0100
0001
1000
1000
0001
0001
0010
0001
,
0100
0010
1000
0100
1000
0001
0100
0001
,
0010
0100
1000
0010
1000
0001
0010
0001
,
0100
0010
1000
0100
1000
0001
0200
0000
,
0000
0000
0000
0000
0000
0000
0000
0000
0000
0000
0000
0000
0310
0100
0010
1000
,
0001
0010
0001
1000
0010
0100
0001
1000
0100
0010
0100
1000
0001
0100
0010
1000
,
0001
0100
0001
1000
0100
0010
0001
0100
0010
1000
0100
0010
0001
0100
0010
1000
,
0001
0010
0001
1000
0010
0100
0001
1000
0100
0010
0100
1000
0010
0100
0001
1000
,
0001
0010
0100
1000
0002
0000
0000
0000
0103
0010
1000
0100
0010
0000
0001
0000
,
1000
0000
1000
0000
0001
0000
0001
0000
0100
0000
0010
0000
1000
0010
1000
0001
,
0010
0100
0010
0001
1000
0010
0100
0001
1000
0100
0010
0100
1000
0001
0100
0010
,
1000
0001
0010
0001
1000
0010
0100
0001
1000
0100
0010
0001
0100
0001
1000
0001
,
0010
0100
0010
0001
0200
0000
0000
0000
0310
0000
0010
0000
1000
0010
1000
0100
,
0010
0100
1000
0001
0100
0001
0010
0001
1000
0010
1000
0001
0010
0100
1000
0010
,
0100
0010
1000
0001
0010
0100
1000
0010
1000
0100
0010
0001
0100
0001
1000
0100
,
0010
0100
1000
0010
0100
0010
1000
0001
0010
0001
0100
0010
1000
0001
0010
0100
,
0010
0001
0100
0010
4000
0000
3000
0000
4000
0000
3000
0000
0001
0010
0001
0100
,
0010
1000
0100
1000
0001
0100
0001
0010
0100
1000
0010
1000
0001
0010
0100
1000
,
0010
0100
0010
1000
0001
0010
0001
0100
0010
1000
0100
0010
0100
1000
0010
0100
,
0001
0010
0100
1000
0010
1000
0100
0010
0001
0100
0010
1000
0100
1000
0010
0100
,
0001
0010
0100
1000
0010
0100
0001
0010
0001
0100
0010
1000
0002
0000
0000
0000
,
0000
0003
0000
0000
;

//---------------dance-single - Fraxtil----------------
#NOTES:
     dance-single:
     Fraxtil:
     Hard:
     16:
     1.000,1.000,0.233,0.431,1.000,1097.000,33.000,61.000,110.000,0.000:

0000
0000
0000
0000
,
0000
0000
0000
0000
,
0000
0000
0000
0000
,
0000
0000
0000
0000
,
10M0
0001
0100
0001
0010
0100
1000
0010
,
1000
0100
0010
0001
0100
0001
1000
0001
,
0010
0100
0010
0001
0100
0010
1000
0100
,
1000
0000
0001
0000
0100
0000
0001
0000
0010
0100
1000
0001
1000
0010
0100
0001
,
1000
0000
0100
0000
0010
0000
0100
1000
0001
1000
0001
0000
0100
0000
0100
0000
,
0010
0000
1000
0000
0001
0000
0010
0000
0100
0010
0001
1000
0001
0100
0010
1000
,
0001
0000
0010
0000
0100
0000
1000
0001
0100
0001
0100
0000
0010
1000
0001
1000
,
0100
0000
0010
0000
0001
0000
1000
0000
0010
0000
0100
0000
0001
1000
0001
0000
,
0020
0000
0000
0000
0031
0000
0000
0001
0020
0000
0000
0000
0130
0000
1000
0000
,
00M1
0100
0001
1000
0100
0010
0001
1000
0010
0100
0010
1000
0001
1000
0100
0010
,
0001
1000
0010
0100
0010
1000
0001
0010
0100
1000
0001
0100
0004
0000
0000
0000
,
1003
0010
0100
0001
1000
0100
0010
0001
1000
0010
1000
0001
0010
0001
0100
0010
,
1000
0010
0100
0001
1000
0100
0010
0100
4000
0000
0000
0000
0000
0000
0000
0000
,
3010
0000
0100
0000
0001
0000
1000
0000
010M
0010
0100
1000
0001
1000
0010
0100
,
0001
1000
0100
0010
0100
1000
0001
0100
0010
1000
0001
0010
0004
0000
0000
0000
,
1003
0100
1000
0001
0100
0010
0100
0001
1000
0100
0010
0100
1000
0001
0100
0010
,
1000
0001
0100
0001
1000
0100
0010
0001
1000
0010
4000
0000
3001
0100
0004
0000
,
1003
0000
0100
0000
1000
0000
0001
0100
0010
0100
0001
0000
1000
0000
0100
0010
,
0001
0000
1000
0000
0010
0000
0100
0001
1000
0001
0010
0000
0100
0000
1000
0001
,
0100
0000
0001
0000
1000
0000
0100
0010
0100
1000
0001
0000
0100
0000
0010
1000
,
0001
0000
0010
0000
0100
0000
1000
0001
0100
0000
0100
0000
0001
0000
0001
0000
,
1M00
0000
0010
0000
1000
0000
0001
0010
0100
0010
0001
0000
1000
0000
0010
0100
,
M001
0000
1000
0000
0100
0000
0010
0000
M001
0000
0100
0000
0010
0100
0001
1000
,
01M0
0000
1000
0000
0001
0000
0100
0010
0100
0001
1000
0000
0100
0000
0010
0001
,
1M00
0000
0010
0000
0100
0000
0001
1000
0100
0010
0100
0010
0001
0000
0000
0000
,
1001
0000
0000
0000
1001
0000
0000
0000
1000
0010
1000
0010
0100
0000
0000
0000
,
0001
0000
1000
0100
1000
0100
0010
0000
0001
1000
0001
1000
0010
0000
0000
0000
,
0110
0000
0000
0000
0110
0000
0000
0000
0100
0001
0100
0001
1000
0000
0000
0000
,
0000
0M00
0000
000M
0000
0000
M000
0000
0M00
00M0
0000
0000
,
2M02
0000
0000
0000
0000
0000
0000
3003
1000
0001
1000
0001
0010
0000
0100
0000
,
220M
0000
0000
0000
0000
0000
0000
3300
20M2
0000
0000
0000
0000
0000
0000
3003
,
02M2
0000
0000
0000
0000
0000
0000
0303
0100
0010
0100
0010
1000
0000
0000
0000
,
2M20
0000
0000
0000
,
303M
0000
0000
0000
0000
0M00
0000
0000
0000
0000
00M0
0000
0000
0000
0000
M000
0000
0000
0000
0000
0M00
0000
0000
0000
00M0
0000
0000
0000
000M
0000
0000
0000
,
M000
0000
0000
0000
0000
0000
00M0
0000
0000
0000
00M0
00M0
00M0
0000
0000
0000
0000
0M00
0000
0000
0000
000M
0000
0000
0000
0000
0000
0000
0000
0000
M000
0000
,
0000
0000
0000
0000
0000
0000
0M00
0000
0000
0000
M000
0000
00M0
0000
0000
0000
0M00
0000
0000
0000
000M
0000
0000
0000
0000
00M0
0000
0000
0000
0000
0000
0000
,
0M00
0000
0000
0000
,
0000
0000
0000
0000
0000
0000
0000
0000
M000
M000
M000
M000
M000
M000
M000
M000
,
M002
0000
M000
0000
M023
0000
M000
0000
0230
0000
0000
0000
2300
0000
0000
3000
0001
0000
0010
0000
0001
0000
1000
0000
0010
0000
0100
0000
0001
0000
1000
0000
,
0100
1000
0001
0100
0001
1000
0100
0010
0001
1000
0010
0100
0010
1000
0001
0010
,
0001
1000
0010
1000
0400
0000
0000
0000
0310
0001
1000
0010
0100
0001
1000
0010
,
1000
0001
0010
0100
1000
0001
0100
0010
1000
0001
0010
0001
1000
0010
1000
0001
,
0200
0000
0000
0000
0000
0000
0000
0000
M310
0100
0001
1000
0100
1000
0001
0100
,
0010
1000
0001
0010
0100
0010
0001
1000
0010
1000
0001
0010
0001
1000
0100
1000
,
0004
0000
0000
0000
0403
0000
0000
0000
0310
1000
0100
1000
0001
0100
0001
0010
,
0100
1000
0010
1000
0001
0010
0001
0100
0010
1000
0100
1000
0001
0100
0001
0010
,
0200
0000
0000
0000
1300
0001
1000
0010
,
0100
0001
0010
0001
1000
0010
0100
0001
,
0010
0000
0100
0000
1000
0001
1000
0001
0100
0000
0010
0000
1000
0000
0001
0000
,
0010
0001
1000
0010
0100
0001
1000
0100
,
0020
0000
0000
0000
0130
1000
0001
0100
,
0010
1000
0010
1000
0001
0000
0001
0000
0010
0000
0100
0000
1000
0000
0001
0000
,
0100
0000
0010
0000
0100
0000
0001
0000
2002
0000
0000
0000
0000
0000
0000
3003
,
2002
0000
0000
0000
0000
0000
0000
0000
0000
0000
0000
0000
0000
0000
0000
0000
0000
0000
0000
0000
0000
3003
0000
0000
1000
0000
0000
0000
0100
0000
0000
0000
1000
0000
0000
0000
0010
0000
0000
0000
0100
0000
0000
0000
0001
0000
0000
0000
,
0010
0000
0001
0000
0100
0000
0010
0000
1000
0000
0100
0000
10M0
0000
0000
0001
0000
0000
0100
0000
0000
0100
0000
0000
,
0010
1000
0100
0010
0001
1000
0010
0010
,
0100
0001
0010
0100
1000
0001
0100
0100
,
0010
0000
1000
0000
0100
0000
1000
0000
0001
0100
0001
0100
0010
0000
0000
0000
,
2000
0000
0000
0000
0000
0000
0000
3000
2000
0000
0000
0000
0000
0000
0000
3000
1001
0000
0000
0000
0001
0000
0000
0000
0010
0000
0000
0000
0010
0000
0000
0000
,
0100
1000
0010
0100
0001
1000
0100
0100
,
0010
0001
0100
0001
1000
0100
0010
0010
,
0001
0000
0000
1000
0000
0000
0010
0000
0000
0100
0000
0000
0001
0000
0100
0000
0001
0000
0010
0000
0100
0000
1000
0000
,
0010
0000
1000
0000
0100
0000
0010
0000
0001
0000
0100
0000
0002
0000
0000
0023
0000
0000
0230
0000
0000
2300
0000
0000
,
3010
0000
0100
0000
0001
0000
0001
0000
1000
0100
1000
0100
0010
0000
0010
0000
,
0001
0000
0000
0000
1000
0000
1000
0000
0010
0100
0010
0100
0001
0000
0001
0000
,
1000
0100
1000
0001
0100
0010
1000
0001
0000
0000
0000
0000
0000
0000
0000
0000
,
0M00
0000
00M0
0000
1M01
1000
0010
0100
,
0001
0010
0100
1000
10M1
0001
0100
0001
,
10M1
1000
0100
1000
10M1
0001
0100
0010
,
1000
0100
0010
0001
M022
0000
0000
0000
,
0000
0000
0000
0000
0000
0000
0000
0033
0M00
M000
0M00
00M0
M000
000M
0M00
M000
,
00M0
0000
0M00
0000
000M
0000
00M0
0000
0000
0000
M000
0000
M000
M000
0000
0000
00M0
0000
0000
0000
0000
0M00
0000
0000
0000
0000
000M
0000
0000
0000
0000
0000
,
0000
M000
0000
0000
0000
0000
0000
0000
0000
0M00
0000
0000
0000
0000
0000
0000
MMMM
0000
0000
0000
0000
0000
0000
0000
0000
0000
0000
0000
0000
0000
0000
0000
,
0001
0000
1000
0000
0200
0000
0000
0320
,
0000
0032
0003
0200
,
0000
0320
0000
0000
2030
0000
0000
3200
,
0000
0000
0320
0000
0000
0030
0000
0000
,
0100
0000
1000
0000
0001
0000
0000
0100
,
0000
0000
0001
0000
0020
0000
0000
0230
,
0000
0000
1300
0000
0002
0000
0000
0203
,
0000
0000
0320
0000
0000
0030
0000
0000
,
0100
0000
0001
0000
2000
0000
0000
3200
,
0000
0000
0320
0000
0000
0030
0200
0000
,
0000
0000
1300
0000
0002
0000
0000
0203
,
0000
M3M0
0000
0000
,
0010
0000
0100
0000
0002
0000
0000
2003
,
0000
0000
0000
0000
3100
0000
0000
0000
0010
0000
0000
0000
000M
000M
000M
000M
,
000M
000M
000M
000M
022M
000M
000M
000M
000M
0000
0330
0000
2002
0000
0000
0000
,
0000
0000
0000
0000
0000
0000
0000
0000
0000
0000
3003
0000
0001
0100
0001
1000
,
0010
1000
0001
0010
0100
0010
0001
1000
0010
0100
0001
1000
0100
0010
0100
1000
,
0001
1000
0010
0100
0001
1000
0010
1000
0004
0000
0000
0000
0103
0010
1000
0001
,
1000
0100
0010
0001
0010
0100
1000
0001
0100
0001
1000
0010
1000
0000
0001
0000
,
0010
0100
1000
0010
0100
0001
4000
0000
,
0000
0000
0000
0000
3001
0100
0001
1000
0100
0010
0100
1000
0001
0100
0010
1000
,
0001
1000
0100
1000
0040
0000
0000
0000
0000
0000
0000
0000
0430
0000
0000
0000
,
0000
0000
0000
0000
0301
1000
0010
1000
0001
0010
0100
0010
0001
1000
0001
1000
,
0010
0000
0100
0000
0002
0000
0000
0000
1003
0100
1000
0100
0010
0000
0001
0000
,
0010
0001
0100
0010
1000
0100
0010
0001
,
0100
0010
1000
0010
0100
0001
1000
0100
,
1000
0100
0010
0001
0100
0010
1000
0100
,
0010
0001
0100
0001
0010
0100
1000
0010
,
1000
0010
0100
0001
0010
0100
1000
0010
,
0100
0001
0010
0001
0100
0010
1000
0001
,
1000
0001
0010
0100
1000
0010
1000
0001
,
0010
0001
0100
0010
1000
0100
0010
0001
,
0100
0100
0010
1000
0100
0010
0001
1000
,
0010
0010
0100
0001
0010
0100
1000
0001
,
0100
0100
0010
1000
0100
0010
0001
0100
,
0010
0010
1000
0001
1000
0001
0010
0001
,
0100
0010
1000
0100
1000
0001
0010
0001
,
0100
0010
1000
0100
1000
0001
0100
0001
,
0010
0100
1000
0010
1000
0001
0100
0001
,
0010
0100
1000
0001
0100
0100
0001
0010
,
0001
0100
0010
1000
0100
1000
0001
0100
,
0001
0010
0100
1000
0010
1000
0001
0010
,
0001
0100
0010
1000
0100
1000
0010
0010
,
0100
0001
1000
1000
0001
0001
0010
0001
,
0100
0010
1000
0100
1000
0001
0100
0001
,
0010
0100
1000
0010
1000
0001
0010
0001
,
0100
0010
1000
0100
1000
0001
0200
0000
,
0000
0000
0000
0000
0000
0000
0000
0000
0000
0000
0000
0000
0310
0100
0010
1000
,
0001
0010
0001
1000
0010
0100
0001
1000
0100
0010
0100
1000
0001
0100
0010
1000
,
0001
0100
0001
1000
0400
0000
0000
0000
0000
0000
0000
0000
1300
0010
0100
0001
,
1000
0100
1000
0001
0100
0010
1000
0001
0010
0100
0010
0001
0100
0010
1000
0001
,
1000
0100
0010
0001
2000
0000
0000
0000
3004
0000
0000
0000
0013
0000
0100
0000
,
1000
0000
1000
0000
0001
0000
0001
0000
0100
0000
0010
0000
1000
0010
1000
0001
,
0010
0100
0010
0001
1000
0010
0100
0001
1000
0100
0010
0100
1000
0001
0100
0010
,
1000
0001
0010
0001
1000
0010
0100
0001
1000
0100
0010
0001
0100
0001
1000
0001
,
0010
0100
0010
0001
0200
0000
0000
0000
0310
0000
0010
0000
1000
0010
1000
0100
,
0010
0100
1000
0001
0100
0001
0010
0001
1000
0010
1000
0001
0010
0100
1000
0010
,
0100
0010
1000
0001
0040
0000
0000
0000
0430
0000
0000
0000
1300
0001
1000
0100
,
0010
0100
1000
0010
0100
0010
1000
0001
0010
0001
0100
0010
1000
0001
0010
0100
,
0010
0001
0100
0010
4000
0000
3000
0000
4000
0000
3000
0000
0001
0010
0001
1000
,
0010
1000
0100
1000
0001
0100
0001
1000
0100
1000
0010
1000
0001
0010
0100
1000
,
0001
0100
0010
1000
0001
0010
0001
0100
0010
1000
0001
0010
0004
0000
0000
0000
,
0000
0000
0000
0000
M000
0M00
M000
0M00
M000
0000
0000
0000
0M00
M000
0M00
M000
,
0M00
0000
0003
2001
,
0000
3000
0000
0000
;
