#TITLE:Delirium;
#SUBTITLE:Jack's Edit;
#ARTIST:Smiley;
#TITLETRANSLIT:;
#SUBTITLETRANSLIT:;
#ARTISTTRANSLIT:;
#CREDIT:;
#BANNER:delirium_bn.png;
#BACKGROUND:delirium_bg.png;
#LYRICSPATH:;
#CDTITLE:ducky.png;
#MUSIC:Delirium.mp3;
#OFFSET:-0.060;
#SAMPLESTART:11.830;
#SAMPLELENGTH:12.000;
#SELECTABLE:YES;
#BPMS:0.000=326.000,704.000=163.000;
#STOPS:416.000=0.368
,418.000=0.368
,420.000=0.368
,422.000=0.368
;
#BGCHANGES:;
// cache tags:
#FIRSTBEAT:0.000;
#LASTBEAT:707.000;
#SONGFILENAME:Songs/mike songs/2746delirium_jack_edit/Delirium.sm;
#HASMUSIC:1;
#HASBANNER:1;
#MUSICLENGTH:133.374;
// end cache tags

//---------------dance-single - ----------------
#NOTES:
     dance-single:
     :
     Hard:
     11:
     0.766,1.000,0.075,0.360,0.000,657.000,10.000,48.000,78.000,1.000:
0000
0000
0000
0000
,
0000
0000
0000
0000
,
0000
0000
0000
0000
,
0000
0000
0000
0000
,
1000
0000
0000
1000
,
0000
0000
1000
0000
,
0000
0000
0000
0000
,
0000
0000
0000
0000
1000
0001
1000
0001
,
1000
0000
1000
0000
,
0100
0000
0010
0100
,
0010
0000
1000
0000
,
0010
0000
0000
0100
0010
0000
0010
0100
,
0010
0000
1000
0100
1000
0000
0001
0010
,
0001
0100
0010
0100
,
1000
0000
0001
1000
0001
0000
1000
0100
,
0010
0001
0010
0100
0010
0100
1000
0100
,
1000
0010
0100
0010
,
0100
1000
0100
0010
,
0100
0001
0010
1000
,
0100
0000
0001
0000
1000
0001
1000
0001
,
1000
0100
0010
0100
,
0001
0100
0010
0100
,
0010
0001
0010
0001
,
0100
0000
1000
0000
0100
0000
1000
0100
,
1000
0100
0010
0100
,
0001
0010
0001
1000
,
0100
0100
0001
0100
,
0010
0000
0100
0000
0001
1000
0001
1000
,
0001
1000
0001
0100
,
0010
0001
0010
0100
,
100M
M001
100M
0010
,
100M
M001
100M
0100
,
2100
0MMM
3010
0000
,
0102
0M00
0013
0100
,
0120
0M00
0031
0000
,
1001
0000
0000
0100
0010
0000
0010
0100
,
0010
0000
1000
0100
1000
0000
0010
0001
,
0010
0001
0010
0001
0010
0000
1000
0001
,
1000
0001
1000
0001
1000
0000
0001
1000
,
0001
0000
0010
0100
0010
0000
0010
0000
,
1000
0100
1000
0010
,
1000
0100
1000
0010
,
1000
0100
0010
0001
,
0010
0100
1000
0100
,
0001
0100
0001
0010
,
0001
0100
0001
0010
,
0001
1000
0001
1000
,
2002
0000
3MM3
0000
MMMM
MMMM
MMMM
0000
,
1MM1
1000
0100
1000
,
0001
0010
0100
0001
,
1000
0100
1000
0100
,
M01M
MMMM
MM2M
MM0M
,
MM31
0100
0010
0100
,
0010
1000
0010
0100
,
0010
0001
1000
0100
,
1000
0001
1000
0001
1000
0001
1000
0001
,
1000
0001
0100
0010
,
0001
1000
0100
0010
,
1000
0100
0001
1000
,
0010
0001
0010
0100
,
1000
0100
0010
0001
,
1000
0100
0010
1000
,
0010
0001
0100
0010
,
0001
0000
0100
0000
0010
0000
1000
0010
,
1000
0010
0001
0010
,
0001
0100
0010
1000
,
0100
1000
0100
0010
,
0001
0100
0001
0100
,
1000
0001
1000
0001
,
0100
0010
0100
0010
,
1000
0000
1000
0000
,
0001
0000
0000
0010
0100
0000
0010
0000
,
1000
0000
0000
0100
0010
0000
1000
0000
,
0001
0000
0000
0010
0100
0000
0001
0000
,
1000
0000
0000
0010
0001
0000
0001
0000
,
0010
0000
0000
1000
0100
0000
0010
0000
,
0001
0000
0000
0100
0001
0000
0001
0000
,
1000
0000
0000
0100
0010
0000
1000
0000
,
0010
0000
0000
0010
0001
0000
1000
0000
,
0100
0000
0000
0001
1000
0000
1000
0000
,
0001
1000
0010
0001
,
0100
0010
1000
0100
,
0001
0100
0010
1000
,
0100
0010
0100
0001
,
1000
0010
0100
0100
,
0001
0010
0010
2000
,
0100
0M00
0100
0M00
,
0100
0M00
0100
3M00
,
1000
0100
0010
0001
0010
0100
1000
0001
,
0100
0010
1000
0100
0010
0100
1000
0001
,
0100
0001
1000
0010
0100
0001
0010
0100
,
0020
0000
0000
0000
,
1030
0100
1000
0100
0010
0001
0010
0001
,
0020
0000
0000
0000
0000
0000
0000
0030
,
1000
0001
1000
0001
1000
0001
1000
0001
,
2000
0000
0000
0000
,
3100
0000
0010
0000
0100
0000
0001
1000
,
0001
0000
1000
0000
0100
0000
0010
0001
,
0010
0000
1000
0000
0010
0000
0001
0100
,
0001
0010
1000
0100
,
0001
0010
0100
1000
,
0100
0010
1000
0001
,
0100
0010
0100
0001
,
1000
0001
0100
0000
,
2000
0000
0200
3000
0020
0300
2000
0030
,
0200
3000
0000
0000
0310
0000
0000
0000
,
1000
1000
0100
0100
,
0001
0001
1000
1000
,
0010
0000
0000
0000
,
0100
0000
0000
0000
,
1000
0100
1000
0100
,
0010
0001
0010
0001
,
1000
0100
0010
0001
,
0100
1000
0100
0010
,
1000
0100
0001
0010
,
0100
0001
1000
0100
,
1001
MMMM
0110
MMMM
,
1001
MMMM
0110
0000
,
1000
0100
1000
0010
,
0100
0001
1000
0100
,
0010
1000
0100
0001
,
0010
0100
0001
1000
,
0010
0100
0001
0100
,
0010
0001
1000
0100
,
0010
0001
0100
0001
,
0010
0000
0100
0100
,
0100
0000
1000
0100
1000
0000
0010
0001
,
0010
0000
0100
0010
0100
0000
1000
0001
,
1000
0000
0100
0010
0100
0000
0010
0001
,
0100
0000
0010
1000
0100
0000
0100
0000
,
0100
0000
1000
0001
1000
0000
0100
0010
,
0100
0000
1000
0100
1000
0000
0010
0001
,
0010
0000
1000
0100
1000
0000
0010
0100
,
0010
0000
1000
0100
1000
0100
1000
0100
,
0010
1000
0100
1000
,
0010
0001
0100
0010
,
1000
0100
0010
0001
,
0100
0001
0010
0001
,
1000
0100
0010
0100
,
1000
0100
0010
0100
,
0001
0100
0010
1000
,
0100
1000
0010
0001
,
0010
0100
1000
0100
,
1000
0010
1000
0100
,
0001
0010
1000
0100
,
0001
0100
1000
0010
,
0001
0010
0100
0010
,
0001
0100
1000
0100
,
1000
0010
0100
1000
,
0100
1000
0100
0010
,
1000
0100
1000
0001
,
0001
0100
0010
0000
,
1000
0000
0100
0000
,
0001
0000
0000
1000
0100
0000
0010
0000
,
0100
0010
1000
0100
,
0010
0001
0010
0000
,
1000
0000
0100
0000
,
0010
0000
0000
0001
0010
0000
0000
0000
,
2000
0000
3200
0000
,
0302
0000
0203
0000
,
2300
0000
3020
0000
,
0032
0000
0023
0000
,
2030
0000
3200
0000
,
0302
0000
2003
0000
,
3002
0000
0203
0000
,
2300
0000
3002
0000
,
0203
0000
0320
0000
,
2030
0000
3020
0000
,
0032
0000
0023
0000
,
2030
0000
3200
0000
,
0320
0000
0230
0000
,
0302
0000
2003
0000
,
3002
0000
2003
0000
,
3002
0000
2000
0000
,
0020
3003
MM0M
MM0M
,
MM0M
MM0M
MM0M
MM0M
,
MM0M
0000
0030
0000
;

//---------------dance-single - GURU----------------
#NOTES:
     dance-single:
     GURU:
     Challenge:
     13:
     0.903,1.000,0.120,0.405,0.000,770.000,16.000,54.000,69.000,18.000:
0000
0000
0000
0000
,
0000
0000
0000
0000
,
0000
0000
0000
0000
,
0000
0000
0000
0000
,
1000
0100
1000
0100
,
0010
0001
0010
0001
,
1000
0000
1000
0001
0000
0001
1000
0000
,
1000
0001
0000
0001
1000
0001
1000
0001
,
1000
0000
0010
0100
0010
0000
0001
1000
,
0001
0000
0100
0010
0100
0000
1000
0100
,
1000
0000
0010
0001
0010
0000
0100
0010
,
0100
0000
1000
0100
1000
0000
0010
0001
,
0010
0000
1000
0100
1000
0000
0010
0001
,
0010
0000
0010
0100
0010
0000
1000
0001
,
1000
0001
1000
0001
0100
0010
1000
0001
,
0100
0010
1000
0010
0100
0010
0100
0010
,
1000
0100
1000
0100
,
0010
0001
0010
0001
,
1000
0001
1000
0001
1000
0000
0100
0000
,
0001
1000
0001
1000
0001
0000
0010
0000
,
1000
0001
0010
0100
,
1000
0100
1000
0100
1000
0100
1000
0100
,
0010
0000
1000
0000
,
0001
0000
0000
0100
0010
0000
0100
0000
,
1000
0000
0001
0100
0010
1000
0100
0010
,
0001
0010
0100
1000
0001
0010
0100
1000
,
0001
0010
0001
0010
,
0001
0000
1000
0000
0001
0010
0100
1000
,
0001
1000
0001
0010
,
0100
0001
0100
0010
,
2001
0000
3010
0000
,
1000
0000
0000
0100
0001
0000
0001
0000
,
2000
0000
3001
0000
,
0002
0000
1003
0000
,
0200
0000
0301
0000
,
2000
0000
0000
0001
3001
0000
0001
0000
,
1000
0000
1000
0100
1000
0000
0010
0100
,
0010
0100
0010
0100
0010
0000
1000
0001
,
1000
0001
0100
0010
0100
0000
1000
0001
,
1000
0000
0001
1000
0001
0000
0001
0000
,
2000
0100
3100
0020
,
0032
0010
0013
2000
,
3200
0010
0320
0032
,
2003
0100
3100
0200
,
0320
1000
0031
2000
,
3002
0100
0103
0020
,
2030
0100
3100
0002
,
0203
0010
0310
1000
,
1M0M
M0M1
1M0M
00M1
,
1M00
M0M1
1M0M
M0M1
,
0M1M
M1M0
M01M
M1M0
,
00M1
M1MM
0MM1
M10M
,
100M
M001
0M10
M001
,
10M0
M001
01M0
M001
,
10M0
010M
M010
1000
,
0001
1000
0100
0010
0001
0010
0100
1000
,
0100
0010
0100
0010
,
1000
0100
1000
0100
,
0010
0001
0010
0100
,
0010
0000
1000
0100
0010
0000
0100
0000
,
0001
0100
0001
1000
,
0100
0010
0100
1000
,
0001
0100
0010
1000
,
0001
0000
0010
0100
0010
0000
0000
0000
,
1000
0100
1000
0100
,
0010
0001
0010
0001
,
0100
0010
1000
0100
,
1000
0000
0001
0100
0010
0000
1000
0000
,
0010
0100
1000
0100
,
1000
0010
0100
0010
,
1000
0100
1000
0100
1000
0000
0001
0000
,
0010
0100
1000
0010
,
1000
0100
1000
0100
1000
0100
1000
0100
,
1000
0001
1000
0001
1000
0001
1000
0001
,
0100
0010
0100
0010
0100
0010
0100
0010
,
1000
0100
0010
0001
1000
0100
0010
0001
,
0100
0001
0100
0001
0100
0001
0100
0001
,
1000
0100
1000
0100
1000
0100
1000
0100
,
0010
0100
0010
0100
0010
0100
0010
0100
,
0001
0010
0100
1000
0100
0010
0001
0010
,
0100
0000
0000
0100
0010
0000
0000
0000
,
1000
0000
0000
1000
0001
0000
0000
0000
,
0010
0000
0000
0010
0100
0000
0000
0000
,
1000
0000
0000
1000
0001
0000
0000
0000
,
0001
0000
0000
0001
1000
0000
0000
0000
,
1000
0000
0000
0100
1000
0000
0000
0000
,
0001
0000
1000
0000
,
1000
0000
1000
0000
,
1000
0100
1000
0100
0010
0001
0010
0001
,
1000
0100
0010
0100
1000
0010
0100
0010
,
1000
0100
0010
0100
,
1000
0100
0010
0100
,
1000
0100
1000
0100
0010
0001
0010
0001
,
0100
0010
0100
0010
0100
0010
0100
0001
,
1000
0010
0100
0001
,
1000
0010
0100
0001
,
1000
0100
1000
0100
1000
0100
1000
0010
,
0100
0010
0100
0010
0100
0010
0100
0010
,
1000
0100
0010
0001
,
0001
0010
0100
1000
,
1000
0100
1000
0100
0001
0010
0001
0010
,
0001
0010
0100
1000
0100
1000
0001
0100
,
0010
0100
0010
0100
,
1000
0001
1000
0001
,
1002
M003
2000
000M
0001
3000
0002
M000
,
1000
0000
0000
0000
0000
0000
0000
0000
0003
0000
0000
0000
0000
0000
0000
0000
1000
0000
0000
0000
0000
0000
0000
0000
0000
0000
0000
0000
0000
0000
0000
0000
0002
0003
0000
0000
0000
0000
0000
0000
0000
0000
0000
0000
0000
0000
0000
0000
MMMM
0000
0000
0000
0000
0000
0000
0000
0000
0000
0000
0000
0000
0000
0000
0000
,
1001
1001
0110
0110
,
1100
1100
0011
0011
,
2002
0000
0000
0000
,
3023
MM0M
MM0M
0030
,
1000
0100
1000
0000
,
0010
0001
0010
0000
,
0100
0010
0100
0000
,
1000
0100
1000
0000
,
0001
0100
0001
0100
0001
0000
0000
0000
,
1000
0100
1000
0100
1000
0000
0000
0000
,
0010
0100
0010
0100
0010
0000
0000
0000
,
0100
0000
0000
0010
0100
0000
0100
0000
,
1000
0100
1000
0000
,
0010
0100
0010
0000
,
0001
0010
0001
0000
,
0100
0010
0100
0000
,
1000
0100
1000
0100
1000
0000
0000
0000
,
0010
0100
0010
0100
0010
0000
0000
0000
,
0001
0010
0001
0010
0001
0000
0000
0000
,
0100
0010
0100
0010
0100
0000
0000
0000
,
1000
0000
0100
0000
0010
0000
0001
0010
,
0001
0000
0010
0000
0100
0000
1000
0100
,
1000
0000
0100
0000
0010
0000
0001
0010
,
0001
0010
0100
1000
,
0001
0000
1000
0000
0001
0000
0010
0100
,
0010
0000
1000
0000
0001
0000
0010
0100
,
0010
0000
1000
0000
0001
0000
0010
0100
,
0010
0100
0010
0100
0010
0100
0010
0100
,
1000
0000
0010
0000
0100
0000
0010
1000
,
0010
0000
0100
0000
0010
0000
0100
1000
,
0100
0000
0010
0000
0100
0000
0010
1000
,
0010
0000
0000
0001
0010
0000
0100
0010
,
0100
0000
1000
0001
1000
0000
0001
1000
,
0001
0000
0010
0100
0010
0000
0100
0010
,
0100
0000
0010
0100
0010
0000
1000
0100
,
0010
0001
0010
0001
0010
0100
1000
0100
,
0001
0000
0100
0000
0010
0100
0010
0000
,
1000
0000
0100
0000
0010
0001
0010
0000
,
0100
0000
0010
0000
0001
0010
0001
0000
,
1000
0000
0100
0000
0010
0100
0010
0000
,
1000
0010
0100
0001
,
0010
0000
0100
0000
1000
0100
1000
0000
,
1000
0000
0010
0000
,
0100
0000
0001
1000
0001
0000
0000
0000
,
1000
0000
0100
0000
0010
0001
0010
0001
,
0010
0000
0100
0000
1000
0100
1000
0100
,
1000
0000
0010
0000
0100
0010
0100
0010
,
0100
0000
0000
0000
,
1000
0001
1000
0100
,
0010
0001
0100
0010
,
1000
0100
1000
0000
0010
0000
0001
0000
,
0010
0001
0100
0010
0100
0001
0010
0100
,
2000
0000
0000
0000
,
0200
0000
0000
0000
,
3002
0000
0000
0000
,
0020
0000
0000
0000
,
2000
0000
0000
3333
,
2222
0000
0000
3333
,
2000
0000
0200
0000
,
0020
0000
0002
3333
,
2200
0000
0020
3330
,
0022
0000
0200
0333
,
2012
0000
0000
0000
,
32M3
0000
0000
0300
,
2000
0000
0000
0000
,
0002
0000
0000
0000
,
0010
0000
0100
0000
,
0010
0100
0010
0000
0100
0000
0000
0000
,
3223
0000
M00M
M00M
,
M00M
M00M
M00M
M00M
,
M00M
0000
0000
0330
;

//---------------dance-single - ----------------
#NOTES:
     dance-single:
     :
     Medium:
     8:
     0.693,0.991,0.315,0.232,0.067,574.000,42.000,31.000,3.000,2.000:
1000
0000
0000
1000
,
0000
0000
2000
0000
,
0000
0000
0000
0000
,
0000
0000
0000
0000
,
0001
0000
0000
0001
,
0000
0000
0002
0000
,
0000
0000
0000
0000
,
0000
0000
3003
0000
1000
0001
1000
0001
,
1000
0000
0011
0000
,
0110
0000
1000
0001
,
1001
0000
1100
0000
,
0011
0000
0000
0100
1000
0000
0100
1000
,
0100
0010
1100
0010
,
0100
0001
0011
0100
,
1000
0100
0011
0100
,
0010
0000
0000
0100
1000
0000
0010
0000
,
0100
0010
1000
0100
,
0001
0100
0010
0100
,
0001
0010
0001
0100
,
1000
0100
0010
1000
,
0001
0100
0010
0100
,
0001
1000
0100
1000
,
0010
0001
1000
0001
,
1000
0000
0001
1000
0001
0000
0000
0000
,
0100
0010
0001
1000
,
0100
0010
0001
0010
,
0100
1000
0100
0010
,
1000
0100
0010
0100
,
0001
0010
0100
1000
,
0010
0100
0010
1000
,
0010
0000
1001
0000
,
0110
0000
0000
0001
1000
0000
0000
0000
,
1100
0000
0011
0000
,
0110
0000
1001
0110
,
1001
0000
1001
0000
,
0011
0000
0000
1000
0100
0000
0100
0000
,
1000
0001
1000
0000
1000
0000
1000
0000
,
0001
1000
0001
0000
0001
0000
0001
0000
,
1000
0100
1000
0000
0010
0001
0010
0000
,
1000
0001
1000
0000
0010
0000
0100
0000
,
1000
0100
1000
0100
,
0010
0001
0010
0001
,
0100
1000
0100
1000
,
0100
0001
0100
0001
,
1000
0010
0001
0010
,
1000
0010
0001
0010
,
1000
0100
0001
0100
,
1000
0100
0001
0000
,
1000
0000
0001
0000
,
0100
0010
0100
1000
,
0100
0010
0001
0010
,
0100
0001
1000
0100
,
1000
0010
0100
0001
,
0100
1000
0001
0100
,
0010
0100
1000
0100
,
1000
0100
0010
0000
,
1000
0000
0001
0000
,
1000
0001
1000
0000
,
0010
0000
0100
0000
,
0010
0100
0010
0010
,
1000
0000
0100
0000
,
1000
0100
1000
0000
,
0010
0000
0001
0000
,
0010
0001
0010
0100
,
1000
0000
0001
0000
,
0010
0100
0010
0000
,
1000
0000
0001
0000
,
1000
1000
1000
1000
,
1000
0000
0100
0000
,
0010
0001
0010
0000
,
0100
1000
0100
0100
,
0010
0010
0100
1000
,
1000
0000
0000
0000
1000
0000
0001
0000
0000
0000
0001
0000
,
1000
0000
0000
0000
1000
0000
0100
0000
0000
0000
0100
0000
,
0001
0000
0000
0000
0001
0000
0010
0000
0000
0000
0010
0000
,
0001
0000
0000
0000
0001
0000
0100
0000
0000
0000
0100
0000
,
1000
0000
0000
0000
1000
0000
0010
0000
0000
0000
0010
0000
,
1000
0000
0000
0000
1000
0000
0100
0000
0000
0000
0100
0000
,
0010
0000
0000
0000
0010
0000
0100
0000
0000
0000
0100
0000
,
0010
0000
0001
0000
1000
0000
0001
0000
1000
0000
0001
0000
,
1000
1000
0100
0000
,
0010
0010
0001
0000
,
1000
1000
0100
0000
,
0100
0100
0010
0000
,
1000
1000
0100
0000
,
0001
0001
0100
0000
,
1100
0000
0011
0000
,
0110
0000
1001
0000
,
1100
1000
0100
0010
,
0001
0010
0001
0010
,
0100
0010
1000
0100
,
0010
0000
0000
0000
,
1000
0100
1000
0100
,
0010
0001
0010
0001
,
0010
0100
0010
1000
,
1001
0000
0000
0000
,
0110
0000
1100
0000
,
0010
0001
0010
0000
,
0101
0000
1010
0000
,
0010
0100
0010
0000
,
1001
0000
0110
0000
,
0001
0010
0001
0000
,
1000
0100
1000
0010
,
0001
1000
0001
1000
,
1001
1001
0110
0110
,
1100
1100
0011
0000
,
1000
0100
0001
0100
,
1000
0010
0001
0010
,
1100
0000
0000
0000
,
0021
0000
0000
0000
,
0031
1000
0100
1000
,
0010
0001
0010
0001
,
0010
0010
0010
0100
,
0010
0100
1000
0100
,
1000
0000
1001
0000
,
1000
0100
1000
0100
,
0010
0001
0010
0100
,
2002
0000
0000
0000
,
3003
M00M
1001
0000
,
1000
0100
0010
0100
,
1000
0100
0010
0100
,
0001
0010
0100
0001
,
1000
0000
0100
0000
,
1000
0100
1000
0010
,
0001
0100
0001
0100
,
0010
1000
0010
0001
,
1000
0100
0001
0000
,
0001
1000
0001
0000
,
1000
0100
0010
0000
,
0001
0100
0010
0000
,
1000
0100
1000
0000
0100
0000
0000
0000
,
0010
0001
0010
0000
0001
0000
0000
0000
,
1000
0100
0010
0001
,
1000
0100
0010
0001
,
1000
0001
1000
0000
,
0010
0100
0010
0000
,
1000
0001
1000
0000
0001
0000
1000
0000
,
0010
0100
0010
0000
0100
0000
0000
0000
,
1000
0100
0001
0010
,
1000
0100
0001
0010
,
1000
0010
0001
0100
,
1000
0010
0001
0100
,
1000
0100
0001
0100
,
1000
0100
0001
0100
,
1000
0010
0001
0010
,
1000
0010
0001
0010
,
1000
0010
0100
0010
,
1000
0010
0100
0010
,
0001
0010
0100
0010
,
0001
0010
0100
0001
,
0100
0010
1000
0001
,
0100
0010
1000
0001
,
1000
0100
0010
0001
,
1000
0100
0010
0001
,
0010
0100
1000
0001
,
0100
0010
1000
0001
,
1000
1000
1000
1000
,
0100
1000
0100
1000
0100
1000
0100
1000
,
0200
0000
0320
0000
,
0032
0000
2003
0000
,
3200
0000
0320
0000
,
0032
0000
0023
0000
,
2030
0000
3200
0000
,
0302
0000
0023
0000
,
2030
0000
3200
0000
,
0320
0000
0032
0000
,
2003
0001
0001
0000
,
3002
1000
1000
0000
,
0203
0010
0010
0000
,
0320
0100
0100
0000
,
0230
0000
0000
0000
,
0320
0000
0000
0000
,
2030
0000
0200
0000
,
0020
0000
0002
0000
,
0003
000M
0000
0000
,
0000
0000
0000
0000
,
0000
3330
0000
0000
;

//---------------dance-single - Jack's Edit----------------
#NOTES:
     dance-single:
     Jack's Edit:
     Easy:
     6:
     0.472,0.924,0.225,0.262,0.000,376.000,30.000,35.000,30.000,0.000:
0000
0000
0000
0000
,
0000
0000
0000
0000
,
0000
0000
0000
0000
,
0000
0000
0000
0000
,
0000
0000
0000
0000
,
0000
0000
0000
0000
,
0000
0000
0000
0000
,
0000
0000
0000
0000
,
1000
0000
0100
0000
,
0010
0000
1000
0100
,
1000
0000
1000
0000
,
0010
0000
0001
0100
,
0001
0000
1000
0000
,
0010
0000
0100
0010
,
0100
0000
1000
0000
,
0001
0000
0100
0000
,
1000
0000
0001
0000
,
1000
0001
1000
0000
,
0010
0100
0010
0000
,
1000
0001
1000
0000
,
1000
0000
0100
0000
,
0010
0000
0001
0000
,
1000
0100
0010
0001
,
1000
0100
0010
0001
,
1000
0000
0100
0000
,
1000
0000
0010
0000
,
1000
0000
0001
0000
,
1000
0001
1000
0001
,
0100
0000
0010
0000
,
1000
0000
0010
0000
,
1000
0010
0100
0001
,
1000
0010
0100
0001
,
2000
0000
0100
0000
,
0000
0000
0001
0000
,
0000
0000
0100
0000
,
0000
0000
3001
0000
,
1000
0010
1000
0000
,
0001
0010
0001
0000
,
1000
0100
1000
0001
,
0100
0001
0100
0010
,
1001
0000
1001
0000
,
0110
0000
0110
0000
,
1100
0000
1100
0000
,
0011
0000
0011
0000
,
0110
0000
1001
0000
,
0110
0000
1001
0000
,
1100
0000
1100
0000
,
0011
0000
0011
0000
,
1000
0000
0011
0000
,
1000
0000
0011
0000
,
0001
0000
1100
0000
,
0001
0000
1100
0000
,
0010
0000
0110
0000
,
0010
0000
0110
0000
,
0100
0000
0110
0000
,
0010
0000
0110
0000
,
1000
0100
1000
0000
,
0010
0001
0010
0000
,
0010
0100
0010
0000
,
1000
0001
1000
0001
,
1000
0001
1000
0000
,
0010
0001
0010
0000
,
1000
0100
1000
0000
,
0010
0001
0010
0010
,
1000
0001
1000
0000
,
0010
0100
0010
0000
,
1000
0100
1000
0010
,
0001
0010
0001
0000
,
1000
0100
1000
0000
,
0010
0001
0100
0000
,
0010
1000
0001
0010
,
0100
0001
0010
0100
,
2000
0000
0000
0000
,
3200
0000
0000
0000
,
0320
0000
0000
0000
,
0230
0000
0000
0000
,
2300
0000
0000
0000
,
3002
0000
0000
0000
,
0023
0000
0000
0000
,
0230
0000
0000
0000
,
2300
0000
0000
0000
,
3020
0000
0000
0000
,
2030
0000
0000
0000
,
3002
0000
0000
0000
,
0023
0000
0000
0000
,
0230
0000
0000
0000
,
2300
0000
0001
0000
,
3002
0000
1000
0000
,
1003
0100
0010
1000
,
0010
0001
0010
0100
,
0001
1000
0010
0100
,
0001
0100
1000
0010
,
1000
0100
0001
0100
,
1000
0010
0100
0001
,
0010
0100
0001
1000
,
0200
0000
0000
0000
,
1300
0100
0001
0100
,
1000
0010
0001
0010
,
0100
0001
0100
0010
,
1000
0100
1000
0001
,
0100
0010
1000
0001
,
1000
0001
0010
0100
,
0001
1000
0100
0001
,
0100
0010
1000
0100
,
1000
0010
0001
0100
,
1000
0010
0001
0000
,
1001
1000
1001
1000
,
1001
0001
1001
0001
,
1001
0000
0000
0000
,
0110
0000
0000
0000
,
1000
0000
0100
0000
,
0010
0000
0001
0000
,
0100
0000
0100
0000
,
0010
0000
1000
0000
,
0001
0000
0100
0000
,
0010
0000
0001
0000
,
1000
0000
0100
0000
,
0010
0000
0100
0000
,
0001
0000
1000
0000
,
0001
0000
0010
0000
,
0100
0000
0010
0000
,
1000
0000
0100
0000
,
1000
0000
0010
0000
,
0100
0000
0001
0000
,
0100
0000
1000
0000
,
0100
0000
0000
0000
,
0100
0000
0001
0000
,
0100
0000
1000
0000
,
0100
0000
0010
0000
,
1000
0000
0001
0000
,
0100
0000
0010
0000
,
1000
0000
0001
0000
,
0010
0000
0100
0000
,
1000
0000
0001
0000
,
0010
0000
1000
0000
,
0100
0000
0001
0000
,
0100
0000
1000
0000
,
0100
0000
0001
0000
,
0010
0000
0100
0000
,
0001
0000
1000
0000
,
0100
0000
0010
0000
,
0001
0000
1000
0000
,
0001
0000
0010
0000
,
0100
0000
1000
0000
,
0100
0000
0001
0000
,
1000
0000
0010
0000
,
0001
0000
1000
0000
,
0001
0000
0100
0000
,
1000
0000
0001
0000
,
1000
0000
1000
0000
,
1000
0000
0100
0000
,
0001
0000
0010
0000
,
0100
0000
0100
0000
,
0010
0000
0100
0000
,
1000
0000
0010
0000
,
1000
0000
0010
0000
,
0100
0000
0010
0000
,
1000
0000
0001
0000
,
020M
0000
M000
0000
,
23M0
0000
0M00
0000
,
30M2
0000
M000
0000
,
0M23
0000
M000
0000
,
023M
0000
M000
0000
,
03M2
0000
0M00
0000
,
20M3
0000
0000
0000
,
320M
0000
00M0
0000
,
M320
0000
0M00
0000
,
M032
0000
00M0
0000
,
M203
0000
00M0
0000
,
230M
0000
00M0
0000
,
320M
0000
00M0
0000
,
230M
0000
0M00
0000
,
30M2
0000
0M00
0000
,
M023
0000
0000
0000
,
0200
0000
0000
0000
,
0000
0000
0000
0000
,
0330
0000
0000
0000
;
