#TITLE:Animal Minimal;
#SUBTITLE:Gurumin;
#ARTIST:Falcom Sound Team jdk;
#TITLETRANSLIT:;
#SUBTITLETRANSLIT:;
#ARTISTTRANSLIT:;
#CREDIT:;
#BANNER:Animal Minimal.png;
#BACKGROUND:Animal Minimal-bg.png;
#LYRICSPATH:;
#CDTITLE:ducky.png;
#MUSIC:Animal Minimal.mp3;
#OFFSET:-0.598;
#SAMPLESTART:37.440;
#SAMPLELENGTH:12.000;
#SELECTABLE:YES;
#BPMS:0.000=160.000,36.000=320.000,40.000=160.000,72.000=80.000,74.500=160.000,199.000=80.000,201.500=160.000,202.000=80.000,203.000=160.000,259.000=320.000,275.000=160.000,311.000=320.000,314.500=160.000;
#STOPS:36.000=0.188
,37.000=0.187
,38.000=0.094
,38.500=0.187
,39.500=0.094
,74.500=0.938
,201.500=0.187
,259.000=0.047
,259.250=0.094
,259.750=0.047
,260.000=0.047
,260.250=0.094
,260.750=0.047
,261.000=0.094
,261.500=0.047
,261.750=0.094
,262.250=0.047
,262.500=0.094
,263.000=0.047
,263.250=0.094
,263.750=0.047
,264.000=0.047
,264.250=0.094
,264.750=0.047
,265.000=0.094
,265.500=0.047
,265.750=0.094
,266.250=0.047
,266.500=0.094
,267.000=0.047
,267.250=0.094
,267.750=0.047
,268.000=0.047
,268.250=0.094
,268.750=0.047
,269.000=0.094
,269.500=0.047
,269.750=0.094
,270.250=0.047
,270.500=0.094
,271.000=0.047
,271.250=0.094
,271.750=0.047
,272.000=0.047
,272.250=0.094
,272.750=0.047
,273.000=0.094
,273.500=0.047
,273.750=0.094
,274.250=0.047
,274.500=0.094
,311.000=0.188
,312.000=0.187
,313.000=0.094
,313.500=0.187
,314.500=0.188
;
#BGCHANGES:;
// cache tags:
#FIRSTBEAT:0.000;
#LASTBEAT:315.688;
#SONGFILENAME:Songs/VGMP 2/Animal Minimal (Ducky)/Animal Minimal.sm;
#HASMUSIC:1;
#HASBANNER:1;
#MUSICLENGTH:123.224;
// end cache tags

//---------------dance-single - ----------------
#NOTES:
     dance-single:
     :
     Hard:
     12:
     1.000,1.000,1.000,0.641,0.848,696.000,174.000,79.000,131.000,0.000:

2000
0000
300M
0000
2000
0000
300M
0000
0020
1030
0020
1030
0200
0301
0200
0301
,
1000
0000
0001
0000
0110
0000
0110
0000
0001
0000
1000
0000
2002
0MM0
0000
3003
,
0110
0001
0010
0100
1000
0000
0001
0000
0110
0001
0010
0100
1000
0000
0001
0000
,
1010
0100
0001
1000
0010
0000
0100
0000
1010
0100
0001
1000
0020
0000
0130
0000
,
0011
1000
0001
0010
0100
0000
1000
0000
0011
1000
0001
0010
0200
0000
1300
0000
,
0101
0010
1000
0001
0100
0000
0010
0000
0101
0010
1000
0001
0100
0000
0010
0000
,
1001
0010
0100
1000
0001
0000
0100
0000
1001
0010
0100
1000
0001
0000
0100
0000
,
0011
1000
0100
0010
0001
0000
0100
0000
0011
1000
0100
0010
0002
0000
0103
0000
,
1010
0001
0010
0100
1000
0000
0001
0000
1010
0001
0010
0100
2000
0000
3001
0000
,
0110
0000
M00M
0000
0110
0000
M00M
0000
0110
M000
0M01
M000
0M00
M000
0M01
M000
,
0110
0000
1000
0110
0000
1000
0101
0000
0110
0000
0110
1000
0001
0000
0010
1000
,
0110
0000
1000
0110
0000
1000
0101
0000
0110
0000
0110
1000
0201
0000
0310
1000
,
0001
0000
0001
0000
1100
0000
0010
0000
0101
0000
0010
1000
0201
0000
0310
1000
,
0101
0000
0010
0000
1100
0000
0010
0000
0101
0000
0010
1000
0001
0000
0010
0001
,
0110
0000
0001
0110
0000
0001
1010
0000
0110
0000
0110
0001
1000
0000
0100
0001
,
0110
0000
0001
0110
0000
0001
1010
0000
0110
0000
0110
0001
1020
0000
0130
0001
,
1010
0000
1000
0000
0011
0000
0100
0000
1010
0000
0100
0001
1020
0000
0130
0001
,
1000
1001
0MM0
1100
00MM
1001
0MM0
0101
,
2002
0MM0
0MM0
0MM0
0MM0
0MM0
0MM0
0MM0
0MM0
0MM0
3MM3
0000
2000
00M0
3000
0000
,
00M0
000M
0000
M000
0200
0000
03M0
0000
M000
0000
000M
0000
0M20
0000
M030
0000
,
0M00
00M2
M003
0M00
000M
00M0
2M00
30M0
,
200M
0000
30M0
0000
020M
0300
M200
0300
000M
0000
0M20
0000
0032
M000
0000
0M00
,
0000
00M0
0000
0M00
0000
M000
0000
00M0
0000
0M00
0000
0003
2010
0000
300M
0000
,
0M00
M010
020M
M300
0010
0M00
M020
0030
,
001M
M002
0M13
M000
0M00
000M
2M10
300M
,
2M00
0000
301M
0000
020M
0300
M200
0300
000M
0000
M210
0000
M302
0000
0M00
0000
,
M010
0000
0M00
0000
M010
0000
0M00
0000
M000
0000
00M0
0003
2001
0000
3000
0000
,
0011
0000
1200
0300
1001
0000
0120
0030
,
1010
0000
0002
0003
1100
0000
0000
0000
0011
0000
0000
0000
2001
0000
3000
0000
,
2010
0000
3000
0000
0201
0300
0200
0300
1001
0000
0020
0030
0102
0000
0000
0000
,
1MM0
0000
0000
0000
M1M0
0000
0000
0000
MM10
0000
0000
0003
2001
0000
3000
0000
,
0011
0000
1200
0300
1001
0000
0120
0030
,
1010
0000
0002
0003
1100
0000
0000
0000
0011
0000
0000
0000
2001
0000
3000
0000
,
2010
0000
3000
0000
0201
0300
0200
0300
1001
0000
0020
0030
0102
0000
1000
0M00
,
00M0
0000
1000
00M0
0M00
0000
1000
0M00
00M0
0000
1000
0003
0110
0000
0001
1010
,
0000
1000
0101
0000
1010
0000
1010
0000
1001
0000
0010
0000
0110
0000
0001
1010
,
0000
1000
0101
0000
1010
0000
1010
0000
1001
0000
0010
0000
0110
0000
0001
0010
,
0100
0000
1000
0010
0100
0000
0010
1000
0201
0000
1300
0000
0110
0000
0001
0010
,
0100
0000
0010
1000
0001
0000
0010
1000
0201
0000
0310
0000
0110
0000
1000
0101
,
0000
0001
1010
0000
0101
0000
0101
0000
1001
0000
0100
0000
0110
0000
1000
0101
,
0000
0001
1010
0000
0101
0000
0101
0000
1001
0000
0100
0000
0110
0000
1000
0100
,
0010
0000
0100
0001
1000
0000
0100
0001
1020
0000
0130
0000
0011
0000
1000
0001
,
0100
0000
0001
0010
0100
0000
0001
0100
1020
0000
0130
0000
1001
0100
0010
0001
,
0100
0010
1000
0100
0010
0001
0100
0010
1000
0001
0000
0001
0110
0000
1000
0000
,
0110
0001
1100
0010
0101
0010
1001
0100
,
0011
1000
0110
0001
1200
0310
1001
0100
,
0011
0000
1000
0000
0110
0000
0001
0000
1200
0000
0310
0000
1000
0100
0010
0001
,
0100
0010
1000
0100
0010
0001
0100
0001
0010
0100
0000
0100
1001
0000
0010
0000
,
0101
0010
1100
0010
0102
0013
1100
0001
,
1010
0100
0011
1000
0102
1003
0020
0000
,
0000
0000
0000
0000
0000
0000
0000
0000
0000
0000
0000
0000
0030
0001
1000
0000
0000
0000
1000
0000
1000
0000
0000
0000
0001
0000
0000
0000
0100
0000
0000
0000
,
0001
0100
0001
0100
1001
0100
1000
0100
,
1000
0100
1000
0100
1010
0100
0010
0100
,
0010
0100
0010
0100
0011
1000
0001
1000
,
0001
1000
0001
1000
0101
0010
0100
0010
,
0100
0010
0100
0010
1100
0001
1000
0001
,
1000
0001
1000
0001
1010
0100
0010
0100
,
0010
0000
0100
0000
0010
0000
0100
0000
1001
0000
0100
0000
1001
0000
0100
0010
,
0001
0000
0100
1000
0001
0000
0100
0010
1001
0000
0100
0001
1000
0000
0100
0010
,
1000
0000
0100
0001
1000
0000
0100
0001
1010
0000
0100
1000
0010
0000
0100
0001
,
0010
0000
0100
1000
0010
0000
0100
1000
0011
0000
1000
0100
0001
0000
1000
0010
,
0001
0000
1000
0100
0001
0000
1000
0010
0101
0000
0010
1000
0100
0000
0010
0001
,
0100
0000
0010
1000
0100
0000
0010
0001
1100
0000
0001
0010
1000
0000
0001
0100
,
1000
0000
0001
0010
1000
0000
0001
0100
1010
0000
0100
0001
0010
0000
0100
1000
,
0010
0000
0100
0001
0010
0000
0100
1000
0110
0000
1000
0000
0001
0100
0000
0001
,
0100
0001
0000
0100
0001
0000
0100
0001
0000
0100
0001
0000
1000
0100
0000
1000
,
0100
1000
0000
0100
1000
0000
0100
1000
0000
0100
1000
0000
0010
0100
0000
0010
,
0100
0010
0000
0100
0010
0000
0100
0010
0000
0100
0010
0000
0001
0100
0000
0001
,
0100
0001
0000
0100
0001
0000
0100
0001
0000
0100
0001
0000
2000
0000
300M
0000
,
2000
0000
300M
0000
0020
1030
0020
1030
0200
0301
0200
0301
1000
0000
0001
0000
,
0110
0000
0110
0000
0001
0000
1000
0000
2002
0MM0
0000
3003
0110
0001
0010
0100
,
1000
0000
0001
0000
0110
0001
0010
0100
1000
0000
0001
0000
1010
0100
0001
1000
,
0010
0000
0100
0000
1010
0100
0001
1000
0020
0000
0130
0000
0011
1000
0001
0010
,
0100
0000
1000
0000
0011
1000
0001
0010
0200
0000
1300
0000
0101
0010
1000
0001
,
0100
0000
0010
0000
0101
0010
1000
0001
0100
0000
0010
0000
1001
0010
0100
1000
,
0001
0000
0100
0000
1001
0010
0100
1000
0001
0000
0100
0000
0011
1000
0100
0010
,
0001
0000
0100
0000
0011
1000
0100
0010
0002
0000
0103
0000
1010
0100
0010
0001
,
1000
0000
0001
0000
1010
0100
0010
0001
2000
0000
3001
0000
0110
0000
M00M
0000
,
0110
0000
0000
0000
0000
0000
0000
0000
0000
0000
0000
0000
0000
0000
0000
0000
0000
0000
0000
0000
0000
0000
0000
0000
0000
0000
0000
0000
0000
0000
M00M
0000
0000
0000
0000
0000
0000
0000
0000
0000
0000
0000
0000
0000
0000
0000
0000
0000
0110
0000
0000
0000
0000
0000
0000
0000
0000
0000
0000
0000
0000
0000
0000
0000
0000
0000
0000
0000
0000
0000
0000
0000
0001
0000
M000
0000
0000
0000
0000
0000
0000
0000
0000
0000
0000
0000
0000
0000
0000
00M0
0000
0000
0000
0000
0000
0000
0000
0000
0000
0000
0000
0000
0000
M000
0000
0000
0000
0000
0000
0000
0000
0000
0000
0000
0000
0000
0000
0000
0M00
0000
0001
0000
0000
0000
0000
0000
0000
0000
0000
0000
0000
0000
0000
M000
0000
0000
0000
0000
0000
0000
0000
0000
0000
0000
0000
0000
0000
0000
00M0
0000
0000
0000
0000
0000
0000
0000
0000
0000
0000
0000
0000
0000
M000
0000
0000
0000
0000
0000
0000
0000
0000
0000
0000
0000
0000
0000
0000
MMMM
0000
0000
0000
0000
0000
0000
0000
0000
0000
0000
0000
0000
0000
0000
;

//---------------dance-single - ----------------
#NOTES:
     dance-single:
     :
     Challenge:
     13:
     1.000,1.000,1.000,0.641,0.872,696.000,371.000,79.000,166.000,70.000:


2000
0000
300M
0000
2000
0000
300M
0000
0020
1030
0020
1030
0200
0301
0200
0301
,
1000
0000
0001
0000
0110
0000
0110
0000
0001
0000
1000
0000
2102
00M0
0000
3003
,
0110
0001
0010
0100
1010
0000
0101
0000
0110
0001
0010
0100
1010
0000
0101
0000
,
1010
0100
0001
1000
0011
0000
1100
0000
1010
0100
0001
1000
0120
0000
1130
0000
,
0011
1000
0001
0010
0101
0000
1010
0000
0011
1000
0001
0010
0201
0000
1310
0000
,
0101
0010
1000
0001
1100
0000
0011
0000
0101
0010
1000
0001
1100
0000
0011
0000
,
1001
0010
0100
1000
0101
0000
0110
0000
1001
0010
0100
1000
0101
0000
1100
0000
,
0011
1000
0100
0010
1001
0000
0110
0000
0011
1000
0100
0010
1002
0000
0113
0000
,
1010
0001
0010
0100
1010
0000
0101
0000
1010
0001
0010
0100
2001
0000
3011
0000
,
1011
0M00
0M00
0M00
1011
0M00
0M00
0M00
1011
0000
0M01
M000
00M0
M000
0M01
M000
,
0110
0000
1000
0110
0000
1000
0101
0000
0110
0000
0110
1000
0101
0000
0010
1000
,
0110
0000
1000
0110
0000
1000
0101
0000
0110
0000
0110
1000
0201
0000
0310
1000
,
0101
0000
0001
0000
1100
0000
0010
0000
0101
0000
0010
1000
0201
0000
0310
1000
,
0101
0000
0010
0000
1100
0000
0010
0000
0101
0000
0010
1000
0101
0000
0010
0001
,
0110
0000
0001
0110
0000
0001
1010
0000
0110
0000
0110
0001
1010
0000
0100
0001
,
0110
0000
0001
0110
0000
0001
1010
0000
0110
0000
0110
0001
1020
0000
0130
0001
,
1010
0000
1000
0000
0011
0000
0100
0000
1010
0000
0100
0001
1020
0000
0130
0001
,
1100
1011
0M00
1101
00M0
1110
000M
0111
,
2002
0MM0
0MM0
0MM0
0MM0
0MM0
0MM0
0MM0
0MM0
0MM0
3MM3
0000
2000
00M0
3000
0000
,
00M0
000M
0000
M000
0200
0000
03M0
0000
M000
0000
000M
0000
0M20
0000
M030
0000
,
0M00
00M2
M003
0M00
000M
00M0
2M00
30M0
,
200M
0000
30M0
0000
020M
0300
M200
0300
000M
0000
0M20
0000
0032
M000
0000
0M00
,
0000
00M0
0000
0M00
0000
M000
0000
00M0
0000
0M00
0000
0003
2010
0000
300M
0000
,
0M00
M010
020M
M300
0010
0M00
M020
0030
,
001M
M002
0M13
M000
0M00
000M
2M10
300M
,
2M00
0000
301M
0000
020M
0300
M200
0300
000M
0000
M210
0000
M302
0000
0M00
0000
,
M010
0000
0M00
0000
M010
0000
0M00
0000
M000
0000
00M0
0003
2101
0000
3000
0000
,
0011
0000
1201
0300
1001
0000
1120
0030
,
1010
0000
0002
0003
1100
0000
0000
0000
0011
0000
0000
0000
2101
0000
3000
0000
,
2011
0000
3000
0000
0211
0300
0200
0300
1001
0000
0020
0030
1102
0000
0000
0000
,
11M0
0000
0000
0000
M110
0000
0000
0000
1M10
0000
0000
0003
2101
0000
3000
0000
,
0011
0000
1210
0300
1001
0000
1120
0030
,
1010
0000
0002
0003
1100
0000
0000
0000
0011
0000
0000
0000
2101
0000
3000
0000
,
2011
0000
3000
0000
1201
0300
0200
0300
1001
0000
0020
0030
1102
0000
1010
0M00
,
00M0
0000
1100
00M0
0M00
0000
1010
0M00
00M0
0000
1100
0003
0110
0000
0001
1010
,
0000
1000
0101
0000
1010
0000
1010
0000
1101
0000
0010
0000
0110
0000
0001
1010
,
0000
1000
0101
0000
1010
0000
1010
0000
1101
0000
0010
0000
0110
0000
0001
0010
,
0101
0000
1000
0010
0101
0000
0010
1000
0211
0000
1300
0000
0110
0000
0001
0010
,
1100
0000
0010
1000
0101
0000
0010
1000
0211
0000
0310
0000
0110
0000
1000
0101
,
0000
0001
1010
0000
0101
0000
0101
0000
1011
0000
0100
0000
0110
0000
1000
0101
,
0000
0001
1010
0000
0101
0000
0101
0000
1011
0000
0100
0000
0110
0000
1000
0100
,
0011
0000
0100
0001
1100
0000
0010
0100
1021
0000
0130
0000
0011
0000
1000
0001
,
0110
0000
0001
0010
1100
0000
0001
0100
1021
0000
0130
0000
1001
0100
1010
0100
,
0011
0100
1010
0100
1001
0010
1100
0010
1101
0010
0000
0010
1001
0000
0100
0000
,
1010
0001
1100
0010
1101
0010
1001
0100
,
0011
1000
0110
0001
1201
0310
1001
0100
,
0011
0000
1000
0000
0110
0000
0001
0000
1201
0000
0310
0000
1001
0100
0011
0100
,
1001
0100
1010
0100
1001
0010
0101
0010
1101
0010
0000
0110
1001
0000
0010
0000
,
0101
0010
1100
0010
1102
0013
1100
0001
,
1010
0100
0011
1000
1102
1003
0020
0000
,
0000
0000
0000
0000
0000
0000
0000
0000
0000
0000
0000
0000
0030
0001
1000
0000
0000
0000
1000
0000
1000
0000
0000
0000
0011
0000
0000
0000
1100
0000
0000
0000
,
1010
1001
0101
0110
1011
1100
1010
1001
,
0101
0110
1001
0110
1011
1100
1010
1001
,
0101
0110
1001
0110
1011
1100
1010
1001
,
0101
0110
1001
0110
1011
1100
1010
1001
,
0101
0110
1001
0110
1011
1100
1010
1001
,
0101
0110
1001
0110
1011
1100
1010
1001
,
0101
0000
0110
0000
1001
0000
0110
0000
1011
0000
0110
0000
1001
0000
1100
0010
,
1001
0000
0110
1000
0011
0000
1100
0010
1101
0000
0110
0001
1010
0000
1100
0010
,
1001
0000
0110
0001
1010
0000
1100
0001
1110
0000
0101
1000
0011
0000
1100
0001
,
0110
0000
0101
1000
0110
0000
0110
1000
0111
0000
1001
0100
0011
0000
1100
0010
,
0101
0000
1001
0100
0011
0000
1100
0010
1101
0000
0110
1000
0101
0000
1010
0001
,
1100
0000
0011
1000
0101
0000
1010
0001
1110
0000
0101
0010
1100
0000
0011
0100
,
1010
0000
0101
0010
1001
0000
0011
0100
1011
0000
1100
0001
1010
0000
0101
1000
,
0011
0000
1100
0001
1010
0000
0101
1000
0111
0000
1000
0000
0110
0110
M00M
0110
,
0110
0110
M00M
0110
0110
M00M
0110
0110
M00M
0110
0110
0000
100M
100M
0000
100M
,
100M
100M
0000
100M
100M
0000
100M
100M
0000
100M
100M
0000
0M10
0M10
0000
0M10
,
0M10
0M10
0000
0M10
0M10
0000
0M10
0M10
0000
0M10
0M10
0000
M001
M001
0000
M001
,
M001
M001
0000
M001
M001
0000
M001
M001
0000
M001
M001
0000
0200
0000
030M
0000
,
0200
0000
030M
0000
0002
0103
0002
0103
2000
3010
2000
3010
0100
0000
0010
0000
,
1001
0000
1001
0000
0010
0000
1000
0000
2102
00M0
0000
3003
0110
0001
0010
0100
,
1010
0000
0101
0000
0110
0001
0010
0100
1010
0000
0101
0000
1010
0100
0001
1000
,
0011
0000
1100
0000
1010
0100
0001
1000
0021
0000
1130
0000
0011
1000
0001
0010
,
1100
0000
1001
0000
0011
1000
0001
0010
0201
0000
1310
0000
0101
0010
1000
0001
,
1100
0000
0011
0000
0101
0010
1000
0001
0110
0000
1010
0000
1001
0010
0100
1000
,
0011
0000
1100
0000
1001
0010
0100
1000
0101
0000
0110
0000
0011
1000
0100
0010
,
1001
0000
0110
0000
0011
1000
0100
0010
1002
0000
0113
0000
1010
0100
0010
0001
,
1100
0000
0011
0000
1010
0100
0010
0001
2100
0000
3011
0000
1011
0M00
0M00
0M00
,
1011
0000
0000
0000
0000
0000
0000
0000
0000
0000
0000
0000
0M00
0000
0000
0000
0000
0000
0000
0000
0000
0000
0000
0000
0M00
0000
0000
0000
0000
0000
0000
0000
0000
0000
0000
0000
0M00
0000
0000
0000
0000
0000
0000
0000
0000
0000
0000
0000
1011
0000
0000
0000
0000
0000
0000
0000
0000
0000
0000
0000
0000
0000
0000
0000
0000
0000
0000
0000
0000
0000
0000
0000
0001
0000
0000
0000
0000
0000
0000
0000
0000
0000
0000
0000
0000
0000
0000
0000
0000
0M00
0000
0000
0000
0000
0000
0000
0000
0000
0000
0000
0000
0000
0000
M000
0000
0000
0000
0000
0000
0000
0000
0000
0000
0000
0000
0000
0000
0000
0M00
0000
0001
0000
0000
0000
0000
0000
0000
0000
0000
0000
0000
0000
0000
M000
0000
0000
0000
0000
0000
0000
0000
0000
0000
0000
0000
0000
0000
0000
00M0
0000
0000
0000
0000
0000
0000
0000
0000
0000
0000
0000
0000
0000
M000
0000
0000
0000
0000
0000
0000
0000
0000
0000
0000
0000
0000
0000
0000
MMMM
0000
0000
0000
0000
0000
0000
0000
0000
0000
0000
0000
0000
0000
0000
;
