#TITLE:Friday;
#SUBTITLE:~Splittercore Remix~;
#ARTIST:Aoreo vs Kill!k;
#TITLETRANSLIT:;
#SUBTITLETRANSLIT:;
#ARTISTTRANSLIT:;
#CREDIT:Aoreo;
#BANNER:Bn-Friday.png;
#BACKGROUND:Bg-Friday.png;
#LYRICSPATH:;
#CDTITLE:;
#MUSIC:Friday ~Splittercore Remix~.ogg;
#OFFSET:-0.005;
#SAMPLESTART:61.018;
#SAMPLELENGTH:12.000;
#SELECTABLE:YES;
#BPMS:0.000=240.000;
#STOPS:;
#BGCHANGES:;
// cache tags:
#FIRSTBEAT:0.000;
#LASTBEAT:583.000;
#SONGFILENAME:Songs/SPEEEDCOOOORE/Friday ~Splittercore Remix~ - [Aoreo]/Friday ~Splittercore Remix~.sm;
#HASMUSIC:1;
#HASBANNER:1;
#MUSICLENGTH:150.047;
// end cache tags

//---------------dance-single - J. Nero----------------
#NOTES:
     dance-single:
     J. Nero:
     Challenge:
     17:
     1.000,1.000,0.460,0.387,1.000,1286.000,69.000,58.000,34.000,0.000:

1MM1
0000
0001
0000
0100
0000
0010
1000
,
0100
0010
0001
0000
0100
0000
0010
0000
,
1M1M
0000
1000
0000
0010
0100
0000
0100
,
0001
0010
0100
0010
,
MM11
0001
0100
0010
,
1000
0000
0100
0000
0010
0000
0001
1MM0
,
1MM1
0000
M1M1
0000
,
1M1M
0000
M11M
0000
,
1MM1
0001
1000
0000
0010
0000
0100
0001
,
0010
0100
1000
0000
0010
0000
0100
0000
,
M1M1
0000
0001
0000
1000
0100
0000
0100
,
0010
0001
0100
0010
,
1M1M
1000
0001
0010
,
0100
1000
0010
M11M
,
1MM1
0000
M1M1
0000
,
0100
0000
0001
0000
1000
0000
0100
0000
1000
0100
1000
0100
0010
0001
0010
0100
,
1000
1000
0001
1001
,
0000
1000
1010
0000
,
0001
0000
1000
0000
0001
1000
0001
1000
0001
1000
0001
1000
0001
1000
0001
1000
,
0001
0000
1000
0000
0100
0000
1000
0010
1000
0000
0010
0000
0100
0010
0100
0000
,
0001
0010
0001
0000
1000
0000
0010
0100
0010
0000
0100
0000
0001
1000
0001
0010
,
0100
0000
1000
0000
0010
0000
0100
0001
0100
0000
0010
0000
1000
0001
1000
0000
,
0001
0100
0001
0000
0100
0000
0010
1000
0010
0000
1000
0000
0100
0010
0001
1000
,
0001
0000
0100
0000
0010
0000
1000
0001
1000
0000
0001
0000
0100
0001
0100
0000
,
0010
1000
0010
0000
1000
0000
0100
0010
0100
0000
0010
0000
0001
0100
0001
1000
,
0010
0100
0001
1000
0100
0010
0100
1000
,
0002
0203
0320
2030
,
3010
0000
1000
0000
0001
0000
0100
0001
0100
0000
0010
0000
1000
0100
1000
0000
,
0001
1000
0001
0000
0010
0000
0100
1000
0100
0000
1000
0000
0010
0100
0010
1000
,
0001
0000
0010
0000
0100
0000
1000
0001
1000
0000
0010
0000
0100
0001
0100
0000
,
0001
1000
0001
0000
1000
0000
0100
0010
0100
0000
0010
0000
0001
0100
0001
1000
,
0010
0000
1000
0000
0100
0000
1000
0001
0100
0000
0010
0000
0100
0010
0100
0000
,
0001
1000
0001
0000
0010
0000
0100
0010
0100
0000
1000
0000
0010
1000
0010
0100
,
0001
0100
0110
0010
,
0000
1000
1001
0000
,
0001
1000
0100
0010
0100
1000
0001
0100
,
0010
0000
0100
0000
0001
1000
0001
1000
0001
0000
0010
0000
0100
0000
1000
0000
,
0010
0100
0001
0010
0100
1000
0100
1000
,
0010
0000
0100
0000
0010
1000
0010
1000
0010
0000
0100
0000
0001
0000
0010
0000
,
0100
1000
0010
0100
0001
1000
0001
0010
,
0100
0000
1000
0000
0010
0100
0010
0100
0010
0000
0100
0000
0001
0000
1000
0000
,
1100
0100
1000
0010
0110
0100
0001
1000
,
1001
0101
1010
1100
,
0100
0010
0001
0100
0001
0010
0100
1000
,
0010
0000
0100
0000
0001
1000
0001
1000
0001
0000
0010
0000
0100
0000
1000
0000
,
0010
0100
0001
1000
0100
0010
0100
1000
,
0001
0000
0100
0000
0010
0100
0010
0100
0010
0000
0100
0000
0001
0000
1000
0000
,
0100
1000
0010
0100
0001
0010
0100
0010
,
0001
0000
1000
0000
0001
0100
0001
0100
0001
0000
0100
0000
0010
0000
1000
0000
,
1100
0100
1000
0010
0110
0100
0001
1000
,
2002
3003
2020
3030
0220
0330
2002
3003
,
0001
0010
0100
1000
0010
0100
0001
1000
,
2200
3300
2020
3030
0220
0330
0202
0303
,
0001
1000
0100
0010
0100
1000
0001
0100
,
0220
0330
2002
3003
2200
3300
0220
0330
,
0010
0001
0100
0010
1000
0001
0100
0010
,
2020
3030
2002
3003
0022
0033
0220
0330
,
1100
1010
0110
0101
,
1001
1010
0110
1001
,
1000
0001
0010
0100
1000
0010
0100
0001
,
1000
0001
1000
0001
1000
0001
1000
0001
1000
0100
0010
0001
1000
0010
0100
0001
,
2000
3000
0000
0000
2002
3003
0000
0000
,
2002
3003
0000
0000
2002
3003
0000
0000
,
1000
0010
1000
0010
0100
0001
1000
0001
0010
0001
1000
0010
0100
0001
0100
0001
,
1000
0010
1000
0001
0010
0001
1000
0001
1000
0010
0100
0001
1000
0010
0100
0001
,
1000
0001
1000
0010
0100
0001
1000
0001
1000
0100
0010
0001
1000
0001
0010
0100
,
1000
0001
1000
0010
1000
0001
0010
0100
1000
0001
0100
0010
1000
0010
0100
0001
,
1000
0001
1000
0010
0100
0010
1000
0001
0010
0001
1000
0010
0100
0010
0100
0001
,
1000
0001
0100
0001
1000
0100
1000
0001
0010
0100
1000
0001
0010
0001
1000
0001
,
4000
3000
0004
0003
,
4000
3000
0040
0030
,
1000
0001
0010
0100
1000
0001
0010
0100
1000
0001
0100
0010
1000
0010
0100
0001
,
1000
0001
1000
0100
0010
0001
1000
0100
1000
0001
0010
0100
1000
0001
0100
0001
,
1000
0100
1000
0100
0010
0001
1000
0001
0010
0100
1000
0001
1000
0100
0010
0001
,
4000
3040
0430
0304
0043
0430
4300
3040
,
0130
0001
0100
0010
1000
0001
0010
0100
4000
0000
0000
0000
3040
0000
0000
0000
,
0130
0000
0001
0000
1000
0000
0001
0000
0010
0000
0100
0000
1000
0010
0100
0001
,
1000
0100
0010
0001
1000
0100
0010
0001
1000
0010
0100
0001
1000
0010
0100
0001
,
1000
0001
1000
0001
1000
0001
1000
0001
1000
0000
0001
0000
0100
0010
0100
0000
,
0010
1000
0010
0100
0001
0100
0010
1000
0001
0100
0001
1000
0100
1000
0100
0010
,
0001
0010
0100
1000
0001
0100
0001
1000
0010
0100
0001
1000
0100
0010
0001
1000
,
0001
0100
0001
0100
0010
1000
0001
1000
0100
0010
0100
0010
0001
1000
0001
0100
,
0010
1000
0001
0100
0010
0100
0001
1000
0010
0100
0001
1000
0001
0010
0100
1000
,
0100
0010
0001
0010
0100
1000
0001
0100
0001
0100
0010
1000
0001
0100
0001
1000
,
0100
0010
0001
0010
0100
1000
0001
0100
0010
1000
0010
1000
0001
1000
0100
0010
,
0004
0003
0400
0300
,
0040
0030
4000
3000
,
0001
0100
0001
0100
0001
0100
0001
0100
0001
0100
0001
0100
0002
0000
0000
0000
,
1003
0100
1000
0100
1000
0100
1000
0100
1000
0100
1000
0100
2000
0000
0000
0000
,
3001
0100
0001
0100
0010
1000
0010
1000
0001
0010
0100
1000
0100
0010
0001
1000
,
0001
1000
0010
0100
0001
0000
1001
0000
,
1000
0010
1000
0000
0010
0000
0100
0000
0001
0100
0001
0000
1000
0000
0001
1000
,
0001
0100
0010
1000
0001
1000
0001
0100
0010
1000
0001
0010
0100
1000
0001
1000
,
0001
0010
0100
1000
0010
0100
0001
1000
,
1001
0101
1010
1100
,
0110
0010
0100
1100
,
1000
0000
0001
0000
1000
0001
1000
0001
1000
0001
1000
0001
1000
0001
1000
0001
,
1000
0000
0000
0000
0001
0100
0001
0100
0001
0000
0000
0000
0100
0010
0100
0010
,
0100
0000
0000
0000
0010
0000
1000
0000
0100
1000
0100
1000
0100
1000
0100
0010
,
0004
0000
0003
0000
0400
0000
0300
0000
0040
0000
0030
0000
1000
0010
0100
0010
,
1000
0001
0010
0100
1000
0010
0100
0001
1000
0010
1000
0010
0400
0000
0000
0000
,
0304
0000
0000
0000
1003
0100
1000
0100
1000
0000
0001
0000
0100
0001
0100
0001
,
0100
0000
0001
0000
0010
0000
0100
0000
1000
0100
1000
0100
0010
0001
0010
0001
,
4000
0000
0000
0000
3001
0100
0001
0100
0001
0000
1000
0000
0001
1000
0001
1000
,
0001
0000
0000
0000
1000
0000
0001
0000
0100
0001
0100
0001
0010
0100
1000
0010
,
0100
0001
0100
0001
0100
0000
0001
0000
0010
0100
0010
0100
0010
0000
0100
1000
,
0100
1000
0100
0000
1000
0000
0001
0000
0100
0010
0100
0010
0100
0000
0010
0000
,
4000
0000
3000
0000
0040
0000
0030
0000
0400
0000
0300
0000
0001
0100
0001
1000
,
0010
1000
0010
0100
0001
0010
0100
1000
0001
1000
0001
0100
0040
0000
0000
0000
,
0130
0001
0100
0001
0100
0000
0001
0000
1000
0001
1000
0001
1000
0000
0001
0100
,
0001
0100
0001
0000
1000
0000
0010
0000
1000
0100
1000
0100
0010
0001
0010
0001
,
1000
0001
1000
0001
1000
0000
0001
0000
0100
0001
0100
0001
0100
0000
0001
0100
,
0001
0100
0001
0000
0010
0000
0100
0000
1000
0100
1000
0000
0001
1000
0001
1000
,
0001
0000
1000
0000
0010
0000
0100
0000
0001
0000
0010
0000
0100
0000
1000
0100
,
1000
0000
0010
0000
0100
0000
0010
0000
1000
0000
0001
0010
0001
0010
0100
1000
,
0001
0000
0100
0000
0010
0000
1000
0000
0001
0000
0010
0000
0100
0000
1000
0010
,
1000
0000
0010
0000
0100
0000
0001
0000
1000
0001
1000
0001
0010
0001
0010
0100
,
1000
0000
0100
0000
0010
0000
0100
0000
1000
0000
0001
0000
0100
0000
0010
0100
,
0010
0000
1000
0000
0001
0000
1000
0000
0001
0100
0001
0100
0010
1000
0010
0100
,
0001
0000
0010
0000
0100
0000
1000
0000
0100
0000
0010
0000
0100
0000
1000
0010
,
1000
0000
0010
0000
0100
0000
0001
0000
1000
0001
1000
0010
0100
0001
1000
0100
,
0020
0031
0200
0310
,
1000
0010
0100
0001
2000
0000
3100
0000
,
0000
0000
1000
0010
1000
0000
0010
0000
0100
0001
0100
0001
1000
0000
0010
0100
,
0010
0000
1000
0000
0001
1000
0001
1000
0001
1000
0001
1000
0001
1000
0001
1000
,
0002
0003
0000
0000
,
2002
3003
0220
0330
,
1000
0010
0100
0001
1000
0100
0010
0100
,
1000
0001
1000
0010
0100
0001
1000
0010
,
0100
0001
1000
0100
0010
0001
0100
0001
,
0100
0001
0100
0000
0010
1000
0010
0000
1000
0100
1000
0000
0100
0010
0100
0000
,
0010
0001
0100
0001
1000
0010
0100
0001
,
0010
0100
1000
0010
0100
0001
1000
0010
,
0100
0001
1000
0100
0010
0100
1000
0001
,
0100
0001
0100
0010
1000
0001
0010
0001
1000
0010
1000
0001
0100
0001
1000
0010
,
0100
0010
0100
0001
1000
0100
0010
0100
,
1000
0001
0100
0010
0100
0001
0010
0100
,
0010
0001
1000
0010
0100
0001
1000
0010
,
0100
0001
0100
0000
0001
1000
0001
0000
1000
0100
1000
0000
0100
0010
0100
0000
,
0010
0001
1000
0010
0100
0001
1000
0010
,
0100
0001
1000
0100
0010
0100
1000
0001
,
0100
0001
0100
0010
1000
0100
0010
0001
,
1000
0000
0001
0000
0100
0001
0100
0000
0010
0000
1000
0100
1000
0000
0001
0100
,
M0M2
0003
0000
0000
,
2MM2
3003
22MM
3300
,
1010
0010
0100
0001
;
