#TITLE:Gust Of Wind;
#SUBTITLE:Feels The Arrow;
#ARTIST:Pharrel Williams (ft. Daft Punk);
#TITLETRANSLIT:;
#SUBTITLETRANSLIT:;
#ARTISTTRANSLIT:;
#CREDIT:Ov3rHell3XoduZ;
#BANNER:../bn.png;
#BACKGROUND:../bg.png;
#LYRICSPATH:;
#CDTITLE:;
#MUSIC:Gust Of Wind.ogg;
#OFFSET:1.080;
#SAMPLESTART:45.095;
#SAMPLELENGTH:11.860;
#SELECTABLE:YES;
#BPMS:0.000=200.040;
#STOPS:;
#BGCHANGES:;
// cache tags:
#FIRSTBEAT:4.000;
#LASTBEAT:908.000;
#SONGFILENAME:Songs/EXoduz' Feels The Arrow/Gust Of Wind - [Ov3rHell3XoduZ]/sm.sm;
#HASMUSIC:1;
#HASBANNER:1;
#MUSICLENGTH:284.010;
// end cache tags

//---------------dance-single - Ov3rHell3XoduZ----------------
#NOTES:
     dance-single:
     Ov3rHell3XoduZ:
     Challenge:
     10:
     0.866,1.000,0.243,1.000,0.000,957.000,69.000,577.000,0.000,0.000:

0000
0000
0000
0000
,
2000
0000
0000
3010
0200
0000
0000
0301
,
0020
0000
0000
0130
2000
0000
0000
3001
,
0200
0000
0000
0310
1000
0100
0010
0001
,
2000
3001
0100
0001
0020
0130
1000
0001
,
2000
3100
1000
0010
0200
0301
1000
0001
,
0020
0031
1000
0100
0020
0130
1000
0001
,
0200
0301
1000
0010
0200
0310
1000
0001
,
0020
0130
1000
0001
0200
0301
1000
0100
,
2000
3100
0010
0001
2000
3010
0100
0001
,
2000
3001
0010
0001
2000
3100
0010
0100
,
2000
3001
0100
0001
0200
0310
1000
0100
,
0020
0031
1000
0001
2000
3100
1000
0001
,
0200
0301
0010
0001
0020
0130
1000
0100
,
2000
3010
0100
0010
2000
3001
0100
0001
,
0020
0031
0010
0100
2000
3001
0100
0001
,
2000
3100
0010
0100
2000
3010
0100
0001
,
2000
3001
0010
0001
0020
0130
1000
0010
,
0200
0310
1000
0100
0020
0031
1000
0001
,
0100
0010
2020
3030
,
1100
0000
0100
0010
0001
0000
1000
0000
,
1001
0000
1000
0100
0010
0000
0001
0100
,
0010
1000
0100
0010
0001
0000
1000
0000
,
2200
3300
0220
0330
,
0011
0000
0001
0100
0001
0000
1000
0000
,
1100
0000
1000
0010
0100
0000
0001
0000
,
0022
0033
0110
1100
,
1100
0000
1000
0001
0100
0000
0010
0000
,
1000
0100
0010
0001
2000
0000
0000
0000
,
3010
0100
0001
0020
0000
0000
0000
0000
,
0130
1000
0001
0100
0101
0001
0010
0100
,
2000
3001
0202
0303
,
0110
0000
0010
0000
1010
1000
0001
0100
,
0001
0000
0010
0000
0110
0000
0100
1000
,
0010
0000
0100
0000
0001
0000
1000
0100
,
0010
0000
0001
0000
0101
0000
0100
0010
,
0000
1000
0100
0010
0001
0000
1000
0001
,
1000
0000
0010
0000
1010
0000
0100
1000
,
0010
0100
0001
1000
0000
0000
0010
1000
,
0010
0000
0100
0001
0010
0000
0100
1000
,
0001
0000
1000
0100
1000
0000
0001
0100
,
0001
0010
0100
0000
1100
0000
1000
0000
,
1010
0000
0010
0000
0110
0000
0100
0001
,
1000
0000
0100
0010
0001
0000
1000
0100
,
0000
0010
0001
1000
0001
0000
0100
0010
,
2000
3000
0002
0003
0200
0300
0002
0003
2000
3000
0200
0300
2000
3000
0002
0003
,
0200
0300
0002
0003
2000
3000
0020
0030
2000
3000
0002
0003
0200
0300
0002
0003
,
2000
3000
0200
0300
2000
3000
0002
0003
0020
0030
0002
0003
2000
3000
0020
0030
,
2000
3000
0002
0003
0200
0300
0002
0003
2000
3000
0200
0300
2000
3000
0002
0003
,
0020
0030
0002
0003
2000
3000
0200
0300
2000
3000
0002
0003
0200
0300
0002
0003
,
2000
0000
3100
0010
0001
0000
1000
0400
,
0000
0000
0000
0000
0000
0340
0000
0034
,
0000
0000
0000
4003
0000
0000
0000
3400
,
0000
0340
0034
0000
4003
0000
0000
0000
,
3040
0000
0430
0304
4003
0000
3400
0340
,
0000
0000
0000
0000
0000
0430
0000
4300
,
0000
0000
0000
3004
0000
0000
0000
0403
,
0000
0340
4030
0000
3004
0000
0000
0000
,
0403
0000
0340
4030
,
0000
0000
3004
0000
0000
0403
0340
4030
,
0000
0000
0000
3004
0000
0000
4003
3400
,
0000
0000
0340
0000
,
0034
0000
0403
0000
0340
0000
4030
3004
,
0000
0000
0000
0000
0000
0403
0000
0340
,
0000
0000
4030
3004
0000
0000
0000
4003
,
3400
0000
0340
0000
,
0031
0100
0001
1000
0010
0100
0001
1000
,
0001
1000
2200
3300
,
0220
0000
0330
0000
0011
0001
0010
0100
,
0000
1000
0010
0000
0220
0000
0330
0000
,
0202
0000
0303
0000
0001
0010
0100
1000
,
0002
0000
0203
0000
,
0320
0000
2030
0000
,
3001
0000
0010
0000
0100
0000
0000
0000
1100
0000
0000
0000
2000
3000
0200
0300
,
2000
3000
0002
0003
0200
0300
0002
0003
0020
0030
0002
0003
2000
3000
0020
0030
,
2000
3000
0000
0000
0100
0000
0000
0000
0110
0000
0000
0000
0020
0030
0002
0003
,
2000
3000
0020
0030
2000
3000
0002
0003
0200
0300
0002
0003
2000
3000
0020
0030
,
2000
3000
0200
0300
2000
3000
0002
0003
0020
0030
0002
0003
2000
3000
0200
0300
,
2000
3000
0002
0003
0200
0300
0002
0003
2000
3000
0020
0030
2000
3000
0002
0003
,
0200
0300
0002
0003
2000
3000
0200
0300
2000
3000
0002
0003
0200
0300
0002
0003
,
2000
3000
0020
0030
2000
3000
0002
0003
0020
0030
0002
0003
2000
3000
0200
0300
,
2000
3000
0020
0030
2000
3000
0002
0003
0200
0300
0002
0003
0020
0030
0002
0003
,
2000
3000
0200
0300
2000
3000
0002
0003
0200
0300
0002
0003
2000
3000
0200
0300
,
2000
3010
0220
0330
,
0100
0001
0010
0200
0000
0000
0000
0000
,
1300
0001
0100
0001
2000
0000
0000
0000
,
3001
0100
0001
2000
0000
3010
0100
0001
,
1000
0100
0220
0330
,
0022
0000
0033
0000
0001
0100
0001
1000
,
0000
0100
0010
0000
0022
0000
0033
0000
,
0202
0303
2020
3030
,
1000
0100
1000
0001
0200
0000
0000
0000
,
0310
1000
0100
0020
0000
0000
0031
0100
,
0001
0011
0110
0000
,
0100
1000
0001
0100
0000
0000
0010
1000
,
0200
0300
0220
0330
,
0022
0000
0033
0000
1100
1000
0001
0100
,
0001
0010
0220
0330
,
2200
3300
2020
3030
,
0100
0001
0010
0100
1000
0000
0001
0000
,
0101
0000
0100
0000
0002
0003
0200
0300
0002
0003
2000
3000
0200
0300
2000
3000
,
0002
0003
0020
0030
0002
0003
2000
3000
0020
0030
0000
0000
0110
0000
0000
0000
,
0101
0000
0001
0010
0100
0000
1000
0000
,
2200
0000
3300
0000
0100
0000
0010
0001
,
1000
0100
0110
0010
,
0011
0001
0100
0001
2000
0000
3002
0000
,
0203
0000
0320
0000
,
1030
0100
1000
0001
0200
0000
0000
0000
,
0320
0030
2000
3000
0002
0003
2000
3000
0200
0300
2000
3000
0002
0003
0200
0300
,
0002
0003
2000
3000
0020
0030
2000
3000
0200
0300
2000
3000
0002
0003
0200
0300
,
0002
0003
2000
3000
0020
0030
2000
3000
0200
0300
2000
3000
0002
0003
0200
0300
,
0002
0003
2000
3000
0020
0030
2000
3000
0200
0300
2000
3000
0002
0003
0020
0030
,
0002
0003
0200
0300
0002
0003
2000
3000
0200
0300
2000
3000
0002
0003
0200
0300
,
0002
0003
0020
0030
0002
0003
2000
3000
0200
0300
2000
3000
0002
0003
0200
0300
,
0002
0000
1003
0100
0010
0000
0001
1000
,
0400
0000
0000
0000
0000
0340
0000
0034
,
0000
0000
0000
0000
4003
0000
0000
3400
,
0000
0340
0430
0000
,
4300
0000
3004
0043
0034
0000
4003
3040
,
0000
0000
0000
0000
0000
4030
0000
3040
,
0000
0000
0430
0304
0043
0000
0000
0430
,
0000
4300
3004
0000
4003
0000
0000
0000
,
3040
0000
0430
0304
,
0000
0043
0000
0000
0430
4300
3004
0403
,
0000
0000
0340
4030
0000
0000
0000
3004
,
0000
0000
0043
0000
,
0430
0000
4300
0000
3004
0000
0403
0340
,
0000
0000
0000
0000
0000
4030
0000
3400
,
0000
0000
0340
0034
0000
0000
0000
4003
,
0000
3040
4030
0000
,
3200
0300
0020
0030
0002
0003
0020
0030
0200
0300
0020
0030
0002
0003
2000
3000
,
0002
0103
0220
0330
,
2020
0000
3030
0000
0001
0100
0001
2000
,
0000
3002
0000
0003
2002
0000
3003
0000
,
2200
0000
3300
0000
0100
0010
0001
0100
,
0002
0000
2003
0000
,
3200
0000
0320
0000
,
0031
1000
2002
3003
,
0101
0000
0100
0010
1000
0100
0010
0001
,
1000
0000
0001
0000
0000
0000
1000
0000
1100
0000
0000
0000
2000
3000
0002
0003
,
0200
0300
0002
0003
2000
3000
0200
0300
2000
3000
0002
0003
0020
0030
0002
0003
,
2000
3000
0020
0030
2000
3000
0002
0003
0200
0300
0002
0003
0020
0030
0002
0003
,
0200
0300
0002
0003
2000
3000
0200
0300
2000
3000
0020
0030
2000
3000
0002
0003
,
0200
0300
0002
0003
2000
3000
0020
0030
2000
3000
0002
0003
0200
0300
0002
0003
,
2000
3000
0200
0300
2000
3000
0002
0003
0020
0030
0002
0003
2000
3000
0200
0300
,
2000
3000
0002
0003
0200
0300
0002
0003
2000
3000
0020
0030
2000
3000
0002
0003
,
0200
0300
0002
0003
2000
3000
0200
0300
2000
3000
0002
0003
0200
0300
0002
0003
,
2000
0000
0000
3001
0200
0000
0000
0000
,
0320
0000
0000
0000
1030
0100
0010
0001
,
1000
0100
0000
0010
0002
0000
0000
0000
,
0203
0000
0320
0000
,
2030
0000
3200
0000
,
2300
0000
3002
0000
,
0203
0000
0302
0000
,
0023
0000
0230
0000
,
2300
0000
3020
0000
,
0230
0000
0302
0000
,
2003
0000
3002
0000
,
0203
0000
0302
0000
,
0023
0000
0230
0000
,
2300
0000
3002
0000
,
0203
0000
0302
0000
,
2003
0000
3200
0000
,
0310
0001
1000
0001
0010
0000
0100
1000
,
0000
0001
0100
0001
0010
0000
0100
1000
,
0001
1000
0001
0100
0020
0000
0000
2030
,
0000
3002
0000
0203
0000
0000
0310
1000
,
0001
0010
0220
0330
,
2200
3300
2002
3003
,
1000
0100
0010
0001
2000
0000
3000
0000
,
2002
3003
2020
3030
,
0200
0000
0000
0000
0302
0000
0000
0023
,
0000
0000
0230
0000
0000
0000
1300
0000
0002
0003
0200
0300
0002
0003
2000
3000
,
0200
0300
2000
3000
0002
0003
0020
0030
0002
0003
2000
3000
0020
0030
2000
3000
,
0002
0003
0200
0300
0002
0003
2000
3000
0200
0300
2000
3000
0002
0003
0200
0300
,
0002
0003
2000
3000
0020
0030
2000
3000
0002
0003
0200
0300
0002
0003
2000
0000
,
3200
0300
2000
3000
0002
0003
0020
0030
0002
0003
0200
0300
0002
0003
2000
3000
,
0020
0030
2000
3000
0002
0003
0200
0300
0002
0003
2000
3000
0200
0300
2000
3000
,
0002
0000
0013
0100
1000
0000
0010
1000
,
0004
0000
0000
0000
0000
0043
0000
0430
,
0000
0000
0000
0000
4300
0000
0000
3200
,
0000
0320
0032
0000
,
2003
0000
3004
0043
0430
0000
4300
3004
,
0000
0000
0000
0000
0000
4003
0000
3040
,
0000
0000
0430
0304
0000
0000
0000
0023
,
0000
0230
2300
0000
3002
0000
0000
0000
,
0203
0300
0002
0003
2000
3000
0200
0300
2000
0000
0000
0000
3020
0000
0000
0000
,
0000
0430
0000
0000
0304
0043
0430
4300
,
3004
0403
0304
4003
3400
0000
0340
0034
,
0000
2003
3200
0000
0320
0000
0000
0000
,
0032
0000
0000
0000
4003
0000
3040
0430
,
0000
0000
0000
0000
0000
0304
0000
0043
,
0000
0000
0000
0430
0000
0000
0000
4300
,
0000
3004
0403
0000
0320
0000
0000
0000
,
2030
0000
0000
0000
3100
0010
0001
0010
,
0001
0100
0010
0000
2020
0000
3030
0000
,
2200
0000
3300
0000
0100
0010
0000
0011
,
0000
0002
0000
0000
2003
0000
0000
0000
,
3020
0000
0130
0001
1000
0100
1000
0010
,
0200
0000
0302
0000
,
0023
0000
0230
0000
,
2300
0000
0000
0000
3002
0003
0200
0300
0002
0003
2000
3000
0200
0300
2000
3000
,
0002
0003
0200
0300
0002
0003
2000
3000
0020
0030
2000
3000
0002
0003
0020
0030
,
0002
0003
2000
3000
0200
0300
2000
3000
0002
0003
0200
0300
0002
0003
2000
3000
,
0020
0030
2000
3000
0200
0300
2000
3000
0002
0003
0200
0300
0002
0003
0020
0030
,
0002
0003
2000
3000
0200
0300
2000
3000
0002
0003
0020
0030
0002
0003
2000
3000
,
0020
0030
2000
3000
0002
0003
0200
0300
0002
0003
2000
3000
0200
0300
2000
3000
,
0002
0003
0020
0030
0002
0003
2000
3000
0200
0300
2000
3000
0002
0003
0200
0300
,
0002
0003
2000
3000
0020
0030
2000
3000
0200
0300
2000
3000
0002
0003
0200
0300
,
0002
0003
0020
0030
0002
0003
2000
3000
0200
0300
2000
3000
0020
0030
2000
3000
,
0002
0003
0200
0300
0002
0003
0020
0030
0002
0003
2000
3000
0200
0300
2000
3000
,
0002
0000
0000
0103
0020
0000
0000
0000
,
2030
0000
3200
0000
,
0310
0001
0000
1000
0002
0000
0000
0000
,
0203
0000
0320
0000
,
2030
0000
3200
0000
,
0320
0000
0032
0000
,
2003
0000
3002
0000
,
0203
0000
0320
0000
,
2030
0000
3200
0000
,
0320
0000
0032
0000
,
2003
0000
3002
0000
,
0203
0000
0302
0000
,
2000
0000
0000
0000
,
0000
0000
0000
0000
,
0000
0000
0000
0000
,
0000
0000
0000
0000
,
3003
0000
0000
0000
;
