#TITLE:DotA;
#SUBTITLE:;
#ARTIST:Basshunter;
#TITLETRANSLIT:;
#SUBTITLETRANSLIT:;
#ARTISTTRANSLIT:;
#CREDIT:Dyno;
#BANNER:Banner.jpg;
#BACKGROUND:Background.jpg;
#LYRICSPATH:DotA.lrc;
#CDTITLE:dyno.png;
#MUSIC:DotA.mp3;
#OFFSET:0.857;
#SAMPLESTART:41.420;
#SAMPLELENGTH:12.000;
#SELECTABLE:YES;
#BPMS:0.000=140.000;
#STOPS:94.000=1.660
,246.000=0.860
;
#BGCHANGES:;
// cache tags:
#FIRSTBEAT:27.500;
#LASTBEAT:540.000;
#SONGFILENAME:Songs/new cedric/DotA/DotA.sm;
#HASMUSIC:1;
#HASBANNER:1;
#MUSICLENGTH:235.530;
// end cache tags

//---------------dance-single - ----------------
#NOTES:
     dance-single:
     :
     Hard:
     9:
     0.585,0.740,0.038,0.170,0.756,916.000,9.000,40.000,0.000,0.000:















0000
0000
0000
0000
,
0000
0000
0000
0000
,
0000
0000
0000
0000
,
0000
0000
0000
0000
,
0000
0000
0000
0000
,
0000
0000
0000
0000
,
0000
0000
0000
0000
0000
0000
0000
1000
,
0100
0000
0010
0000
0001
0000
1000
0000
0002
0000
0000
0013
0000
0000
0001
0000
,
0100
0000
0010
0000
1000
0000
0001
0000
2000
0000
0000
3100
0000
0000
0000
0000
,
0000
0000
0000
0000
,
0000
0000
0000
0000
0000
0000
0000
0010
,
0001
0000
0100
0000
0010
0000
1000
0000
0200
0000
0000
1300
0000
0000
0001
0000
,
1000
0000
0010
0000
0100
0000
0001
0000
2000
0000
0000
3001
0000
0000
0000
0000
,
0000
0000
0000
0000
,
0000
0000
0000
0000
0000
0000
0000
0001
,
1000
0000
0100
0000
1000
0000
0001
0000
0200
0000
0000
0310
0000
0000
1000
0000
,
0001
0000
0010
0000
0100
0000
1000
0000
0200
0000
0000
1300
0000
0000
0010
0000
,
1000
0000
0001
0000
1000
0000
0100
0000
0020
0000
0000
0130
0000
0000
1000
0000
,
0010
0000
0100
0000
0001
0000
0010
0000
0200
0000
0000
1300
0000
0000
0001
0000
,
1000
0000
0010
0000
0100
0000
0010
0000
2000
0000
0000
3001
0000
0000
0010
0000
,
0100
0000
1000
0000
0001
0000
1000
0000
0020
0000
0000
1030
0000
0000
0100
0000
,
0010
0000
0001
0000
1000
0000
0010
0000
0200
0000
0000
0310
0000
0000
1000
0000
,
0100
0000
0010
0000
0001
0000
0100
0000
0020
0000
0000
0130
0000
0000
0000
0000
,
0000
0000
0000
0000
1001
0000
0000
1000
,
0010
0000
0001
0000
0010
0000
1000
0000
0200
0000
0000
1300
0000
0000
1000
0000
,
0100
0000
0010
0000
0001
0000
0100
0000
2000
0000
0000
3100
0000
0000
0001
0000
,
0010
0000
0100
0000
0001
0000
0100
0000
2000
0000
0000
3001
0000
0000
1000
0000
,
0010
0000
0100
0000
0001
0000
0010
0000
2000
0000
0000
3010
0000
0000
0001
0000
,
1000
0000
0001
0000
0100
0000
1000
0000
0200
0000
0000
0310
0000
0000
0100
0000
,
0001
0000
0010
0000
0100
0000
1000
0000
0002
0000
0000
0103
0000
0000
0001
0000
,
0100
0000
1000
0000
0100
0000
0001
0000
0020
0000
0000
0130
0000
0000
1000
0000
,
0001
0000
1000
0000
0010
0000
0100
0000
0002
0000
0000
0103
0000
0000
0001
0000
,
0010
0000
0100
0000
1000
0000
0100
0000
0002
0000
0000
0103
0000
0000
1000
0000
,
0001
0000
0100
0000
0010
0000
1000
0000
0200
0000
0000
1300
0000
0000
0100
0000
,
0001
0000
0100
0000
0010
0000
0001
0000
0200
0000
0000
1300
0000
0000
0100
0000
,
0001
0000
0010
0000
1000
0000
0010
0000
0200
0000
0000
1300
0000
0000
0010
0000
,
1000
0000
0001
0000
1000
0000
0100
0000
0002
0000
0000
0103
0000
0000
0010
0000
,
1000
0000
0010
0000
0001
0000
0100
0000
2000
0000
0000
3100
0000
0000
0001
0000
,
1000
0000
0001
0000
0010
0000
0100
0000
2000
0000
0000
3010
0000
0000
1000
0000
,
0001
0000
0010
0000
0100
0000
1000
0000
0020
0000
0000
0130
0000
0000
0000
0000
,
0000
0000
0000
0000
1000
0000
0100
0000
1000
0000
0000
1000
0000
0000
1000
0000
,
0000
0000
1000
0000
0100
0000
0010
0000
0001
0000
0000
0001
0000
0000
0001
0000
,
0000
0000
0001
0000
0010
0000
0100
0000
1000
0000
0000
1000
0000
0000
1000
0000
,
0001
0000
0000
0001
0000
0000
0001
0000
1000
0000
0001
0000
1000
0000
0001
0000
,
0100
0010
0100
0010
0100
0010
0100
0010
0100
0000
0000
0000
0000
0000
0000
0000
,
0000
0000
0001
0010
0001
0000
1000
0000
0001
0000
0000
0001
0000
0000
0001
0000
,
1000
0100
1000
0000
0010
0000
1000
0000
0100
0000
0000
0100
0000
0000
0100
0000
,
0010
0000
0001
0000
0100
0000
0001
0000
0010
0000
0000
0010
0000
0000
0010
0000
,
0001
0000
0100
0000
1000
0000
0100
0000
0010
0000
0000
0010
0000
0000
0010
0000
,
1000
0000
0001
0000
0010
0000
0100
0000
1000
0000
0000
1000
0000
0000
1000
0000
,
0001
0100
0001
0000
0010
0000
1000
0000
0001
0000
0000
0001
0000
0000
0001
0000
,
1000
0000
0100
0000
0001
0000
0100
0000
0010
0000
0000
0010
0000
0000
0010
0000
,
1000
0000
0010
0000
0001
0000
0010
0000
0100
0000
0000
0100
0000
0000
0100
0000
,
1000
0000
0010
0000
0100
0000
0001
0000
1000
0000
0000
0100
0000
0000
1000
0000
,
0010
0100
0010
0000
1000
0000
0001
0000
1000
0000
0000
0010
0000
0000
1000
0000
,
0001
0000
0010
0000
0100
0000
1000
0000
0100
0000
0000
0001
0000
0000
0100
0000
,
1000
0000
0010
0000
0100
0000
0001
0000
1000
0000
0000
0001
0000
0000
1000
0000
,
0010
0000
0001
0000
0010
0000
0100
0000
0001
0000
0000
0010
0000
0000
0001
0000
,
1000
0100
1000
0000
0010
0000
0100
0000
1000
0000
0000
0100
0000
0000
1000
0000
,
0100
0000
0001
0000
0010
0000
0100
0000
1000
0000
0000
0010
0000
0000
1000
0000
,
0100
0010
0001
0100
0010
1000
0100
0010
,
0001
1000
0001
1000
0001
1000
0001
0000
1001
0000
0000
0000
0000
0000
0000
0000
,
1000
0000
1000
0001
0000
0001
1000
0000
1000
0001
0000
0001
,
0100
0000
0100
0010
0000
0010
0100
0000
0100
0010
0000
0010
,
1000
0000
1000
0001
0000
0001
1000
0000
1000
0001
0000
0001
,
0100
0000
0100
0010
0000
0010
0100
0000
0100
0010
0000
0010
,
1000
0000
0010
1000
0000
0010
1000
0000
0010
1000
0000
1000
,
0100
0000
1000
0100
0000
1000
0100
0000
1000
0100
0000
0010
,
0001
0000
0010
0001
0000
0010
0001
0000
0010
0001
0000
0001
,
0100
0000
0001
0100
0000
0001
0100
0000
0001
0100
0000
0010
,
1000
0000
1000
0000
0000
1000
0100
0000
0100
0010
0000
0010
,
0001
0000
0001
0000
0000
0001
1000
0000
1000
0010
0000
0010
,
0100
0000
0100
0001
0000
0001
1000
0000
1000
0001
0000
0001
,
0010
0000
0010
0100
0000
0100
1000
0000
1000
0001
0000
0001
,
1000
0000
1000
0000
0000
0001
0100
0000
0100
0010
0000
0010
,
1000
0000
1000
0000
0000
1000
0100
0000
0100
0010
0000
0010
,
0001
0000
0001
1000
0000
1000
0010
0000
0010
1000
0000
1000
,
0001
0000
0001
0010
0000
0010
0100
0000
0100
1000
0000
1000
,
0010
0000
0010
0000
0000
0010
1000
0000
1000
0100
0000
0100
,
0010
0000
0001
0000
0000
1000
0010
0000
0010
1000
0000
1000
,
0001
0000
0001
0100
0000
0100
0010
0000
0010
1000
0000
1000
,
0001
0000
0001
0010
0000
0010
0001
0000
0001
0100
0000
0100
,
0010
0000
1000
0000
0000
1000
0010
0000
0100
0001
0000
0001
,
0010
0000
0100
0000
0000
1000
0100
0000
0100
0010
0000
0010
,
0001
0000
0001
0010
0000
0010
0100
0000
0100
1000
0000
1000
,
0001
0000
0001
0100
0000
0100
0010
0000
0010
1000
0001
1000
,
1002
0000
1003
0000
0000
1000
0100
0000
0100
0010
0000
0010
,
0200
0000
1300
0000
0000
1000
0010
0000
0100
0001
0100
0001
,
0020
0000
0130
0000
0000
0100
1000
0000
1000
0001
0000
0001
,
0020
0000
0031
0000
0000
0001
1000
0100
0010
0001
0100
0010
,
2000
0000
3001
0000
0000
0001
1000
0000
1000
0100
0000
0100
,
2000
0000
3001
0000
0000
0001
1000
0100
1000
0001
0010
0001
,
1000
0010
1000
0001
0100
0001
1000
0100
0010
0001
0100
0010
,
1000
0100
1000
0100
0010
0000
0001
0000
0100
0000
0010
0000
1000
0000
0001
0000
0010
0000
0100
0000
0000
0000
0000
0000
,
2002
0000
0000
0000
,
3003
0000
0000
0000
0000
1000
0100
0000
0010
0001
0000
0001
,
1001
0000
1000
0010
0000
0010
1000
0000
0100
0010
0000
0001
,
1000
0000
0001
0010
0000
0001
0100
0000
0010
1000
0000
1000
,
0100
0000
1000
0010
0000
0010
0100
0000
0001
1000
0000
0010
,
0100
0000
0001
0010
0000
0100
1000
0000
0001
0010
0000
0001
,
0010
0000
0010
0001
0000
0100
0010
0000
1000
0100
0000
1000
,
0010
0000
1000
0001
0000
0001
0100
0000
0100
0001
0000
1000
,
0001
0000
0010
0001
0000
1000
0010
0000
0100
0001
0000
0100
,
0010
0000
0100
1000
0000
0100
0001
0000
0001
1000
0000
1000
,
0100
0000
1000
0100
0000
0001
0100
0000
0001
0100
0000
1000
,
0010
0000
1000
0010
0000
0001
0010
0000
0001
0010
0000
1000
,
0100
0000
1000
0100
0000
0001
0010
0000
0001
0010
0000
1000
,
0100
0000
0001
0010
0000
1000
0100
0000
0001
0010
0000
0001
,
0100
0000
0001
0100
0000
1000
0100
0000
1000
0100
0000
0001
,
0010
0000
0001
0010
0000
1000
0010
0000
1000
0010
0000
0001
,
0010
0000
0001
0010
0000
1000
0100
0000
1000
0100
0000
0001
,
0010
0100
1000
0100
0001
0100
1000
0010
0100
0001
0010
0100
,
1001
0000
0100
0001
0000
0010
0001
0000
0100
0001
0000
1000
,
0001
0000
0100
0001
0000
0010
0001
0000
0100
0001
0000
0001
,
1000
0000
0100
1000
0000
0010
1000
0000
0001
1000
0000
0010
,
1000
0001
1000
0001
1000
0001
0010
0100
0010
0100
0010
0100
,
2002
0000
0000
3003
,
0010
1000
0001
0100
0000
0100
0010
0000
0000
1000
0100
0001
,
0100
0000
0010
0001
0000
0100
0001
0000
0010
0001
0000
0100
,
0010
0000
1000
0010
0000
1000
0001
0000
0100
1000
0000
0100
,
0001
0000
0001
0010
0000
0010
1000
0000
1000
0100
0000
0100
,
0001
0000
0001
0100
0000
0100
1000
0000
1000
0010
0000
0010
,
0001
0000
1000
0001
0000
1000
0001
0000
1000
0001
0000
1000
,
0010
0000
0100
0010
0000
0100
0010
0000
0100
0010
0000
0100
,
0001
0000
0001
1000
0000
1000
0100
0000
0010
1000
0000
0010
,
0001
0000
1000
0001
0000
0100
0001
0000
0001
1000
0100
0010
,
0001
0000
1000
0001
0000
0100
0001
0000
0010
0001
0000
0001
,
1000
0000
0010
1000
0000
0100
1000
0000
0001
1000
0000
0100
,
0010
0000
1000
0010
0000
0001
0010
0000
0100
0010
0000
0010
,
0100
0000
1000
0100
0000
0001
0100
0000
1000
0100
0000
0010
,
0001
0000
1000
0100
0000
0010
0100
0000
1000
0010
0000
0001
,
0010
0000
1000
0100
0000
0001
0100
0000
0010
0001
0000
0001
,
2002
0000
0000
0000
,
3003
0000
0000
0000
0000
0000
0000
0000
0000
0000
0000
0000
0000
0000
0000
0000
0000
0000
0000
0000
0000
0000
0000
0000
0010
0000
0000
0001
0000
0000
0000
0000
0000
0000
0000
0000
1000
0000
0001
0000
1000
0000
0100
0000
0000
0000
0000
0000
,
1001
0000
0000
0000
;

//---------------dance-single - ----------------
#NOTES:
     dance-single:
     :
     Medium:
     7:
     0.458,0.512,0.582,0.115,0.236,591.000,137.000,27.000,0.000,0.000:















0000
0000
0000
0000
,
0000
0000
0000
0000
,
0000
0000
0000
0000
,
0000
0000
0000
0000
,
0000
0000
0000
0000
,
0000
0000
0000
0000
,
0000
0000
0000
0000
0000
0000
0000
0001
,
1000
0000
0000
0000
0010
0000
0000
0000
1000
0000
0000
1000
0000
0000
1000
0000
,
0001
0000
0000
0000
0100
0000
0000
0000
0010
0000
0000
0010
0000
0000
0000
0000
,
0000
0000
0000
0000
,
0000
0000
0000
0000
0000
0000
0000
1000
,
0001
0000
0000
0000
0010
0000
0000
0000
0100
0000
0000
0100
0000
0000
0100
0000
,
1000
0000
0000
0000
0010
0000
0000
0000
1000
0000
0000
1000
0000
0000
0000
0000
,
0000
0000
0000
0000
,
0000
0000
0000
0000
0000
0000
0000
0100
,
0010
0000
0000
0000
0001
0000
0000
0000
0010
0000
0000
0010
0000
0000
0010
0000
,
0001
0000
0000
0000
0100
0000
0000
0000
0010
0000
0000
0010
0000
0000
0010
0000
,
1000
0000
0000
0000
0001
0000
0000
0000
1000
0000
0000
1000
0000
0000
1000
0000
,
0100
0000
0000
0000
0010
0000
0000
0000
0100
0000
0000
0100
0000
0000
0100
0000
,
0010
0000
0000
0000
0100
0000
0000
0000
0001
0000
0000
0001
0000
0000
0001
0000
,
1000
0000
0000
0000
0001
0000
0000
0000
1000
0000
0000
1000
0000
0000
1000
0000
,
0010
0000
0000
0000
0100
0000
0000
0000
0001
0000
0000
0001
0000
0000
0001
0000
,
1000
0000
0000
0000
0100
0000
0000
0000
1000
0000
0000
1000
0000
0000
0000
0000
,
0000
0000
0000
0000
1001
0000
0000
1000
,
0100
0000
0000
0000
0010
0000
0000
0000
0001
0000
0000
1000
0000
0000
0001
0000
,
0010
0000
0000
0000
0100
0000
0000
0000
1000
0000
0000
1000
0000
0000
0001
0000
,
0010
0000
0000
0000
0001
0000
0000
0000
0100
0000
0000
0010
0000
0000
0100
0000
,
0001
0000
0000
0000
1000
0000
0000
0000
0010
0000
0000
0100
0000
0000
0001
0000
,
0010
0000
0000
0000
0001
0000
0000
0000
1000
0000
0000
0001
0000
0000
1000
0000
,
0001
0000
0000
0000
0100
0000
0000
0000
0010
0000
0000
1000
0000
0000
0010
0000
,
1000
0000
0000
0000
0001
0000
0000
0000
0100
0000
0000
0010
0000
0000
1000
0000
,
0100
0000
0000
0000
1000
0000
0000
0000
0010
0000
0000
0100
0000
0000
0001
0000
,
0010
0000
0000
0000
0100
0000
0000
0000
1000
0000
0000
0001
0000
0000
1000
0000
,
0100
0000
0000
0000
0011
0000
0000
0000
0001
0000
0000
0001
0000
0000
0001
0000
,
1000
0000
0000
0000
1100
0000
0000
0000
1000
0000
0000
1000
0000
0000
1000
0000
,
0010
0000
0000
0000
1010
0000
0000
0000
0010
0000
0000
0010
0000
0000
0010
0000
,
0100
0000
0000
0000
0101
0000
0000
0000
0100
0000
0000
0100
0000
0000
0100
0000
,
0001
0000
0000
0000
0011
0000
0000
0000
0010
0000
0000
0010
0000
0000
0010
0000
,
0100
0000
0000
0000
1100
0000
0000
0000
0100
0000
0000
0100
0000
0000
1000
0000
,
0001
0000
0000
0000
1001
0000
0000
0000
1000
0000
0000
0001
0000
0000
0000
0000
,
0000
0000
0000
0000
1000
0000
0001
0000
1000
0000
0000
1000
0000
0000
1000
0000
,
0000
0000
0000
0000
0001
0000
1000
0000
0001
0000
0000
0001
0000
0000
0001
0000
,
0000
0000
0000
0000
1000
0000
0001
0000
1000
0000
0000
1000
0000
0000
1000
0000
,
0001
0000
0000
0001
0000
0000
0001
0000
1000
0000
0001
0000
1000
0000
0001
0000
,
0100
0010
0100
0000
1001
0000
0000
0000
,
0000
0000
0000
0000
0000
0000
0000
0000
0001
0000
0000
0001
0000
0000
0001
0000
,
1000
0000
0000
0000
1100
0000
0000
0000
0100
0000
0000
0100
0000
0000
0100
0000
,
0010
0000
0000
0000
0011
0000
0000
0000
0001
0000
0000
0001
0000
0000
0001
0000
,
0100
0000
0000
0000
0101
0000
0000
0000
0010
0000
0000
0010
0000
0000
0010
0000
,
1000
0000
0000
0000
1010
0000
0000
0000
1002
0000
0000
1000
0000
0000
1003
0000
,
0100
0000
0000
0000
0011
0000
0000
0000
2001
0000
0000
0001
0000
0000
3001
0000
,
0010
0000
0000
0000
1100
0000
0000
0000
1020
0000
0000
1000
0000
0000
1030
0000
,
0100
0000
0000
0000
1010
0000
0000
0000
0102
0000
0000
0100
0000
0000
0103
0000
,
0010
0000
0000
0000
0110
0000
0000
0000
1000
0000
0000
0001
0000
0000
1000
0000
,
1000
0000
0000
0000
1010
0000
0000
0000
0001
0000
0000
1000
0000
0000
0001
0000
,
0001
0000
0000
0000
0011
0000
0000
0000
0100
0000
0000
1000
0000
0000
0100
0000
,
0100
0000
0000
0000
1100
0000
0000
0000
0010
0000
0000
0001
0000
0000
0010
0000
,
0010
0000
0000
0000
1001
0000
0000
0000
0001
0000
0000
1000
0000
0000
0001
0000
,
0100
0000
1000
0000
0100
0000
0001
0000
1000
0000
0000
0001
0000
0000
1000
0000
,
0100
0000
0001
0000
0100
0000
1000
0000
0001
0000
0000
1000
0000
0000
0001
0000
,
1000
1100
0101
0011
,
1010
0110
1001
0000
,
0010
1010
0010
1010
,
0100
0101
0100
0101
,
0110
1010
0110
1010
,
0110
0101
0110
0101
,
0010
0011
0010
0011
,
0100
1100
0100
1100
,
0110
0011
0110
0011
,
0110
1100
0110
1100
,
2000
3100
0002
0103
,
2000
3100
0002
0103
,
1000
1100
0001
0101
,
1000
1010
0001
0011
,
2000
3010
0002
0013
,
2000
3100
0002
0103
,
1000
1010
0001
0011
,
1000
1100
0001
0101
,
2001
3100
1002
0103
,
2001
3010
1002
0013
,
1001
1100
1001
0101
,
1001
1010
1001
0011
,
0120
1030
0210
1300
,
0120
0031
0210
0301
,
0110
1010
0110
1100
,
0110
0011
0110
0101
,
1001
0000
0000
1000
0000
0000
1000
0000
0000
1000
0000
1000
,
0100
0000
0000
0100
0000
0000
0100
0000
0000
0100
0000
0100
,
0010
0000
0000
0010
0000
0000
0010
0000
0000
0010
0000
0010
,
0001
0000
0000
0001
0000
0000
0001
0000
0000
0001
0000
0001
,
1000
0000
0000
0010
0000
0000
1000
0000
0000
0010
0000
0010
,
0100
0000
0000
0001
0000
0000
0100
0000
0000
0001
0000
0100
,
0010
0000
0000
1000
0000
0010
0100
0000
0000
0001
0000
0100
,
0010
0000
0000
1000
0000
0000
0001
0100
0001
0100
0000
0000
,
2002
0000
0000
0000
,
3003
0000
1100
0101
,
1000
0000
1000
0100
0000
0000
0100
0000
0100
0010
0000
0000
,
0010
0000
0010
0001
0000
0000
0001
0000
0001
0100
0000
0000
,
0100
0000
0100
0010
0000
0000
0010
0000
0010
1000
0000
0000
,
1000
0000
1000
0001
0000
0001
1000
0000
1000
0001
0000
0000
,
0001
0000
0001
0100
0000
0000
0100
0000
0100
0010
0000
0000
,
0010
0000
0010
1000
0000
0000
1000
0000
1000
0010
0000
0000
,
0010
0000
0010
0100
0000
0000
0100
0000
0100
0001
0000
0000
,
0001
0000
0001
1000
0000
1000
0001
0000
0001
1000
0000
0000
,
0100
0000
1000
0100
0000
0000
0010
0000
0001
0010
0000
0000
,
0100
0000
1000
0010
0000
0000
0100
0000
0001
0010
0000
0000
,
0100
0000
1000
0100
0000
0000
0010
0000
0001
0010
0000
0000
,
0001
0000
0100
0001
0000
0001
1000
0000
1000
0010
0000
0000
,
1000
0000
1000
0001
0000
0000
0001
0000
0001
0010
0000
0000
,
0010
0000
0010
0001
0000
0000
0001
0000
0001
1000
0000
0000
,
1000
0000
1000
0100
0000
0000
0100
0000
0100
1000
0000
0000
,
1000
0000
1000
0001
0000
0001
1000
0000
1000
0001
0000
0000
,
1001
0100
0001
0100
,
1000
0100
0001
0100
,
1000
0100
0001
0100
,
1000
0000
0000
0001
0000
0000
1000
0001
1000
0001
0000
0000
,
2002
0000
0000
3003
,
1010
0000
0000
1100
0000
0000
0101
0000
0000
0011
0000
0001
,
0010
0000
0010
0001
0000
0000
0011
0000
0000
0101
0000
0100
,
0001
0000
0001
0100
0000
0000
0101
0000
0000
0110
0000
0100
,
0010
0000
0010
0100
0000
0000
0110
0000
0000
1010
0000
0010
,
1000
0000
1000
0010
0000
0000
1010
0000
0000
1100
0000
1000
,
0100
0000
0100
1000
0000
0000
1100
0000
0000
1001
0000
1000
,
0001
0000
0001
1000
0000
0000
1001
0000
0000
1010
0000
1000
,
0010
0000
0010
1000
0000
0000
1010
0000
0000
0101
0000
0100
,
0001
0000
0001
0100
0000
0000
0010
0000
0000
1000
0000
0000
,
1001
0101
1001
1100
,
1001
1010
1001
0011
,
1010
1001
1100
1001
,
0011
1001
0101
1001
,
0110
0110
1001
1001
,
0110
1001
0110
1001
,
2002
0000
0000
0000
,
3003
0000
0110
2000
,
3001
0000
0000
0000
;

//---------------dance-single - ----------------
#NOTES:
     dance-single:
     :
     Easy:
     4:
     0.000,0.000,0.000,0.000,0.000,0.000,0.000,0.000,0.000,0.000:

0000
0000
0000
0000
;

//---------------dance-single - PEWS! Steps----------------
#NOTES:
     dance-single:
     PEWS! Steps:
     Challenge:
     12:
     0.741,0.946,0.191,0.149,1.000,1140.000,45.000,35.000,90.000,12.000:


0000
0000
0000
0000
,
0000
0000
0000
0000
,
0000
0000
0000
0000
,
0000
0000
0000
0000
,
0000
0000
0000
0000
,
0000
0000
0000
0000
,
0000
0000
0000
0000
0000
0000
0000
0001
,
1000
0000
0000
0010
0000
0000
1000
0000
0000
0010
0000
0000
0100
0000
0000
0000
0101
0000
0000
0000
0000
1000
0000
0000
,
0001
0000
0000
1000
0000
0000
0001
0000
0000
1000
0000
0000
0100
0000
0000
0000
2200
0000
0000
0000
0000
0000
0000
0000
,
0000
0000
0000
0000
,
0000
0000
0000
3300
0000
0000
0000
0000
0000
0000
0000
0000
0000
0000
0010
0000
,
1000
0000
0000
0010
0000
0000
1000
0000
0000
0001
0000
0000
1000
0000
0000
0000
0202
0303
0000
0000
0000
0010
0000
0000
,
1000
0000
0000
0010
0000
0000
0010
0000
0000
0100
0000
0000
0010
0000
0000
0000
2020
0000
0000
0000
0000
0000
0000
0000
,
0000
0000
0000
0000
0000
0000
0000
0000
0000
0000
0000
0000
0000
0000
0000
0000
0000
0000
0000
0000
0000
0000
0000
0000
0000
0000
0000
0000
0000
0000
0000
0000
0000
0000
0000
0000
0000
0000
0030
3000
0000
0000
0000
0000
0000
0000
0000
0000
,
0000
0000
0000
0000
0000
0000
0000
0100
,
1000
0000
0000
0100
0000
0000
1000
0000
0000
0000
0000
0000
0010
0000
0000
0000
0000
0000
0001
0000
0000
0000
0000
0000
1000
0000
0000
0000
0000
0000
0000
0000
1000
0000
0000
0000
0000
0000
0000
0000
0000
0000
0001
0000
0000
0000
0000
0000
,
0100
0000
0000
0000
0000
0000
1000
0000
0000
0000
0000
0000
0100
0000
0000
0000
0000
0000
0001
0000
0000
0000
0000
0000
1000
0000
0000
0000
0000
0000
0000
0000
0002
0000
0003
0000
0000
0000
0000
0000
0000
0000
0001
0000
0000
1000
0000
0000
,
0001
0000
0100
0000
0001
0000
1000
0000
0100
0000
1000
0000
1000
0100
0010
0000
,
0001
0000
0000
0000
0000
0000
1000
0000
0000
0000
0000
0000
0100
0000
0000
0000
0000
0000
0100
0000
0000
0000
0000
0000
0010
0000
0000
0000
0000
0000
0000
0000
1200
0000
0000
0000
0000
0300
0000
0000
0000
0000
0000
0000
0000
0000
0000
0000
,
1000
0000
0000
0010
0000
0000
1000
0000
0000
0000
0000
0000
0100
0000
0000
0000
0000
0000
0010
0000
0000
0000
0000
0000
1001
0000
0000
0000
0000
0000
0000
0000
2020
3030
0000
0000
0000
0000
0000
0000
0000
0000
0000
0000
0000
0000
0000
0000
,
1000
0000
0000
0010
0000
0000
1000
0000
0000
0001
0000
0000
1000
0000
0000
0000
2200
0000
3300
0000
0000
0000
0000
0000
,
0001
0000
0000
0100
0000
0000
0001
0000
0000
0000
0000
0000
1000
0000
0000
0010
0000
0000
0100
0000
0000
0000
0000
0000
0001
0000
0000
0000
0000
0000
0000
0000
0200
0000
0000
0000
0000
0000
0000
0000
0000
0000
0310
0000
0000
0000
0000
0000
,
0001
0000
0000
0100
0000
0000
0010
0000
0000
0000
0000
0000
1000
0000
0000
0000
0000
0000
0010
0000
0000
0000
0000
0000
1000
0000
0000
0000
0000
0000
0000
0000
2020
0000
0000
0000
0000
0000
0000
0000
0000
0000
0000
0000
0000
0000
0000
0000
,
0000
0000
3031
0000
,
1000
0001
1000
M1MM
11MM
M1MM
M11M
M1MM
,
M1M1
MMM1
MM11
MMM1
1MM1
MM1M
1M1M
1MMM
,
11MM
1MMM
1MM1
MM1M
MM11
MM1M
1M1M
MM1M
,
1000
0000
0000
0100
0000
0000
0010
0000
0000
0001
0000
0000
1001
0000
0000
0000
1001
0000
0000
0000
0000
1000
0000
0000
,
0100
1010
0100
0001
0220
0000
1330
0010
,
0100
0000
0010
0000
1001
0000
0001
0000
0010
0000
0100
0000
1000
0000
1000
0100
,
1000
0000
0000
0000
0000
0000
0100
0000
0000
0000
0000
0000
0010
0000
0000
0000
0000
0000
0001
0000
0000
0000
0000
0000
1000
0000
0000
0000
0000
0000
0000
0000
1000
0000
0000
0000
0000
0000
0000
0000
0000
0000
1000
0000
0000
0001
0000
0000
,
1000
0000
0000
0000
0000
0000
0100
0000
0000
0000
0000
0000
0010
0000
0000
0000
0000
0000
0100
0000
0000
0000
0000
0000
0010
0000
0000
0000
0000
0000
0000
0000
2000
0000
0000
0000
0000
0000
3000
0000
0000
0000
0000
0000
0000
1000
0000
0000
,
0010
0100
0001
1000
0010
0100
0001
1000
0010
0100
0001
0000
0010
0100
1000
0100
,
0010
0001
0010
0100
1000
0100
1000
0100
1000
0010
1000
0010
1000
0010
1000
0001
,
1000
0001
1000
0100
0010
0001
0010
0100
1000
0100
0010
0100
1000
0100
0010
0100
,
1000
0100
0010
0001
0010
0100
1000
0010
0100
0001
1000
0010
0100
0001
0010
0100
,
1000
0100
1000
0010
1000
0100
1000
0010
1000
0100
1000
0010
0100
1000
0010
1000
,
0001
1000
0001
0010
0001
0010
0001
1000
0001
0100
0001
0100
0001
0010
0001
0010
,
0001
0010
0001
0010
1000
0001
0100
0010
1000
0001
0100
1000
0100
0010
0001
1000
,
0100
0010
0001
1000
0100
0010
0001
0010
0100
1000
0100
0010
0001
0010
0100
1000
,
0100
1000
0100
1000
0010
1000
0010
1000
0100
0000
0000
0010
0000
0000
1000
0000
,
0000
0000
1000
0000
0010
0000
1000
0000
0001
0000
0000
1000
0000
0000
0001
0000
,
0000
0000
1000
0000
0100
0000
0010
0000
1000
0000
0000
0100
0000
0000
1000
0000
,
0010
0000
0000
1000
0000
0000
0001
0000
1000
0000
1100
0000
0100
0000
1000
0000
,
0100
1000
0100
1000
0100
1000
0100
1000
0100
0000
1000
0000
2002
0000
0000
0000
,
0010
0000
3003
0000
1000
0000
0100
0000
0010
0000
0000
0001
0000
0000
0010
0000
,
0100
1000
0100
0000
0010
0000
1000
0000
0100
0000
0000
0010
0000
0000
1000
0000
,
0001
0000
1000
0000
0010
0000
1000
0000
0010
0000
1000
0100
0000
0100
1000
0000
,
1000
0000
0100
0000
0010
0000
0001
0000
0010
0000
0001
0100
0000
0100
0001
0000
,
1000
0000
0100
0000
0001
0000
0100
0000
1000
0000
0100
0010
0000
0010
0100
0000
,
1000
0001
1000
0000
0001
0000
0010
0000
0100
0000
1000
0001
0000
0001
1000
0000
,
0001
0000
0010
0000
0100
0000
0010
0000
0001
0000
0100
1000
0000
1000
0010
0000
,
0100
0000
0001
0000
0100
0000
0010
0000
1000
0000
0100
0010
0000
0010
0100
0000
,
0010
0000
0001
0000
1000
0000
0100
0000
0010
0001
0010
0100
1000
0100
0010
0001
,
0010
0100
1000
0100
0010
0100
1000
0100
0010
0100
1000
0001
1000
0001
1000
0010
,
1000
0010
1000
0100
1000
0010
1000
0100
1000
0001
0100
0010
1000
0001
0100
0010
,
1000
0010
1000
0001
0100
0010
0100
0001
1000
0100
1000
0100
1000
0010
0100
0001
,
1000
0010
0100
0001
1000
0010
0100
0001
0010
0001
1000
0100
0010
0001
1000
0100
,
0010
0001
1000
0100
0010
0100
1000
0001
1000
0001
1000
0001
1000
0010
1000
0010
,
1000
0010
1000
0100
1000
0100
1000
0000
0000
0000
0100
0000
1000
0000
0100
0000
,
1000
0100
1000
0001
1000
0100
0001
0100
,
0001
0000
0000
0100
0000
0000
0001
0000
0000
1000
0000
0000
0001
0000
1000
0000
0001
0000
1000
0000
0001
0000
1000
0000
0001
0000
0000
0000
0000
0000
0000
0000
0000
0000
0000
0000
0000
0000
0000
0000
0000
0000
0000
0000
0000
0000
0000
0000
,
1000
0000
0001
1000
0000
1000
0001
0000
1000
0010
0000
0010
,
0100
0000
0100
0001
0000
0001
1000
0000
0001
1000
0000
0010
,
1000
0000
0001
1000
0000
0001
0010
0000
0100
1000
0000
1000
,
0010
0000
0100
0001
0000
0100
0010
0000
0010
1000
0000
1000
,
0100
0000
0100
0010
0000
0001
0100
0000
0100
0010
0000
0010
,
1000
0000
0010
0001
0000
0001
0010
0000
0010
1000
0000
1000
,
0100
0000
0100
1000
0000
0001
1000
0100
0010
0001
0010
0100
,
1000
0000
0000
0000
0000
0100
1000
0100
1000
0100
1000
0001
,
1000
0000
0022
0033
0000
1000
0010
0100
0001
1000
0010
0100
,
0001
0000
2200
0000
0000
0000
0000
0010
0000
0001
0000
0010
,
0000
0011
0000
0000
0000
0000
0000
0000
0000
0000
3300
0000
,
MMMM
0000
0000
0000
0000
1000
0100
0010
0001
0010
0100
1000
,
1100
0000
1100
0000
0000
0001
0010
0100
1000
0100
0010
0001
,
0011
0000
2002
0000
0000
0000
0000
0000
0010
0000
0100
0000
,
0010
0000
0220
0330
0000
3003
0000
0000
0000
MMMM
0000
0000
,
0000
0000
0000
0000
0000
1000
0100
0010
0100
1000
0001
0100
,
0001
1000
0001
0100
0001
0100
0010
1000
0001
0100
0010
1000
,
0001
0000
2M12
0000
0000
0000
0000
0000
0000
0000
0000
0000
,
0000
0000
0000
0000
3003
0000
0000
0000
0000
0000
0000
0000
,
0000
0000
0000
0000
0000
0001
0100
0001
1000
0001
0100
0001
,
0010
0000
0011
0000
0000
0100
0001
1000
0010
0100
0001
1000
,
0010
0000
22MM
00M0
000M
00M0
000M
00M0
000M
00M0
000M
00M0
,
000M
00M0
000M
00M0
000M
00M0
000M
00M0
000M
0000
3300
0000
,
0000
0000
0000
0000
0000
1000
0100
1000
0001
1000
0010
1000
,
0110
0000
0110
0000
0000
0100
0010
0100
0001
1000
0001
1000
,
0010
0000
0000
0000
0101
0000
0000
0000
0000
0000
0001
0000
1000
0000
0000
0000
1000
0000
0001
0000
0000
0000
0001
1000
,
0001
0000
0000
0000
1001
0000
0000
0000
0000
0000
1000
0000
0100
0000
0000
0000
0100
0000
0010
0000
0000
0000
0001
0010
,
0001
0000
0011
0000
0000
0100
0010
0100
0001
0100
0010
0100
,
0001
0000
0000
0000
1100
0000
0000
0000
0000
0000
1000
0000
0001
0000
0000
0000
0001
0000
0100
0000
0000
0000
0010
0100
,
0010
0000
0000
0000
0100
0000
0000
0000
0000
0000
0001
0000
0010
0000
0000
0000
0010
0000
0100
0000
0000
0000
0100
1000
,
0010
0000
0000
0000
0100
0000
0000
0000
0001
0000
1000
0000
0010
0000
0000
0000
0001
1000
0010
0000
0000
0000
1000
0000
,
0100
0000
0000
0000
0010
0000
0001
0000
0000
0000
0001
0000
0100
0000
0000
0000
1000
0100
1000
0000
0000
0000
0100
0000
,
0220
0000
0000
0330
,
0000
0000
0000
0000
0000
1000
0010
0100
0001
1000
0001
0100
,
0001
0010
0001
1000
0001
0010
0100
1000
0100
1000
0100
1000
,
0100
1000
0100
1000
0010
0100
0010
0100
0001
0010
0001
0010
,
0100
0010
0001
1000
0001
1000
0100
0010
0100
1000
0100
1000
,
0010
1000
0001
1000
0100
1000
0100
0010
0001
0010
0100
1000
,
0100
0010
0001
0010
0001
0100
0001
0010
0001
1000
0001
0100
,
0001
1000
0010
1000
0100
1000
0001
1000
0010
0100
0001
1000
,
0010
0100
0001
1000
0100
0010
0100
1000
0010
0100
0001
1000
,
0010
0100
0001
0100
0001
0010
0100
1000
0100
0010
0001
0010
,
0001
0010
0001
0010
0100
0010
0100
0010
0100
1000
0100
1000
,
0100
1000
0100
1000
0100
1000
0100
1000
0010
1000
0010
1000
,
0010
1000
0010
0100
0010
0100
0010
0100
0010
0100
0010
0100
,
0001
0100
0001
0100
0001
0100
0001
0100
1000
0100
0001
0100
,
1000
0100
0001
0100
1000
0100
0001
0100
1000
0100
0001
0010
,
1000
0010
0001
0010
1000
0010
0001
0010
1000
0010
0001
0010
,
1000
0010
0001
0010
0001
0010
0001
1000
0001
1000
0001
1000
,
0010
1000
0100
1000
0010
1000
0011
0000
0000
0000
0000
1000
,
0100
0000
0010
0001
0000
1000
0010
0100
0001
1000
0010
0100
,
0001
0000
1000
0100
0000
0001
0010
0100
1000
0001
0010
0100
,
1000
0000
1000
0001
0000
0001
1000
0000
1000
0010
0000
0010
,
0100
0000
0010
0000
0100
0000
0001
0000
1000
0000
0001
0000
0010
0001
0010
0001
0010
0001
1000
0001
1000
0001
1000
0001
,
0000
0000
0000
0000
MMMM
0000
MMMM
0000
0000
0000
0000
1000
,
0001
1000
0001
0100
0000
0000
0100
0000
1000
0010
0100
0001
,
1000
0001
1000
0100
0010
0100
1000
0000
1000
0100
0000
1000
,
0010
0100
0001
1000
0010
0100
0001
0000
0001
0010
0000
0001
,
0100
0010
1000
0001
0100
0010
1000
0000
1000
0100
0000
1000
,
0100
0010
0001
1000
0100
0010
0001
0000
0001
0010
0000
0001
,
0010
0100
1000
0001
0010
0100
1000
0000
0010
0100
0000
0001
,
0100
0010
1000
0001
0100
0010
1000
0000
1000
0001
0000
1000
,
0001
0100
0001
1000
0001
0100
0001
0000
0001
1000
0000
0100
,
1000
0100
1000
0100
1000
0100
1000
0100
1000
0100
1000
0100
,
1000
0001
1000
0001
0100
0001
1000
0001
1000
0010
1000
0010
,
1000
0001
1000
0001
1000
0100
1000
0001
1000
0001
0100
0010
,
1000
0001
0100
0010
1000
0100
0010
0001
1000
0100
0010
0001
,
0010
0100
1000
0001
1000
0100
1000
0001
1000
0100
1000
0001
,
1000
0010
0100
0001
1000
0010
0100
0001
1000
0001
1000
0010
,
1000
0001
1000
0010
1000
0001
1000
0100
0010
0001
0010
0100
,
2000
0000
0000
0000
,
0000
0000
3000
0000
0000
0000
0000
0000
0000
0000
0000
0000
,
1000
0000
0001
0000
1000
0000
0000
0000
0010
0000
0100
0000
,
0010
0000
0000
0000
;
