#TITLE:Butterfly;
#SUBTITLE:;
#ARTIST:SMILE.dk;
#TITLETRANSLIT:;
#SUBTITLETRANSLIT:;
#ARTISTTRANSLIT:;
#CREDIT:;
#BANNER:butterflyBAN.png;
#BACKGROUND:butterflyBG.png;
#LYRICSPATH:BUTTERFLY.lrc;
#CDTITLE:;
#MUSIC:BUTTERFLY.ogg;
#OFFSET:-7.372;
#SAMPLESTART:28.700;
#SAMPLELENGTH:12.000;
#SELECTABLE:YES;
#DISPLAYBPM:135.000;
#BPMS:0.000=134.940,46.500=404.820,48.000=134.940,79.000=404.820,82.000=134.940,129.500=404.820,131.000=134.940,162.500=404.820,164.000=134.940,195.500=404.820,197.000=134.940;
#STOPS:;
#BGCHANGES:;
// cache tags:
#FIRSTBEAT:0.000;
#LASTBEAT:198.000;
#SONGFILENAME:Songs/Rodd's Revival/BUTTERFLY (Rodd Steps)/Butterfly (Rodd Steps).sm;
#HASMUSIC:1;
#HASBANNER:1;
#MUSICLENGTH:96.246;
// end cache tags

//---------------dance-single - RODD Steps----------------
#NOTES:
     dance-single:
     RODD Steps:
     Challenge:
     10:
     0.904,0.846,0.042,0.135,1.000,592.000,4.000,13.000,14.000,0.000:






1000
0100
0010
0001
0010
0100
1000
0001
0100
0010
1000
0001
0100
0010
1000
0100
,
0010
0100
1000
0001
0100
0010
0100
0001
1000
0100
0010
0001
0010
0100
1000
0001
,
0100
0010
0100
0001
1000
0100
0010
0001
0010
0100
0010
0001
0100
0010
0100
0001
,
1000
0100
0010
0100
1000
0001
0100
0001
0100
0000
0001
0100
0010
0000
1010
0000
,
1100
0000
1000
0100
0010
0000
0001
0000
0100
0000
0010
1000
0100
0000
0010
0000
,
0001
0000
0100
0001
0100
0000
0010
0000
1000
0000
0100
1000
0100
0000
0010
0000
,
0001
0000
0100
0001
0100
0000
0010
0000
0100
0000
0010
0100
0010
0000
0100
0000
,
0001
0000
1000
0100
0010
0000
0100
0000
1000
0000
0001
0100
0001
0000
0101
0000
,
0100
0010
1000
0100
0010
0001
0100
0000
0010
0000
0100
0000
0001
0000
1000
0000
,
0100
1000
0100
0010
0100
0010
0001
0000
0100
0000
0010
0000
0100
0000
0001
0000
,
1000
0100
0010
0001
0010
0100
1000
0000
0001
0000
0100
0000
0010
0000
0100
0000
,
0001
1000
0100
0010
0001
0200
M000
000M
,
0320
0000
0030
0000
1000
0100
0010
0001
0010
0100
1000
0001
0100
0010
0100
0001
,
1000
0100
0010
0001
0010
0100
1000
0001
0100
0010
0100
0001
1000
0100
0010
0100
,
1000
0001
0100
0010
0100
0001
1000
0100
0010
0001
0010
0100
1000
0001
0100
0010
,
0100
0001
1000
0100
0010
0001
0100
0010
1000
0001
0100
0000
0010
0000
0100
0000
,
0001
0000
1000
0000
0100
0010
0001
0010
0100
1000
0001
0100
0010
1000
0001
0100
,
0010
1000
0100
0010
0100
1000
0100
0010
0001
0010
0100
0010
0001
0100
0010
0100
,
0001
1000
0100
0010
0001
1000
0100
0010
0001
0010
0100
1000
0001
0010
0100
1000
,
0001
0100
0001
0100
0010
0100
0010
1000
0010
1000
0100
1000
0200
000M
00M0
00M0
,
00M0
0000
0000
0000
0320
0030
0001
0100
,
0010
0000
1000
0100
0000
0100
0010
0000
0001
0100
0001
0000
0100
0000
0010
0000
,
1000
0000
0100
1000
0000
1000
0100
0000
0010
0100
0010
0000
0001
0000
0100
0000
,
0010
0000
0100
0001
0000
0001
1000
0000
0100
1000
0100
0000
0010
0001
0010
0100
,
1000
0001
0100
0010
0100
0001
1000
0100
0010
0000
0001
0000
0200
0000
0310
1000
,
0100
0000
0010
0000
0002
0000
0000
0003
0100
0000
0010
0000
1000
0000
0100
0010
,
0100
0000
0010
0000
0001
0000
1000
0000
0001
0000
0100
0000
0010
0000
0100
0001
,
1000
0000
0100
0000
0010
0000
0001
0010
0001
0000
0100
0000
0001
0000
0100
0001
,
0100
0000
0010
0000
1000
0000
0100
0010
0001
0000
0100
0000
0010
0000
0100
0001
,
1000
0000
0100
0000
0010
0000
0001
0010
0001
0000
0100
0000
0010
0000
1000
0100
,
1000
0000
0001
0000
0100
0000
0001
0100
0001
0000
0100
0000
0010
1000
0100
0010
,
0001
0010
0100
0000
1000
0000
0001
0000
0100
0000
0010
0000
0100
0010
0100
0010
,
1000
0100
0010
0001
0100
0000
0020
0000
M000
0000
0000
000M
2030
0000
3000
0000
,
0100
0010
0001
0010
0100
1000
0001
0100
0010
0100
0001
1000
0100
0010
0001
0010
,
0100
1000
0100
0010
0100
1000
0001
0100
0010
0100
0001
0100
0010
1000
0100
0010
,
0001
0010
0100
1000
0001
1000
0001
0100
0010
0100
0010
1000
0100
0010
0001
0100
,
0010
0100
0001
1000
0200
0000
0000
0000
,
0310
0001
0010
0100
1000
0001
0100
0010
1000
0001
0100
0010
0100
0001
1000
0100
,
0010
0100
1000
0001
0100
0010
1000
0001
0100
0010
0100
0001
1000
0100
0010
0001
,
0010
0100
1000
0001
0100
0001
0100
0010
0100
0010
1000
0010
1000
0100
1000
0100
,
0010
0001
0100
0010
1000
0001
0100
0000
0010
0000
0200
000M
0000
M000
0000
M000
,
0302
0000
0003
0000
1000
0100
0010
0001
0010
0100
1000
0001
0100
0000
0010
0000
,
0100
0000
0001
0000
1000
0100
0010
0001
0010
0100
1000
0001
0100
0000
0010
0000
,
0100
0000
0001
0000
1000
0100
0010
0100
1000
0001
0100
0010
0100
0000
0001
0000
,
1000
0000
0100
0000
0010
0000
0010
0000
0001
0000
0001
0000
0100
0000
0010
0100
,
0010
0000
0110
0000
0010
1000
0100
0010
0001
0010
0100
1000
0001
0100
0010
0100
,
0001
1000
0100
0010
0001
0010
0100
1000
0001
0100
0010
0100
0001
0100
0010
0100
,
0001
1000
0100
0010
0100
1000
0100
0010
0100
1000
0001
0100
0010
1000
0001
0100
,
0010
1000
0100
0010
0001
0000
0100
0000
0010
0000
0100
0000
0001
0000
2000
0000
,
0M00
00M0
00M0
3200
0300
0000
0000
0000
0000
0000
0000
0000
;

//---------------dance-single - R. Farias----------------
#NOTES:
     dance-single:
     R. Farias:
     Beginner:
     1:
     0.123,0.154,0.010,0.000,0.000,82.000,1.000,0.000,0.000,0.000:

1000
0000
0000
0000
,
0001
0000
0000
0000
,
0100
0000
0000
0000
,
0010
0000
0000
0000
,
1000
0000
0000
0000
,
0001
0000
0000
0000
,
0100
0000
0010
0000
,
1000
0000
0100
0000
,
0010
0000
0000
0000
,
0001
0000
1000
0000
,
0001
0000
0000
0000
,
0100
0000
0010
0000
,
0000
1000
0100
1000
,
0000
0001
0100
0001
,
0000
1000
0000
0100
,
0000
0010
0000
0001
,
0000
1000
0000
0000
,
0000
0001
0000
0000
,
0000
0100
0000
0000
,
0000
0010
0000
0000
,
0000
0000
0000
1000
,
0000
0100
0000
0010
,
0000
0100
0000
1000
,
0000
0001
0000
0100
,
0000
0010
0000
1000
,
0000
0000
0000
0001
,
0000
0000
0000
0100
,
0000
0010
0000
1000
,
0000
0100
0000
0010
,
0000
0000
0000
0001
,
0000
0000
0000
1000
,
0000
0001
0000
0100
,
0000
0010
0000
0000
,
1000
0010
1000
0000
,
0001
0010
0001
0000
,
0100
0000
0010
0000
,
1000
0000
0100
0000
,
0010
0000
0000
0000
,
0001
0000
0000
0000
,
1000
0000
0000
0000
,
0001
0000
0100
0000
,
0000
0010
0000
1000
,
0000
0010
0000
1000
,
0000
0001
0000
1000
,
0000
0100
0010
0001
,
0000
0100
0000
0010
,
0000
1000
0000
0001
,
0000
1000
0000
0100
,
0000
0010
0000
0000
,
0000
0110
0000
0000
;

//---------------dance-single - R. Farias----------------
#NOTES:
     dance-single:
     R. Farias:
     Easy:
     4:
     0.229,0.231,0.000,0.052,0.000,149.000,0.000,5.000,0.000,0.000:

1000
0001
1000
0001
,
1000
0100
1000
0100
,
1000
0010
1000
0010
,
0100
0010
0100
0001
,
1000
0000
0100
0000
,
0010
0000
0001
0000
,
0100
0010
0100
0001
,
1000
0000
0100
0000
,
0010
0000
0100
0000
,
1000
0000
0001
0000
,
0100
0010
0100
0001
,
1000
0100
0020
0000
,
0000
0031
0100
0001
,
0000
0100
0010
0100
,
0000
0010
0000
1000
,
0000
0001
0000
1000
,
0000
0100
0010
0100
,
0000
0010
0001
0010
,
0000
0001
0000
1000
,
0000
0001
0100
0020
,
0000
0000
0000
0000
0000
0030
1000
0000
,
0100
1000
0001
0100
,
0010
0100
0001
1000
,
0100
0010
0100
1000
,
0001
0100
0010
1000
,
0000
0001
0000
0100
,
0000
0010
0000
1000
,
0100
0010
0100
1000
,
0001
0100
0010
1000
,
0000
0001
0000
1000
,
0000
0100
0000
0010
,
0001
0010
0100
1000
,
0001
0200
0000
0000
,
0310
1000
0010
1000
,
0001
1000
0001
0000
,
0100
0000
0010
0000
,
1000
0000
0100
0000
,
0010
0100
1000
0001
,
0100
0010
0100
0001
,
1000
0000
0100
0000
,
0010
0000
0200
0000
,
0000
0310
0001
0010
,
0001
0100
0001
0100
,
0001
0100
0010
0100
,
0010
1000
0000
0100
,
0000
0010
0001
0100
,
0010
1000
0100
1000
,
0010
0100
0001
1000
,
0100
0010
0001
2000
,
0000
0000
3000
0000
;

//---------------dance-single - R. Farias----------------
#NOTES:
     dance-single:
     R. Farias:
     Medium:
     5:
     0.390,0.385,0.000,0.104,0.000,253.000,0.000,10.000,5.000,0.000:

1000
0100
1000
0100
1000
0000
0001
0000
,
0100
0001
0100
0001
0100
0000
0010
0000
,
1000
0100
0010
0001
0100
0000
0010
0000
,
1000
0100
0010
0100
1000
0001
1000
0001
,
1000
0000
0001
0100
0001
0000
0100
0000
,
0010
0000
1000
0010
1000
0000
0100
0000
,
0010
0100
1000
0001
,
0100
0010
1000
0100
0010
0000
0001
0000
,
0100
0000
0010
1000
0010
0000
1000
0000
,
0100
0000
0010
0100
0010
0000
0001
0000
,
0100
0010
1000
0001
,
1000
0000
0100
0000
0020
MM00
0M00
M000
,
0M00
0030
0002
0000
0203
0000
0320
0000
,
1030
0100
1000
0010
0100
0001
1000
0000
,
0100
0020
0130
1000
,
0001
0100
0010
1000
,
0100
0000
0010
0001
0010
0100
1000
0001
,
0100
0010
0100
0001
1000
0100
0010
0000
,
0001
2000
3001
0100
,
0010
1000
0001
0200
,
0000
0000
0000
0000
0000
0300
0010
1000
,
0010
0000
1000
0000
0100
0000
0010
0100
,
0010
0000
0001
0000
0100
0000
0010
1000
,
0100
0000
0010
0000
0100
0000
1000
0001
,
0100
0000
0010
1000
0010
1000
0010
0000
,
1000
0100
0010
0001
,
0100
0000
0010
0000
0100
0000
0001
1000
,
0001
0000
1000
0001
1000
0000
0100
0010
,
0100
1000
0001
0000
0100
0010
1000
0000
,
0100
0000
0010
0000
0100
1000
0001
0000
,
0100
0010
0100
0001
,
1000
0100
0010
0100
,
1000
0000
0002
0000
0000
0000
0000
0003
,
0100
0010
0100
0010
0100
0000
0010
0000
,
1000
0010
1000
0010
1000
0000
0100
0000
,
0010
0000
0001
0010
0001
0000
0100
0010
,
1000
0100
0010
0100
1000
0000
0001
0000
,
0100
0010
0100
0001
1000
0000
0100
0010
,
0001
0010
0100
1000
0001
0000
0100
0000
,
0010
0100
0001
1000
,
0100
0010
0002
0000
,
0000
0003
0100
0010
0100
0010
0100
0000
,
0010
0000
1000
0010
1000
0010
1000
0000
,
0100
0000
0010
0001
0010
0100
1000
0001
,
0100
0010
0100
0000
0001
0000
1000
0000
,
0100
0000
0010
0001
0010
0100
1000
0000
,
0001
0000
0100
0010
1000
0100
0010
0000
,
0100
0000
1000
0001
0100
0010
0100
0000
,
0001
0000
1000
0100
1000
0001
2000
0000
,
0000
0000
0000
3000
0000
0000
0000
0000
;

//---------------dance-single - R. Farias----------------
#NOTES:
     dance-single:
     R. Farias:
     Hard:
     9:
     0.609,0.614,0.010,0.104,0.301,399.000,1.000,10.000,29.000,0.000:

1000
0100
0010
0001
0010
0100
1000
0000
0001
0000
0100
0000
0010
0000
0100
0000
,
0001
1000
0100
0010
0100
1000
0001
0000
0100
0000
0010
0000
0100
0000
0001
0000
,
1000
0010
0100
0001
1000
0010
0100
0000
0010
0000
1000
0000
0100
0000
0010
0000
,
0001
0010
0001
0010
0001
0010
0001
0000
0100
0010
0000
0010
1000
0000
0100
0000
,
0010
0000
0001
0010
0001
0000
0100
0000
0010
0000
0100
0000
0001
0000
1000
0000
,
0100
0000
0010
0100
0010
0000
0001
0000
0100
0000
0010
0000
1000
0000
0100
0000
,
0010
0000
0001
0010
0001
0000
0100
0000
0010
0000
0100
0010
0100
0000
0010
0000
,
1000
0100
0010
0100
1000
0001
0100
0010
,
1000
0000
0100
1000
0100
0000
0010
0000
0001
0000
0100
0010
1000
0000
0100
0000
,
0010
0000
0001
0100
0010
0000
0100
0000
0001
0000
1000
0100
0010
0000
0100
0000
,
1000
0001
0100
0010
0100
0001
1000
0100
,
0010
0100
1000
0001
M2M0
M0M0
M000
M000
,
M310
0000
1000
0100
0010
0001
0010
0100
,
1000
0001
0100
0010
0100
0001
1000
0000
,
0100
0000
0010
0001
0010
0100
1000
0001
,
0100
0010
0100
0001
1000
0100
0010
0000
,
0001
0000
0100
0010
1000
0100
0010
0001
,
0010
0100
1000
0001
0100
0010
0100
0000
,
0001
0000
1000
0100
0010
0001
0100
0010
,
1000
0001
0100
0010
1000
0100
002M
000M
,
000M
0000
0000
000M
0000
0000
000M
0000
000M
0000
0000
0000
0031
0000
0000
0000
0000
0000
0100
0000
0000
0010
0000
0000
,
1000
0000
0100
0010
0000
0010
0001
0000
0100
0000
0010
0000
0100
0000
0001
0000
,
1000
0000
0100
0010
0000
0001
0100
0000
0010
0000
0100
0000
0001
0000
1000
0000
,
0100
0000
0010
0001
0000
0100
0010
0000
0100
0000
0010
0000
1000
0000
0100
0000
,
0010
0000
0001
0000
0100
0010
1000
0100
0010
0001
0100
0010
1000
0000
0000
0100
,
0010
0000
0001
0000
0100
0000
0010
0000
0100
0000
0001
0000
1000
0000
0000
0100
,
0010
0100
1000
0001
0100
0010
2000
0000
,
3200
0000
0302
0000
0023
0000
1030
0100
,
0010
0000
0001
0000
0200
0000
0000
0000
0000
0000
0310
0000
1000
0000
0000
0010
,
1000
0000
0100
0000
0010
0000
0000
0001
0100
0000
0010
0000
1000
0000
0000
0001
,
1000
0000
0100
0000
0010
0000
0000
0001
0100
0000
0010
0000
0100
0000
0001
0000
,
1000
0100
0010
0001
0010
0100
1000
0001
,
0100
0000
0010
0000
1000
0000
0200
M0M0
0000
M0M0
00M0
M000
0310
M000
0000
0000
,
0001
0100
0010
1000
0100
0010
0001
0010
,
0100
1000
0001
0100
0010
0000
0100
0000
,
0001
1000
0100
0010
0100
1000
0001
0100
,
1000
0100
0010
1000
0100
0000
0010
0000
,
0001
0100
0010
1000
0100
0010
0001
0010
,
0100
1000
0001
0100
0010
0000
0100
0000
,
0001
1000
0100
0001
0100
0010
0001
0100
,
1000
0100
0010
1000
0100
0020
0M00
0M0M
,
0M31
0000
0000
0000
0100
0010
1000
0100
0010
0000
0001
0000
0100
0000
0010
0000
,
0100
0000
0001
0000
1000
0100
0010
0001
0100
0000
0010
0000
0100
0000
0001
0000
,
1000
0000
0100
0000
0010
0001
0100
0010
1000
0000
0100
0000
0010
0000
0100
0000
,
1000
0001
0100
0010
1000
0100
0010
0000
,
0110
0000
0000
0000
0010
0001
0100
0010
1000
0000
0100
0000
0010
0000
0100
0000
,
1000
0000
0001
0000
0100
0010
1000
0100
0010
0000
0001
0000
0010
0000
0100
0000
,
1000
0000
0001
0000
0100
0010
1000
0100
0010
0001
0100
0010
1000
0000
0100
0000
,
1000
0001
0100
0010
1000
0001
0100
M02M
,
0M00
000M
M000
0000
1030
0000
0000
0000
0000
0000
0000
0000
0000
0000
0000
0000
;
