#TITLE:Freestyler;
#SUBTITLE:Radio vers.;
#ARTIST:Bomfunk Mcs;
#TITLETRANSLIT:;
#SUBTITLETRANSLIT:;
#ARTISTTRANSLIT:;
#CREDIT:;
#BANNER:free-bn.PNG;
#BACKGROUND:free-bg.PNG;
#LYRICSPATH:;
#CDTITLE:pannpann.png;
#MUSIC:free.mp3;
#OFFSET:-0.380;
#SAMPLESTART:38.921;
#SAMPLELENGTH:12.000;
#SELECTABLE:YES;
#BPMS:0.000=163.820;
#STOPS:;
#BGCHANGES:;
// cache tags:
#FIRSTBEAT:0.000;
#LASTBEAT:468.000;
#SONGFILENAME:Songs/Bemani.se Megapack/(forehead) Freestyler/free.sm;
#HASMUSIC:1;
#HASBANNER:1;
#MUSICLENGTH:175.046;
// end cache tags

//---------------dance-single - funky shit----------------
#NOTES:
     dance-single:
     funky shit:
     Challenge:
     11:
     1.000,1.000,1.000,0.874,0.454,902.000,208.000,153.000,300.000,4.000:

MM11
M11M
MM11
M000
0M00
M000
0M01
001M
,
00M1
0000
0M01
1000
00M1
0000
0M10
0000
M011
0000
0M00
0000
10M1
0000
0M00
0000
,
11M0
0M00
1M1M
000M
00M0
0M00
M000
0M00
,
00M0
000M
01M0
1M00
M010
01M0
001M
1M00
,
1MM1
0000
0000
0000
M000
0000
0000
0000
1M1M
0000
0000
0000
0M00
0000
0000
0000
10M0
0001
1000
0001
1M00
0001
1000
0000
00M1
0000
0000
0000
1M00
0000
0000
0000
,
M001
0M00
00M1
001M
01M0
0M00
10M0
000M
,
00M1
0M00
1M0M
MM01
M10M
0000
MM01
10MM
,
0000
M1M0
0M1M
0000
0M1M
0MM1
0000
M0M1
,
1M0M
0000
0001
0000
1001
0000
0010
0000
0011
0000
0010
0001
0010
0000
0100
0000
,
1100
0000
0100
1000
0010
0000
0010
0000
0110
0000
0010
1000
0100
0000
0010
0000
,
0011
0000
0010
0001
0010
0000
0100
0000
1100
0000
1000
0001
1000
0000
0001
0000
,
1001
0000
0100
0000
0001
0010
0100
1000
0001
1000
0010
1000
0001
0000
0100
0000
,
0001
0000
1000
0000
1MM1
0000
0000
0000
1001
0000
0001
0010
0100
0000
0010
0000
,
0011
0000
0001
0100
0010
0000
1000
0000
1010
0000
1000
0010
0100
0000
0010
0000
,
0110
0000
0010
0100
0001
0000
1000
0000
1001
0000
0001
1000
0001
0000
0100
0000
,
0101
0000
0000
0000
0001
1000
0100
0000
0010
0000
0001
1000
0001
0000
0000
0010
,
0001
0000
0001
0000
M1M1
0000
0000
0000
1010
0000
1000
0001
0010
0000
0010
0000
,
0011
0000
0001
0010
0100
0000
0100
0000
1100
0000
1000
0001
0100
0000
0010
0000
,
0110
0000
1000
0100
0010
0000
0001
0000
1001
0000
0001
0100
0001
0000
1000
0000
,
1001
0000
0001
0000
0100
0010
1000
0100
0010
0001
0100
0010
0100
0000
0010
0000
,
0001
0000
0100
0001
M1M1
0000
0000
0000
0101
0000
0001
0010
0000
0000
0100
0000
,
1100
0000
1000
0100
0000
0000
0001
0000
0101
0000
0010
0100
0000
0000
0010
0000
,
1010
0000
0001
0000
0000
0000
1000
0000
0001
0000
1000
0000
0001
0000
1000
0220
,
0330
0000
0022
0033
0001
1000
0001
0000
0010
0000
1000
0100
0010
0000
0001
0000
,
1001
0000
0000
0110
1001
0000
0000
0000
0101
0000
0001
0100
0010
0000
1000
0000
,
1010
0000
1000
0001
0010
0000
0001
0000
0011
0000
1000
0100
0010
0000
0001
0000
,
0101
0001
1MM1
0000
1010
0000
0110
0011
,
1001
0000
1010
0000
0010
1000
0100
0010
0100
0010
0001
1000
1001
0000
M11M
0000
,
1MM1
0000
0000
0000
M11M
0000
0000
0000
0011
0000
0100
1000
0010
0000
1000
0000
,
1010
0000
0100
1000
0100
0000
1000
0000
1100
0000
0010
0001
0100
0000
0001
0000
,
0101
0000
0000
0000
0110
0000
0000
0000
1MM1
0000
0000
0000
0000
0000
0000
0000
1100
0000
0000
0000
0000
0000
0000
0000
0011
0000
0000
0000
0010
0001
0010
0001
,
0010
0000
0100
0000
0100
1000
0100
0000
0010
0000
0001
0010
0100
0000
M11M
0000
,
0000
0000
1MM1
0000
M11M
0000
0000
0000
0002
0000
2000
0003
0200
3000
0002
0300
,
0000
0003
0000
0000
0200
0000
0020
0000
0302
0000
0230
0000
0023
0000
0300
0030
,
1M1M
0000
0000
0000
1MM1
0000
0000
0000
0002
0000
0020
0003
2000
0030
0002
3000
,
0000
0003
2000
0000
0020
3000
0002
0030
0200
0003
0020
0300
0200
0030
0001
0300
,
M1M1
0000
0000
0000
M11M
0000
0000
0000
0200
0000
0020
0300
0002
0030
2000
0003
,
0000
3000
0000
0000
0200
0000
0020
0300
2000
0030
0002
3000
0200
0003
0000
0300
,
1M1M
1000
M1M0
2M0M
3M02
0003
2M0M
320M
,
0300
M20M
230M
3000
2MM0
3M20
0030
MM20
,
2M30
0000
3000
0000
10M0
0100
0010
0001
0000
0000
0000
0000
0000
0000
0000
0000
1010
0000
0000
0000
1000
0000
0100
0000
0010
0000
0000
0000
0001
0000
0000
0000
,
0011
0000
0001
0100
0010
0000
1000
0000
1100
0000
0100
0010
0100
0000
0010
0000
,
0110
0000
0001
0100
0001
0000
0010
0000
0101
0000
1000
0100
0010
0000
0001
0000
,
1MM1
0000
0000
0000
0001
0100
0010
1000
0100
0010
0001
0011
0000
0000
1000
0000
,
0001
0000
1000
0000
1MM1
0000
0001
0000
0011
0000
0001
0100
0010
0000
0100
0000
,
0101
0000
1000
0010
1000
0000
0100
0000
1010
0000
0001
0010
0100
0000
1000
0000
,
0110
0000
1000
0100
0010
0000
0001
0000
0101
0000
0001
0100
0001
0000
0100
0000
,
1001
0000
0000
0000
0000
0000
0000
0000
0001
0000
0010
0000
0100
0000
0000
0000
0100
0000
0000
0000
1000
0000
0100
0000
0010
0000
0000
0000
0000
0000
0000
0100
,
MM11
0000
0000
0000
M1M1
0000
0000
0000
1001
0000
0001
1000
0100
0000
0010
0000
,
0110
0000
0001
0100
0010
0000
1000
0000
1010
0000
0001
0010
0100
0000
0010
0000
,
1100
0000
0100
1000
0100
0000
1000
0000
1001
0000
0001
1000
0010
0000
0100
0000
,
0110
0000
0000
0000
0001
0010
0100
0010
0001
1000
0100
0010
0000
0000
1000
0000
,
0001
0000
M1M1
0000
1M1M
0000
0110
0000
0101
0000
0001
1000
0100
0000
0010
0000
,
0011
0000
0001
0100
0010
0000
0100
0000
0110
0000
1000
0100
0010
0000
0100
0000
,
1100
0000
1000
0100
0010
0000
0MM1
0000
1M0M
0000
0100
0000
M01M
0000
M10M
0000
,
0010
MM01
01MM
1000
01MM
0M1M
1000
0M0M
,
M00M
0000
0000
0000
1MM2
0000
0000
0000
1003
0000
1000
0100
1000
0000
0010
0000
,
0011
0000
0001
0100
0001
0000
0010
0000
1010
0000
1000
0100
0010
0000
0001
0000
,
1100
0000
1000
0000
1MM1
0000
0000
0000
1000
0000
0100
1000
0100
0000
0100
0010
,
0100
0000
0100
1000
0010
0100
0001
0010
0100
1000
0001
1000
0010
0000
M11M
0000
,
1M1M
0000
0000
0000
21MM
0000
0000
0000
3001
0000
0001
1000
0100
0000
1000
0000
,
1100
0000
0100
1000
0100
0000
0010
0000
0011
0000
0001
0100
0001
0000
0100
0000
,
0110
0000
0000
0000
1000
0000
0000
0000
1M1M
0000
0000
0000
0000
0000
0000
0000
0110
0000
0000
0000
0000
0000
0000
0000
1100
0000
0000
0000
0100
1000
0100
0010
,
0001
0000
1000
0000
0010
0100
0010
0000
0010
0000
1000
0100
1000
0000
1010
0000
,
0000
0000
0110
0000
1MM2
0000
0000
0000
0013
0000
0001
0100
0010
0000
1000
0000
,
1100
0000
1000
0010
0100
0000
0001
0000
0101
0000
0001
0100
0010
0000
1000
0000
,
1010
0000
0010
1000
1MM1
0000
0000
0000
1010
0000
0000
0000
1100
0000
0011
0000
,
0110
0000
0001
0000
0010
0100
0010
0001
0100
0010
1000
0100
1000
0000
1000
0000
,
1M1M
0000
0000
0000
21MM
0000
0000
0000
3010
0000
1000
0100
1000
0000
0001
0000
,
1001
0000
1000
0010
0100
0000
0001
0000
0101
0000
0001
1000
0001
0000
0010
0000
,
0011
0000
0000
0000
0001
0000
0000
0000
M1M1
0000
0000
0000
0000
0000
0000
0000
1100
0000
0000
0000
0000
0000
0000
0000
0001
0000
0000
0000
0010
0100
1000
0001
,
0010
0000
0100
0000
0010
0100
0010
0000
0100
0000
0010
0000
1000
0000
1MM1
0000
,
0000
0000
M11M
0000
1MM1
0000
0000
0000
0002
0000
0200
0003
2000
0300
0002
3000
,
0000
0000
0003
0000
0000
0000
0000
0000
2000
0000
0000
0000
0002
0000
3000
0000
0200
0000
0003
0000
0020
0000
0300
0000
0200
0000
0030
0000
0000
0000
0000
0300
,
M1M1
0000
0000
0000
M22M
0330
0000
0000
0002
0000
2000
0003
0200
3000
0020
0300
,
0000
0030
0002
0000
0020
0003
2000
0030
0020
3000
0002
0030
0200
0003
0001
0300
,
M1M1
0000
0000
0000
2M2M
3030
0000
0000
2000
0000
0200
3000
0002
0300
0200
0003
,
0000
0300
0000
0000
0200
0000
0020
0300
0002
0030
2000
0003
0200
3000
0000
0300
,
1MM1
0000
0000
0000
M22M
0330
0000
0000
2000
0000
0200
3000
0020
0300
2000
0030
,
0000
3000
2000
0000
0020
3000
0002
0030
0200
0003
0020
0300
0200
0030
0010
0300
,
M11M
0000
1M1M
00M0
0M00
M000
1M00
100M
,
10M0
0000
1M00
0001
10M0
0000
100M
0000
001M
0000
00M0
0000
010M
0000
00M0
0000
,
0M10
M000
1MM1
M000
0M00
00M0
000M
00M0
,
0M00
M000
1M00
01M0
M110
0M11
M110
0M01
,
1MM1
0000
0000
0000
00M0
0000
0000
0000
1M1M
0000
0000
0000
0M00
0000
0000
0000
00M1
1000
0001
1000
0M01
1000
0001
1000
00M1
0000
0000
0000
1M00
0000
0000
0000
,
0M10
00M0
100M
01M0
0M10
M000
1M00
00M0
,
1M1M
0000
0000
0000
1001
0000
0022
0033
0202
0303
0000
0000
2200
3300
0220
0330
,
0000
0000
0220
0330
2200
3300
0000
0000
2002
3003
0022
0033
0000
0000
0022
0033
,
0220
0330
0000
0000
1M1M
0000
1000
0000
0010
0000
1000
0100
0010
0000
0001
0000
,
0011
0000
0100
0010
0100
0000
1000
0000
1001
0000
0001
1000
0001
0000
0001
0000
,
1001
0100
M11M
0000
0110
0000
0101
0011
,
0110
0000
0001
0000
0001
0010
0100
0010
0001
1000
0010
0100
0001
0000
11MM
0000
,
1MM1
0000
0000
0000
2M1M
0000
0000
0000
3001
0000
0001
1000
0010
0000
0100
0000
,
0110
0000
0100
0001
1000
0000
0010
0000
1010
0000
1000
0100
0010
0000
0010
0000
,
0011
0000
1000
0000
1MM1
0000
0000
0000
0101
0000
0000
0000
1100
0000
1000
0001
,
1000
0000
1000
0000
1000
0100
0010
0000
0010
0000
0010
0100
1000
0000
0220
0330
,
0202
0303
M0M0
0000
M21M
0000
0000
0000
0310
0000
0100
0010
0100
0000
1000
0000
,
1100
0000
0100
0010
0001
0000
0010
0000
0011
0000
0010
0100
1000
0000
0010
0000
,
0110
1000
1M1M
0000
0110
0000
0011
0001
,
1001
0000
1000
0000
0001
0010
0001
0010
0100
1000
0100
1000
0001
0000
1M1M
0000
,
M1M1
0000
0000
0000
2MM1
0000
0000
0000
3001
0000
1000
0001
0100
0000
0010
0000
,
0110
0000
0001
1000
0100
0000
1000
0000
1100
0000
1000
0010
0100
0000
0001
0000
,
0101
0000
0000
0000
0001
0000
0000
0000
1MM1
0000
0000
0000
0000
0000
0000
0000
1010
0000
0000
0000
0000
0000
0000
0000
1100
0000
0000
0000
0001
0010
0100
1000
,
0100
0000
1000
0000
0001
0100
0010
0000
1000
0000
0001
1000
0001
0000
1M1M
0000
,
0000
0000
0110
0000
M1M1
0000
0000
0000
0002
0000
0200
0003
2000
0300
0002
3000
,
0000
0003
0000
0000
0020
0000
0200
0030
0002
0300
2000
0003
0200
3000
0000
0300
,
M1M1
0000
0000
0000
1MM1
0000
0000
0000
2000
0000
0200
3000
0020
0300
0002
0030
,
0000
0003
2000
0000
0200
3000
0002
0300
0200
0003
2000
0300
0002
3000
0100
0000
,
1MM3
0000
0000
0000
1M1M
0000
0000
0000
2000
0000
0002
3000
0020
0003
2000
0030
,
0000
3000
0000
0000
2000
0000
0020
3000
0200
0030
2000
0300
0020
3000
0000
0000
,
1M3M
0000
0000
0000
M1M1
0000
0000
0000
0002
0000
0020
0003
0200
0030
0020
0302
,
0003
0000
0002
0033
0001
0010
0100
0000
0100
0000
0100
0010
0001
0000
MM11
0000
,
M1M1
0110
2002
0000
0000
0000
0000
0000
,
0000
0000
0000
0000
,
0000
0000
0000
0000
,
0000
0000
0000
0000
,
0000
0000
0000
0000
,
3003
0000
0000
0000
;
