#TITLE:Monkey Business;
#SUBTITLE:;
#ARTIST:kors k;
#TITLETRANSLIT:;
#SUBTITLETRANSLIT:;
#ARTISTTRANSLIT:;
#CREDIT:;
#BANNER:Monkey Business.png;
#BACKGROUND:Monkey Business-bg.png;
#LYRICSPATH:;
#CDTITLE:../CDTitleBRAEDEN.png;
#MUSIC:Monkey Business.ogg;
#OFFSET:0.000;
#SAMPLESTART:79.500;
#SAMPLELENGTH:15.000;
#SELECTABLE:YES;
#DISPLAYBPM:80.000:160.000;
#BPMS:0.000=160.000,43.000=159.836,50.000=80.357,51.000=159.898,58.000=159.977,74.000=159.836,81.000=160.714,83.000=159.898,90.000=159.991,130.000=160.714,131.000=160.000,195.000=159.953,210.000=160.714,211.000=160.000,291.000=160.055;
#STOPS:;
#BGCHANGES:;
// cache tags:
#FIRSTBEAT:4.000;
#LASTBEAT:305.250;
#SONGFILENAME:Songs/Index Tesseract/Monkey Business  - [Braeden]/Monkey Business.sm;
#HASMUSIC:1;
#HASBANNER:1;
#MUSICLENGTH:118.506;
// end cache tags

//---------------dance-single - ----------------
#NOTES:
     dance-single:
     :
     Edit:
     28:
     1.000,1.000,0.160,0.169,1.000,1160.000,19.000,20.000,38.000,1.000:
0000
0000
0000
0000
,
1000
0100
1000
0100
1000
0100
0010
0001
0010
0001
1000
0100
0010
0001
1000
0010
,
0100
0001
1000
0100
0010
0100
1000
0001
0100
0010
1000
0100
0010
0001
1000
0010
,
0100
0001
0100
0010
1000
0001
0010
0100
1000
0001
0100
0010
0100
0001
0010
0001
,
1000
0100
0010
0100
1000
0001
0100
0010
1000
0100
0010
0001
1000
0010
0100
0001
,
1000
0100
0010
0100
1000
0001
0100
0010
1000
0100
0010
0100
1000
0001
0100
0010
,
1000
0001
0100
0010
1000
0001
0010
0100
0010
0100
1000
0001
0100
0010
1000
0100
,
0010
0100
1000
0001
0010
0100
1000
0001
0100
0010
1000
0100
0010
0001
1000
0010
,
0100
0000
0000
0000
0000
0000
0000
0000
0020
0000
1030
0000
0001
0100
0010
1000
,
0001
0010
0100
1000
0100
0010
0001
1000
0100
0010
0001
0010
0100
1000
0001
0100
0010
0000
1000
0000
0000
0000
1000
0000
0010
0000
0000
0000
0100
0000
0000
0000
,
0001
0010
0100
1000
0100
0010
0001
0010
0100
1000
0001
0100
0010
1000
0100
0010
0001
0000
1000
0000
0000
0000
1000
0000
0010
0000
0000
0000
0100
0000
0000
0000
,
0001
0010
0100
1000
0100
0010
0001
1000
0010
0100
0001
0010
0001
1000
0100
0010
0100
1000
0001
0100
0010
1000
0100
0010
0001
0100
0010
1000
0001
0010
0100
0010
,
0001
0000
0000
0000
0000
0000
1000
0000
0020
0000
0000
0000
0130
0000
0000
0000
0001
0100
0010
1000
0001
0000
0010
0000
0100
0000
0000
0000
1000
0000
0100
0000
,
M010
0000
0000
0000
0001
0000
0010
0000
010M
0000
1000
0000
0000
0000
0001
0000
0100
0000
0000
0000
0010
0000
0000
0000
1000
0100
0010
0001
1000
0000
0000
0000
,
1001
0000
0000
0000
0010
0000
0000
0000
0100
0000
0001
0000
0000
0000
0100
0000
0010
0000
0000
0000
1000
0000
0000
0000
0001
1000
0001
1000
0001
0000
0000
0000
,
100M
0010
1000
0010
1000
0000
0000
0000
M010
0100
0010
0100
0010
0000
0000
0000
01M0
0001
0100
0001
0100
0000
0000
0000
0M0M
0000
M000
0000
000M
0000
0000
0000
,
0M00
0000
00M0
0000
0M00
0000
0000
0000
M000
0000
0000
0000
000M
0000
0000
0000
1000
0000
0100
0000
0010
0000
0100
0000
0010
0001
0010
0000
0100
1000
0100
0000
,
1000
0000
0001
0000
1000
0000
0001
0000
0010
0100
0010
0000
1000
0100
0010
0000
0001
0000
1000
0000
0100
0000
0010
0000
0001
0000
0100
0000
0010
1000
0010
0000
,
0100
0001
1000
0001
0010
0000
0100
1000
0100
0000
0010
0000
1000
0100
0020
0000
,
0031
0100
0010
1000
0200
0000
0310
0000
0001
1000
0010
0100
0001
0000
2000
0000
,
3100
0000
1000
0000
0001
1000
0000
1000
0010
0000
0100
0000
0001
1000
0020
0000
,
0130
0001
1000
0100
0040
0030
0040
0030
0001
1000
0010
0100
0001
1000
0100
0000
,
0010
0001
1000
0000
0001
1000
0000
0010
0100
0000
0010
0000
1000
0100
0040
0000
,
0031
0100
0010
1000
0100
0000
0100
0000
0010
0001
0100
0010
1000
0100
1000
0000
,
0001
0100
0010
0000
1000
0100
0010
0001
1000
0010
0100
0001
1010
0000
0000
0000
,
1000
MM0M
0010
MM0M
,
0010
MM0M
0100
M0MM
,
0010
MM0M
0010
M0MM
,
0100
0000
0000
0000
M0MM
0000
0000
0000
1000
0000
0001
1000
1001
0000
0000
0000
,
0010
0000
0000
0000
0000
0000
0000
0000
MM0M
0000
0000
0000
0000
0000
0000
0000
0001
0010
0100
1000
0100
0010
0001
1000
0100
0010
0001
1000
0010
0100
0001
1000
,
0010
0000
0000
0000
0110
0000
0000
0000
0010
0000
0100
0001
0100
0000
0010
0000
,
0010
0000
0000
0000
1000
0000
0000
0000
0001
0000
0000
0000
0000
0000
1000
0000
0100
0000
0000
0000
0010
0000
0000
0000
0001
1000
0001
1000
0001
0000
0100
0000
,
0010
0000
1000
0000
0010
0100
0010
0000
1001
0000
0000
0000
1001
0000
0001
1000
,
0001
0000
1000
0000
0001
0000
1000
0000
0001
0000
1000
0000
0001
0000
1000
0000
0001
0000
1000
0000
0001
0100
0001
0100
0001
0000
0000
0000
0010
0000
1000
0000
,
0010
0000
1000
0000
0010
0000
1000
0000
0010
0000
0100
0000
0001
1000
0001
1000
0001
0000
0010
0000
0100
0000
0000
0000
1000
0000
0000
0000
0001
0010
0100
1000
,
0001
0000
0000
0000
1000
0100
0010
0001
1000
0000
0000
0000
0001
0010
0100
1000
0001
0000
0000
0000
1000
0000
0000
0000
0010
0000
0000
0000
0100
0000
0000
0000
,
0001
0000
0000
0000
0100
0000
0000
0000
0001
0000
0000
0000
1000
0100
0010
0001
1000
0000
0000
0000
0001
0000
0000
0000
1000
0000
0000
0000
0010
0000
0010
0000
,
0100
0000
0000
0000
0000
0000
0000
0000
0000
0000
0000
0000
0100
0000
0000
0000
0000
0000
0000
0000
0000
0000
0000
0000
0001
0000
0000
0000
0000
0000
0000
0000
0000
0000
0000
0000
0001
0000
0000
0000
0000
0000
0000
0000
0000
0000
0000
0000
1000
0000
0000
0000
0000
0000
0000
0000
0000
0000
0000
0000
1000
0000
0000
0000
0000
0000
0000
0000
0000
0000
0000
0000
0100
0000
0000
0000
0000
0000
0000
0000
0000
0000
0000
0000
0100
0000
0000
0000
0000
0000
0000
0000
0000
0000
0000
0000
0010
0000
0000
0000
0000
0000
0000
0000
0000
0000
0000
0000
0010
0000
0000
0000
0000
0000
0000
0000
0000
0000
0000
0000
0001
0000
0000
0000
0000
0000
0100
0000
0000
0000
0000
0000
0010
0000
0000
0000
0000
0000
1000
0000
0000
0000
0000
0000
0001
0000
0000
0000
0000
0000
0000
0000
0000
0000
0000
0000
0000
0000
0000
0000
0000
0000
0000
0000
0000
0000
0000
0000
0010
0000
0000
0000
0000
0000
0000
0000
0100
0000
0000
0000
0000
0000
0000
0000
0001
0000
0000
0000
0000
0000
0000
0000
,
1000
0000
0000
0000
0000
0000
0000
0000
0100
0000
0000
0000
0000
0000
0000
0000
0010
0000
0000
0000
0000
0000
0000
0000
0100
0000
0000
0000
0000
0000
0000
0000
1000
0000
0000
0000
0000
0000
0000
0000
0001
0000
0000
0000
0000
0000
0000
0000
0100
0000
0000
0000
0000
0000
0000
0000
0000
0000
0000
0000
0000
0000
0000
0000
0000
0000
0000
0000
0000
0000
0000
0000
0010
0000
0000
0000
0000
0000
1000
0000
0000
0000
0000
0000
0001
0000
0000
0000
0000
0000
0100
0000
0000
0000
0000
0000
0010
0000
0000
0000
0000
0000
0000
0000
0000
0000
0000
0000
0000
0000
0000
0000
0000
0000
0000
0000
0000
0000
0000
0000
0001
0000
0000
0000
0000
0000
0010
0000
0000
0000
0000
0000
0100
0000
0000
0000
0000
0000
1000
0000
0000
0000
0000
0000
0010
0000
0000
0000
0000
0000
0100
0000
0000
0000
0000
0000
0001
0000
0000
0000
0000
0000
1000
0000
0000
0000
0000
0000
0100
0000
0000
0000
0000
0000
0010
0000
0000
0000
0000
0000
0001
0000
0000
0000
0000
0000
1000
0000
0000
0000
0000
0000
,
0010
0100
0001
0010
0001
1000
0100
0010
0100
1000
0001
0100
0010
1000
0001
0010
0100
1000
0001
0100
0010
1000
0001
0100
0001
0100
0010
1000
0001
0100
0010
0100
,
0001
1000
0100
0010
0001
0100
0010
1000
0001
0010
0100
1000
1001
0000
1000
0100
,
1000
0000
0100
0000
1000
0000
0100
0000
1000
0000
0100
0000
1000
0000
0100
0000
1000
0000
0100
0000
0010
0001
1000
0100
0010
0000
0000
0000
0001
0000
0000
0000
,
0100
0000
0010
0000
1000
0000
0001
0100
0010
0000
1000
0000
0004
0000
0203
0320
,
0230
0000
0320
0000
1030
0100
0010
0001
1000
0000
0000
0000
0010
0100
0001
1000
0010
0000
0000
0000
0100
0000
0000
0000
0002
0000
0000
0000
0103
0000
0000
0000
,
2000
0000
0000
0000
3010
0000
0000
0000
0100
0000
0000
0000
0001
0010
0100
1000
0001
0000
0000
0000
1000
0010
0100
0001
1000
0000
0000
0000
0010
0000
0100
0000
,
0001
0000
0000
1000
0000
0000
0100
0000
0000
0010
0000
0000
0001
0000
0000
0100
0000
0000
0010
0000
0000
1000
0000
0000
0010
0000
0000
1000
0000
0000
0100
0000
0000
0010
0000
0000
0001
0000
0000
0000
0000
0000
1000
0000
0100
0000
0010
0000
,
0100
0000
0000
0000
0000
0000
0000
0000
1000
0000
0000
0000
0000
0000
0000
0000
0001
0000
0000
0000
0000
0000
0000
0000
0100
0000
0000
0000
0000
0000
0000
0000
0010
0000
0000
0000
0000
0000
0000
0000
1000
0000
0000
0000
0000
0000
0000
0000
0100
0000
0000
0000
0000
0000
0000
0000
0000
0000
0000
0000
0000
0000
0000
0000
0000
0000
0000
0000
0000
0000
0000
0000
0040
0000
0000
0000
0000
0000
0000
0000
0000
0000
0000
0000
0000
0000
0000
0000
0000
0000
0000
0000
0000
0000
0000
0000
0031
0000
0000
0000
0000
0000
0000
0000
0000
0000
0000
0000
0000
0000
0000
0000
0000
0000
0000
0000
0000
0000
0000
0000
4000
0000
0000
0000
0000
0000
0000
0000
0000
0000
0000
0000
0000
0000
0000
0000
0000
0000
0000
0000
0000
0000
0000
0000
3001
0000
0000
0000
0000
0000
0010
0000
0000
0000
0000
0000
0100
0000
0000
0000
0000
0000
1000
0000
0000
0000
0000
0000
0001
0000
0000
0000
0000
0000
0100
0000
0000
0000
0000
0000
0010
0000
0000
0000
0000
0000
1000
0000
0000
0000
0000
0000
,
0100
0010
0100
1000
0001
0100
0010
1000
0100
0010
0100
1000
0001
0100
0010
1000
0100
0010
0001
0010
0100
1000
0001
0100
0010
1000
0001
0100
0010
1000
0100
0010
,
0100
0000
1000
0000
0001
0100
0010
1000
0001
0000
0000
0000
1000
0100
0010
0001
1000
0010
0100
0001
1000
0100
0010
0001
1000
0000
0000
0000
0010
0000
0100
0000
,
0000
0001
0100
0000
0010
0100
0000
0001
0100
0000
0010
0000
1000
0000
0100
0010
,
0000
0100
1000
0000
0100
0010
0000
0001
0010
0000
0100
0000
1000
0000
0100
0010
,
0000
0100
1000
0000
0001
0100
0000
0010
1000
0000
0001
0000
0100
0000
0010
1000
,
0000
0000
0100
0000
0010
0000
0000
0000
0001
0010
0100
1000
0001
0100
0010
1000
0100
0000
0000
0000
0000
0000
0000
0000
1001
0000
0000
0000
0001
0000
0020
0000
,
0000
0130
2000
0000
3001
0200
0000
0310
1000
0000
0100
0000
1001
0000
0001
0200
,
0000
0310
2000
0000
3100
0020
0000
0031
0100
0000
0004
0000
0103
0000
0010
1000
,
0000
0100
0010
0000
0100
1000
0000
0001
0100
0000
0040
0000
1030
0000
0100
0010
,
0000
0000
0001
0000
0010
0000
0000
0000
0100
0000
1000
0000
0000
0000
0001
0000
0100
0010
0100
0000
0001
1000
0001
0000
1001
0000
0000
0000
0100
0000
0010
0000
,
0000
0001
0010
0000
0100
1000
0000
0001
0100
0000
0020
0000
1031
0000
0000
0010
,
0000
0000
0100
0000
0000
0010
0000
0000
1001
0000
0200
0000
0310
0000
1000
0100
,
0000
0010
0100
0000
1000
0001
0000
0100
0010
0000
1000
0100
0000
1000
0100
0000
,
0010
0000
0001
0000
0000
0000
0010
0000
0100
0000
0000
0000
1000
0000
0001
0000
0000
0000
0100
0000
0010
0000
0000
0000
1000
0100
0010
0001
1000
0100
1000
0001
,
0010
0100
1000
0001
0100
0010
1000
0001
0100
0010
1000
0100
0010
0100
1000
0001
0100
0010
1000
0100
0010
0100
0010
0100
0010
0001
0100
0010
1000
0001
0010
0001
,
1000
0100
1000
0001
0010
0100
1000
0001
0100
0010
1000
0001
0100
0010
1000
0001
0010
0100
1000
0001
0010
0001
1000
0100
0010
0100
1000
0001
0010
0100
1000
0001
,
0100
0010
1000
0100
0010
0100
1000
0001
0100
0010
1000
0100
0010
0100
1000
0001
0010
0100
1000
0001
0100
0010
1000
0100
0010
0100
1000
0001
0100
0010
1000
0001
,
0010
0100
1000
0001
0100
0010
1000
0100
0010
0100
1000
0001
0010
0000
0000
0000
0001
1000
0001
0000
0010
0100
0010
0000
1000
0001
0100
0010
1000
0001
0010
0100
,
1000
0001
0100
0010
1000
0100
0010
0100
1000
0001
0100
0010
1000
0001
0010
0001
1000
0100
0010
0100
1000
0001
0100
0010
0100
0001
0010
0001
1000
0100
0010
0100
,
1000
0001
0100
0010
1000
0100
0010
0001
1000
0010
0100
0001
0010
0001
1000
0100
0010
0100
1000
0001
0010
0100
1000
0001
0100
0010
0100
0001
0010
0001
1000
0001
,
1000
0001
0100
0001
0100
0001
1000
0010
1000
0010
0100
0001
1000
0100
0010
0100
1000
0001
0010
0100
1000
0001
0100
0010
1000
0001
0010
0001
1000
0100
0010
0100
,
1000
0001
0100
0010
0100
0001
0100
0010
0100
0001
1000
0001
1000
0000
0000
0000
0000
0000
0000
0000
0000
0000
0000
0000
1001
0000
0000
0000
0010
0000
0100
0000
,
0010
0100
0010
0100
0010
0100
0010
0100
0010
0100
0010
0000
1000
0000
0001
0100
,
0001
0100
0001
0100
0001
0100
0001
1000
0100
0000
1000
0010
0100
0000
0001
0100
,
0010
0000
1000
0000
0100
0000
0010
0000
0100
0000
1000
0000
0001
0000
0100
0000
0010
0000
0000
0000
1000
0000
0000
0000
0001
0010
0100
1000
0001
0010
0100
1000
,
0001
0000
0000
0000
0100
0010
0100
0001
1000
0100
0010
0100
1000
0000
0001
0100
,
0001
0100
0001
0100
0001
0100
0001
0100
0001
0000
0010
0000
0100
0000
1000
0000
,
0010
0000
0100
0001
0100
0000
0010
1000
0010
0000
0100
0000
0001
0000
0100
0010
,
0100
0000
0001
0000
1000
0000
0000
0100
0010
0000
0001
0000
1000
0010
0100
0001
,
1000
0000
0100
0000
0010
0001
0000
0000
0000
0000
0000
0000
0000
0000
0000
0000
;

//---------------dance-single - ----------------
#NOTES:
     dance-single:
     :
     Hard:
     18:
     1.000,1.000,0.270,0.262,1.000,919.000,32.000,31.000,38.000,1.000:
0000
0000
0000
0000
,
1000
0100
1000
0100
1000
0100
0010
0001
0010
0001
1000
0100
0010
0001
1000
0010
,
0100
0001
1000
0100
0010
0100
1000
0001
0100
0010
1000
0100
0010
0001
1000
0010
,
0100
0001
0100
0010
1000
0001
0010
0100
1000
0001
0100
0010
0100
0001
0010
0001
,
1000
0100
0010
0100
1000
0001
0100
0010
1000
0100
0010
0001
1000
0010
0100
0001
,
1000
0100
0010
0100
1000
0001
0100
0010
1000
0100
0010
0100
1000
0001
0100
0010
,
1000
0001
0100
0010
1000
0001
0010
0100
0010
0100
1000
0001
0100
0010
1000
0100
,
0010
0100
1000
0001
0010
0100
1000
0001
0100
0010
1000
0100
0010
0001
1000
0010
,
0100
0000
0000
0000
0000
0000
0000
0000
0020
0000
1030
0000
0001
0100
0010
1000
,
0004
0000
0000
0003
0400
0000
0000
0300
0010
1000
0000
1000
0010
0000
0100
0000
,
0004
0000
0000
0000
0403
0000
0000
0000
0310
1000
0000
1000
0010
0000
0100
0000
,
0004
4003
3040
0430
,
0301
0000
0000
0000
0000
0000
1000
0000
0020
0000
0000
0000
0130
0000
0000
0000
0001
0100
0010
1000
0001
0000
0010
0000
0100
0000
0000
0000
1000
0000
0100
0000
,
M010
0000
0001
0010
010M
1000
0000
0001
0100
0000
0010
0000
4000
0000
3001
0000
,
1001
0000
0010
0000
0100
0001
0000
0100
0010
0000
1000
0000
0004
0000
0003
0000
,
400M
0000
3000
0000
M040
0000
0030
0000
04M0
0000
0300
0000
0M0M
M000
000M
0000
,
0M00
00M0
0M00
0000
M000
0000
000M
0000
1000
0100
0010
0100
0040
0030
0040
0030
,
0001
1000
0001
1000
0040
0030
0040
0030
0100
0001
0100
0010
1000
0100
0040
0000
,
0130
1000
0001
1000
0010
0000
0100
0001
0100
0000
0010
0000
1000
0100
0040
0000
,
0031
0100
0010
1000
0400
0000
0310
0000
0001
1000
0010
0100
0001
0000
0040
0000
,
0130
0000
1000
0000
0001
1000
0000
1000
0010
0000
0100
0000
0001
1000
0020
0000
,
0130
0001
1000
0100
0040
0030
0040
0030
0001
1000
0010
0100
0001
1000
0100
0000
,
0010
0001
1000
0000
0001
1000
0000
0010
0100
0000
0010
0000
1000
0100
0040
0000
,
0031
0100
0010
1000
0100
0000
0100
0000
0010
0001
0100
0010
1000
0100
1000
0000
,
0001
0100
0010
0000
1000
0100
0010
0001
1000
0010
0100
0001
1010
0000
0000
0000
,
1000
MM0M
0010
MM0M
,
0010
MM0M
0100
M0MM
,
0010
MM0M
0010
M0MM
,
0100
0000
0000
0000
M0MM
0000
0000
0000
1000
0000
0001
1000
1001
0000
0000
0000
,
0010
MM0M
0040
0000
,
1030
0000
0000
0000
0110
0000
0000
0000
0010
0000
0100
0001
0100
0000
0010
0000
,
0010
0000
0000
0000
1000
0000
0000
0000
0001
0000
0000
0000
0000
0000
1000
0000
0100
0000
0000
0000
0010
0000
0000
0000
0001
1000
0001
1000
0001
0000
0100
0000
,
0010
0000
1000
0000
0010
0100
0010
0000
1001
0000
0000
0000
1001
0000
0001
1000
,
0001
0000
1000
0000
0001
0000
1000
0000
0001
0000
1000
0000
0001
0000
1000
0000
0001
0000
1000
0000
0001
0100
0001
0100
0001
0000
0000
0000
0010
0000
1000
0000
,
0010
0000
1000
0000
0010
0000
1000
0000
0010
0000
0100
0000
0001
1000
0001
1000
0001
0000
0010
0000
0100
0000
0000
0000
1000
0000
0000
0000
0001
0010
0100
1000
,
0001
0000
0000
0000
1000
0100
0010
0001
1000
0000
0000
0000
0001
0010
0100
1000
0001
0000
0000
0000
1000
0000
0000
0000
0010
0000
0000
0000
0100
0000
0000
0000
,
0001
0000
0000
0000
0100
0000
0000
0000
0001
0000
0000
0000
1000
0100
0010
0001
1000
0000
0000
0000
0001
0000
0000
0000
1000
0000
0000
0000
0010
0000
0010
0000
,
0100
0000
0000
0100
0000
0000
0001
0000
0000
0001
0000
0000
1000
0000
0000
1000
0000
0000
0100
0000
0000
0100
0000
0000
0010
0000
0000
0010
0000
0000
0004
0000
0000
0000
0000
0000
1003
0000
0000
0000
0000
0000
0010
0000
0100
0000
0001
0000
,
1000
0000
0100
0000
0010
0000
0100
0000
1000
0000
0001
0000
0100
0000
0000
0000
0000
0000
0040
0000
0000
0000
0000
0000
1030
0000
0000
0000
0000
0000
0400
0000
0000
0000
0000
0000
4300
0000
0000
3400
0000
0000
0340
0000
0000
0034
0000
0000
,
0043
0000
0430
0000
4300
0000
3004
0000
0403
0000
0340
0000
4030
0000
3400
0000
0340
0000
0034
0000
1003
0000
0001
0000
1000
0100
0010
0001
1000
0100
0010
0100
,
1000
0001
0100
0010
1000
0100
0010
0001
1000
0010
0100
0001
1001
0000
1000
0100
,
1000
0000
0100
0000
1000
0000
0100
0000
1000
0000
0100
0000
1000
0000
0100
0000
1000
0000
0100
0000
0010
0001
1000
0100
0010
0000
0000
0000
0001
0000
0000
0000
,
0100
0000
0010
0000
1000
0000
0001
0100
0010
0000
1000
0000
0004
0000
0203
0320
,
0230
0000
0320
0000
1030
0100
0010
0001
1000
0000
0000
0000
0010
0100
0001
1000
0010
0000
0000
0000
0100
0000
0000
0000
0040
0000
0000
0000
0130
0000
0000
0000
,
4000
0000
0000
0000
3010
0000
0000
0000
0100
0000
0000
0000
0001
0010
0100
1000
0001
0000
0000
0000
1000
0010
0100
0001
1000
0000
0000
0000
0010
0000
0100
0000
,
0001
0000
0000
1000
0000
0000
0100
0000
0000
0010
0000
0000
0001
0000
0000
0100
0000
0000
0010
0000
0000
1000
0000
0000
0010
0000
0000
1000
0000
0000
0100
0000
0000
0010
0000
0000
0001
0000
0000
0000
0000
0000
1000
0000
0100
0000
0010
0000
,
0100
0000
1000
0000
0001
0000
0100
0000
0010
0000
1000
0000
0100
0000
0000
0000
0000
0000
0040
0000
0000
0000
0000
0000
0031
0000
0000
0000
0000
0000
4000
0000
0000
0000
0000
0000
3002
0000
0000
0023
0000
0000
0230
0000
0000
2300
0000
0000
,
3002
0000
0203
0000
0320
0000
2030
0000
3200
0000
0320
0000
0032
0000
0023
0000
0230
0000
2300
0000
3002
0000
0203
0000
0310
1000
0001
0100
0010
1000
0100
0010
,
0100
0000
1000
0000
0001
0100
0010
1000
0001
0000
0000
0000
1000
0100
0010
0001
1000
0010
0100
0001
1000
0100
0010
0001
1000
0000
0000
0000
0010
0000
0100
0000
,
0000
0001
0100
0000
0010
0100
0000
0001
0100
0000
0010
0000
1000
0000
0100
0010
,
0000
0100
1000
0000
0100
0010
0000
0001
0010
0000
0100
0000
1000
0000
0100
0010
,
0000
0100
1000
0000
0001
0100
0000
0010
1000
0000
0001
0000
0100
0000
0010
1000
,
0000
0000
0100
0000
0010
0000
0000
0000
0001
0010
0100
1000
0001
0100
0010
1000
0100
0000
0000
0000
0000
0000
0000
0000
1001
0000
0000
0000
0001
0000
0020
0000
,
0000
0130
2000
0000
3001
0200
0000
0310
1000
0000
0100
0000
1001
0000
0001
0200
,
0000
0310
2000
0000
3100
0020
0000
0031
0100
0000
0004
0000
0103
0000
0010
1000
,
0000
0100
0010
0000
0100
1000
0000
0001
0100
0000
0040
0000
1030
0000
0100
0010
,
0000
0000
0001
0000
0010
0000
0000
0000
0100
0000
1000
0000
0000
0000
0001
0000
0100
0010
0100
0000
0001
1000
0001
0000
1001
0000
0000
0000
0100
0000
0010
0000
,
0000
0001
0010
0000
0100
1000
0000
0001
0100
0000
0020
0000
1031
0000
0000
0010
,
0000
0000
0100
0000
0000
0010
0000
0000
1001
0000
0200
0000
0310
0000
1000
0100
,
0000
0010
0100
0000
1000
0001
0000
0100
0010
0000
1000
0100
0000
1000
0100
0000
,
0010
0000
0000
0001
0000
0000
0000
0000
0000
0010
0000
0000
0100
0000
0000
0000
0000
0000
1000
0000
0000
0001
0000
0000
0000
0000
0000
0100
0000
0000
0010
0000
0000
0000
0000
0000
1000
0000
0100
0000
0010
0000
0001
0000
0010
0000
0100
0000
,
1000
0000
0000
0001
0010
0100
1000
0001
0100
0010
1000
0100
0010
0100
1000
0001
0010
0100
1000
0001
0100
0010
0100
0001
,
1000
0100
0010
0100
1000
0001
0010
0100
1000
0001
0100
0010
1000
0100
0010
0100
1000
0001
0100
0010
1000
0100
0010
0100
,
1000
0001
0010
0100
1000
0001
0010
0100
1000
0001
0100
0010
0100
0001
1000
0100
0010
0100
1000
0001
0100
0010
1000
0100
,
0010
0000
0000
0000
0000
0000
0000
0000
0100
0000
0000
0000
0000
0000
0000
0000
1000
0000
0000
0000
0000
0000
0000
0000
0001
0000
0000
0000
0000
0000
0000
0000
0010
0000
0000
0000
0000
0000
0000
0000
0100
0000
0000
0000
0000
0000
0000
0000
1000
0000
0000
0000
0000
0000
0000
0000
0001
0000
0000
0000
0000
0000
0000
0000
0100
0000
0000
0000
0000
0000
0000
0000
0010
0000
0000
0000
0000
0000
0000
0000
0000
0000
0000
0000
0000
0000
0000
0000
0000
0000
0000
0000
0000
0000
0000
0000
0001
0000
0000
0000
0000
0000
1000
0000
0000
0000
0000
0000
0001
0000
0000
0000
0000
0000
0000
0000
0000
0000
0000
0000
0010
0000
0000
0000
0000
0000
0100
0000
0000
0000
0000
0000
0010
0000
0000
0000
0000
0000
0000
0000
0000
0000
0000
0000
1000
0000
0000
0000
0000
0000
0000
0000
0100
0000
0000
0000
0000
0000
0000
0000
0010
0000
0000
0000
0000
0000
0000
0000
0001
0000
0000
0000
0000
0000
0000
0000
0010
0000
0000
0000
0000
0000
0000
0000
0100
0000
0000
0000
0000
0000
0000
0000
,
1000
0001
0100
0010
0100
0001
1000
0100
0010
0100
1000
0001
0010
0100
1000
0001
0100
0010
1000
0100
0010
0100
1000
0001
,
0100
0010
1000
0100
1000
0001
0010
0100
1000
0001
0100
0010
1000
0001
0010
0100
1000
0001
0100
0010
0100
0001
1000
0010
,
0100
0001
1000
0100
0010
0100
1000
0001
0010
0100
1000
0001
0100
0010
0100
0001
1000
0100
0010
0100
1000
0001
0100
0010
,
1000
0000
0000
0000
0000
0000
0000
0000
0100
0000
0000
0000
0000
0000
0000
0000
0010
0000
0000
0000
0000
0000
0000
0000
0001
0000
0000
0000
0000
0000
0000
0000
0100
0000
0000
0000
0000
0000
0000
0000
0010
0000
0000
0000
0000
0000
0000
0000
1000
0000
0000
0000
0000
0000
0001
0000
0000
0000
0000
0000
1000
0000
0000
0000
0000
0000
0001
0000
0000
0000
0000
0000
1000
0000
0000
0000
0000
0000
0000
0000
0000
0000
0000
0000
0000
0000
0000
0000
0000
0000
0000
0000
0000
0000
0000
0000
0000
0000
0000
0000
0000
0000
0000
0000
0000
0000
0000
0000
0000
0000
0000
0000
0000
0000
0000
0000
0000
0000
0000
0000
0000
0000
0000
0000
0000
0000
0000
0000
0000
0000
0000
0000
0000
0000
0000
0000
0000
0000
0000
0000
0000
0000
0000
0000
1001
0000
0000
0000
0000
0000
0000
0000
0000
0000
0000
0000
0000
0000
0000
0000
0000
0000
0000
0000
0000
0000
0000
0000
0010
0000
0000
0000
0000
0000
0000
0000
0000
0000
0000
0000
0100
0000
0000
0000
0000
0000
0000
0000
0000
0000
0000
0000
,
0010
0100
0010
0100
0010
0100
0010
0100
0010
0100
0010
0000
1000
0000
0001
0100
,
0001
0100
0001
0100
0001
0100
0001
1000
0100
0000
1000
0010
0100
0000
0001
0100
,
0010
0000
1000
0000
0100
0000
0010
0000
0100
0000
1000
0000
0001
0000
0100
0000
0010
0000
0000
0000
1000
0000
0000
0000
0001
0010
0100
1000
0001
0010
0100
1000
,
0001
0000
0000
0000
0100
0010
0100
0001
1000
0100
0010
0100
1000
0000
0001
0100
,
0001
0100
0001
0100
0001
0100
0001
0100
0001
0000
0010
0000
0100
0000
1000
0000
,
0010
0000
0100
0001
0100
0000
0010
1000
0010
0000
0100
0000
0001
0000
0100
0010
,
0100
0000
0001
0000
1000
0000
0000
0100
0010
0000
0001
0000
1000
0010
0100
0001
,
1000
0000
0100
0000
0010
0001
0000
0000
0000
0000
0000
0000
0000
0000
0000
0000
;
