#TITLE:GHOST REVIVAL;
#SUBTITLE:;
#ARTIST:L.E.D.;
#TITLETRANSLIT:;
#SUBTITLETRANSLIT:;
#ARTISTTRANSLIT:;
#CREDIT:;
#BANNER:GhostRevivalBNR.PNG;
#BACKGROUND:GhostRevivalBG.PNG;
#LYRICSPATH:;
#CDTITLE:;
#MUSIC:L.E.D. - Ghost Revival.mp3;
#OFFSET:-0.080;
#SAMPLESTART:40.542;
#SAMPLELENGTH:12.000;
#SELECTABLE:YES;
#BPMS:0.000=148.000;
#STOPS:;
#BGCHANGES:;
// cache tags:
#FIRSTBEAT:0.000;
#LASTBEAT:299.750;
#SONGFILENAME:Songs/Ace Megapack/Ghost Revival/GhostRevival.sm;
#HASMUSIC:1;
#HASBANNER:1;
#MUSICLENGTH:122.548;
// end cache tags

//---------------dance-single - ----------------
#NOTES:
     dance-single:
     :
     Hard:
     10:
     1.000,1.000,0.424,0.000,1.000,948.000,52.000,0.000,0.000,0.000:



1001
0000
0000
0000
,
1001
0000
0000
1000
0100
0000
0110
0000
0000
0000
1001
0000
1010
0000
0000
0000
,
0110
0000
0000
0110
0000
0000
1001
0000
0000
0000
1100
0000
0110
0000
0000
0000
,
1100
0000
0011
0000
0000
0001
1000
0000
,
0001
0000
1000
0010
0000
0010
1000
0000
1000
0100
0000
0000
0000
0000
0000
0000
,
1100
0000
0000
0010
0001
0000
1000
0000
0000
0000
0010
0000
0100
0000
0000
0000
,
0001
0000
0000
1000
0000
0000
0100
0000
0010
0000
0100
0000
1000
0000
0010
0000
,
1010
0000
0000
0010
1000
0000
0000
0000
0000
0000
0001
0000
1000
0000
0000
0000
,
0100
0010
0001
1000
0000
0010
0100
0000
,
0110
0000
0000
0000
0000
0000
0000
0000
0000
0000
0000
0000
0000
0000
0000
0000
1000
0100
0010
0001
1000
0000
0100
0000
0010
0000
0001
0000
1000
0000
0100
0000
,
0010
0000
0000
0000
0110
0000
0001
1000
0100
0010
0000
0000
0110
0000
0000
0001
,
1000
0000
0000
0000
1001
0000
0000
0010
1000
0100
0000
0000
1100
0000
0000
0010
,
0100
0000
0000
0000
0110
0000
1000
0010
0100
0001
0000
0000
0101
0000
0000
0010
,
1000
0000
0000
0000
1010
0000
0000
1000
0100
0010
0000
0001
1000
0000
0001
1000
,
1001
0000
0000
0000
1001
0000
1000
0010
0100
0001
0000
0000
0101
0000
0000
0010
,
1000
0000
0000
0000
1010
0000
0000
1000
0100
1000
0000
0000
1100
0000
0000
0010
,
0001
1000
0001
1000
0001
1000
0001
1000
0001
1000
0001
1000
0001
1000
0001
1000
,
1001
0000
1001
0000
0000
1001
0000
0000
1001
0000
0000
1001
0000
0000
1001
0000
,
1000
0100
0010
0100
1000
0010
0100
0001
0010
0100
0010
0001
1000
0010
0100
0001
,
1000
0100
0010
0001
1000
0010
1000
0001
0010
0001
1000
0100
0010
0100
1000
0001
,
0010
0100
1000
0001
0010
0100
0010
0001
1000
0010
0100
0010
0100
0010
1000
0100
,
0010
0001
1000
0100
0010
0001
1000
0000
0100
0000
0010
0000
0001
0000
1000
0000
0010
0000
0100
0000
0001
0000
0100
0000
0010
0000
1000
0000
0100
0000
0010
0000
,
0001
1000
0010
0100
0010
1000
0100
0010
0001
0010
0100
0010
0001
1000
0100
0010
,
0100
1000
0100
0010
0001
1000
0010
0100
0010
1000
0100
0010
0100
1000
0001
1000
,
0001
0100
0010
0100
0010
0100
0010
0100
0010
0100
0010
0100
0010
0100
1001
0000
,
1001
0000
1001
0000
0000
1001
0000
0000
1001
0000
0000
1001
0000
0000
1001
0000
,
0001
1000
0001
0100
0010
0100
0001
1000
0100
0010
0100
1000
0010
0100
0010
0100
,
0010
0100
0001
1000
0100
0010
0001
1000
0010
0100
0010
1000
0100
0010
0001
1000
,
0010
0100
0001
0010
0100
1000
0001
0010
0100
1000
0010
0100
0010
1000
0100
0010
,
0001
1000
0010
0100
0001
1000
0100
0010
0100
0010
0100
0010
0001
1000
0010
0100
,
0001
0010
0001
0010
0001
1000
0010
1000
0100
0010
0001
1000
0100
1000
0100
0010
,
0001
0100
0001
0100
0010
1000
0100
0010
0100
1000
0010
0100
0010
0100
0010
1000
,
0100
0010
0001
1000
0010
0100
0001
1000
0100
0010
0001
1000
0100
0010
0100
1000
,
0001
0000
1001
0000
0000
0001
1000
0000
1001
0000
0000
1100
0000
0000
1010
0000
,
0010
1000
0100
1000
0010
0100
0001
0010
0001
0100
0010
1000
0100
0010
0001
0010
,
0100
1000
0010
0100
0001
1000
0100
0010
0001
1000
0001
0100
0010
0100
0001
1000
,
0100
0010
0001
0010
0001
1000
0010
1000
0100
0010
0100
1000
0010
0100
0001
1000
,
0100
0010
0001
1000
0100
0000
0010
0001
1000
0000
0100
0000
0010
0000
0100
0000
1000
0000
0010
0000
0100
0000
0001
0000
1000
0000
0100
0000
0010
0000
0001
0000
,
1000
0010
0100
0010
1000
0100
0010
0100
1000
0010
0100
0001
0010
0100
0010
0001
,
0100
0010
0100
0001
1000
0100
0010
0100
1000
0001
1000
0001
1000
0100
0010
0001
,
1000
0010
0100
0001
1000
0100
0010
0100
1000
0001
0100
0010
0100
0010
1000
0100
,
0010
0001
1000
0100
0010
0100
1000
0010
0100
0001
1000
0100
0010
0001
0100
0010
,
0100
0001
1000
0100
0010
0100
1000
0010
,
0100
0001
1000
0001
0100
0010
0100
0001
,
1000
0100
0010
0001
1000
0010
0100
0010
,
1000
0100
0010
0001
1000
0001
1000
0100
,
0010
0001
1000
0010
0100
0010
1000
0100
,
0010
0001
1000
0001
1000
1000
0100
0100
,
0010
0010
0001
1000
0010
0100
0001
0101
,
1001
0000
1100
0000
0100
1000
0100
0000
1100
0000
0010
1000
0001
0000
1001
0000
,
0001
1000
0100
0010
0001
1000
0010
0100
0010
1000
0100
0010
0001
0100
0010
0100
,
0001
1000
0100
0010
0100
1000
0010
0100
0001
1000
0001
0100
0010
0100
0001
1000
,
0100
0000
0010
0000
0001
0000
1000
0000
0100
0010
0001
1000
0100
0000
0010
0000
0001
0000
1000
0000
0010
0000
0100
0000
0010
0000
1000
0000
0100
0000
0010
0000
,
0001
0000
1000
0000
0010
0000
0100
0000
0001
1000
0100
0010
0001
0000
1000
0000
0010
0000
0100
0000
0010
0000
1000
0000
0100
0000
0010
0000
0001
0000
1000
0000
,
0001
1000
0010
0100
0010
1000
0100
0010
0001
1000
0010
0100
0010
1000
0100
0010
,
0001
0100
0010
0100
0001
0010
0001
0010
0001
0100
0001
0100
0001
0010
0100
1000
,
0010
0000
0100
0000
0010
0000
1000
0000
0100
0010
0001
1000
0100
0000
0010
0000
0001
0000
1000
0000
0010
0000
0100
0000
0001
1000
0100
0010
0001
0000
1000
0000
,
1001
0000
0000
0000
,
1001
0000
0000
0000
0000
0000
0000
0000
0000
0000
0000
0000
0000
0000
0000
0000
1000
0100
0010
0001
1000
0000
0100
0000
0010
0000
0001
0000
1000
0000
0100
0000
,
0010
0001
1000
0010
0100
0010
1000
0100
0010
0001
0100
0010
0100
0010
1000
0100
,
0010
0100
1000
0010
0100
0001
1000
0100
0010
0001
1000
0010
0100
0010
1000
0010
,
0100
0010
0100
0001
0100
0010
1000
0100
0010
0001
1000
0010
1000
0001
0010
0001
,
1000
0100
0010
0001
1000
0000
0100
0010
0001
0000
1000
0000
0010
0000
0100
0000
0001
0000
1000
0000
0100
0000
0010
0000
0100
0000
1000
0000
0001
0000
0100
0000
,
0010
0100
0001
1000
0100
0010
0100
1000
0001
0100
0010
0100
0001
1000
0001
0100
,
0010
1000
0100
0010
0001
1000
0010
0100
0001
1000
0100
0010
0100
1000
0010
0100
,
0001
1000
0001
1000
0100
0010
0100
0010
0001
0100
0001
0100
0010
1000
0010
1000
,
0100
0000
0100
1000
0000
1000
0100
0000
1100
0000
1000
0001
0000
0001
1000
0000
,
0001
1000
0100
0010
0100
1000
0010
0100
0001
1000
0100
0010
0001
1000
0001
0100
,
0010
0100
0001
0010
0100
1000
0001
0010
0100
1000
0010
0100
0001
1000
0100
0010
,
0100
1000
0010
0100
0001
1000
0100
0010
0001
0100
0010
0100
0010
1000
0010
1000
,
0001
0010
0001
0100
0001
0010
0100
1000
0010
0100
0001
1000
0100
0010
0001
1000
,
0001
1000
0100
0010
0001
1000
0010
0100
0001
1000
0100
0010
0100
1000
0100
0010
,
0001
0100
0010
0100
0001
1000
0001
0100
0010
0100
0001
1000
0100
1000
0100
0010
,
0001
0010
0001
0100
0001
0100
0010
1000
0001
1000
0100
0010
0001
1000
0010
0100
,
0001
1000
0100
0010
0100
1000
0010
0100
0001
1000
0100
0010
0001
1000
0001
0100
,;
