#TITLE:Hung Up;
#SUBTITLE:(Banana Inc Remix);
#ARTIST:Madonna;
#TITLETRANSLIT:;
#SUBTITLETRANSLIT:;
#ARTISTTRANSLIT:;
#CREDIT:;
#BANNER:hung_up_bn.png;
#BACKGROUND:hung_up_bg.png;
#LYRICSPATH:;
#CDTITLE:metal_max64.png;
#MUSIC:Hung Up (Banana Inc Remix).ogg;
#OFFSET:-0.050;
#SAMPLESTART:42.254;
#SAMPLELENGTH:12.000;
#SELECTABLE:YES;
#BPMS:0.000=142.000;
#STOPS:;
#BGCHANGES:;
// cache tags:
#FIRSTBEAT:0.000;
#LASTBEAT:248.000;
#SONGFILENAME:Songs/lvsb tourney pack/hung up/Hung Up (Banana Inc Remix).sm;
#HASMUSIC:1;
#HASBANNER:0;
#MUSICLENGTH:105.000;
// end cache tags

//---------------dance-single - Hung Up (Banana Inc----------------
#NOTES:
     dance-single:
     Hung Up (Banana Inc:
     Easy:
     4:
     0.299,0.266,0.057,0.410,0.000,171.000,6.000,43.000,0.000,0.000:
2000
3000
0002
0003
,
0000
0000
0200
0300
0001
0000
0000
0000
,
0200
0300
2000
3000
,
0000
0000
0020
0030
0100
0000
0000
0000
,
2000
3000
2000
3000
,
1000
0000
0020
0030
,
0200
0300
0200
0300
,
0001
0000
0200
0300
,
0020
0030
0200
0300
,
0010
0000
2000
3000
,
0002
0003
0020
0030
,
1000
0000
0002
0003
,
0100
0000
0010
0000
,
1000
0100
0001
0000
,
0010
0000
0001
1000
,
0001
0000
1000
0001
,
0100
0000
0010
0000
,
0100
0001
0100
0000
,
1000
0000
0001
0100
,
1000
0000
0010
0001
,
1000
0100
0001
0100
,
1000
0010
0001
0100
,
2000
0000
3000
0010
,
0100
0010
0100
0001
,
0010
1000
1000
0001
,
1000
0100
0001
1000
,
0200
0000
0300
0100
,
0001
0100
0020
0030
,
0100
0100
0100
0100
,
0001
1000
0010
0100
,
0002
0000
0003
0100
,
0001
1000
0010
1000
,
0001
0100
1000
0001
,
1000
0010
0001
0100
,
0200
0000
0300
0001
,
0100
0001
0100
1000
,
2000
0000
3000
1000
,
0010
0100
0010
1000
,
0001
1000
0002
0003
,
0100
0001
1000
0001
,
0010
0100
0020
0030
,
0000
1001
0000
0110
,
0000
1001
0020
0030
,
0000
1001
0000
0110
,
0000
0000
0010
0000
0020
0000
0000
0030
,
0100
0001
0010
1000
,
0010
0001
0200
0300
,
0001
1000
0001
1000
,
0100
0001
0020
0030
,
0010
0100
0001
0100
,
0001
0100
0020
0030
,
0100
1000
0010
0001
,
0100
0000
1000
0000
0020
0000
0000
0030
,
2000
3000
0020
0000
,
0030
0000
0100
0000
0002
0000
0000
0003
,
0200
0300
2000
0000
,
3000
0000
0010
0000
0200
0000
0000
0300
,
0002
0003
0200
0000
,
0300
0001
2000
0000
,
0000
0000
3000
0001
,
1000
1000
1000
1000
,
2002
0000
0000
0000
,
3003
0000
0000
0000
;

//---------------dance-single - Hung Up (Banana Inc----------------
#NOTES:
     dance-single:
     Hung Up (Banana Inc:
     Hard:
     9:
     0.580,0.590,0.105,0.752,0.133,336.000,11.000,79.000,0.000,1.000:
2000
3002
0203
0000
,
0300
0000
2000
0000
3100
2000
0000
3000
,
0020
0230
0302
0000
,
0003
0000
0200
0000
0310
0002
0000
0003
,
2000
3200
0302
0103
,
0100
0000
0020
0000
1030
0010
0100
0001
,
0200
0302
0023
0130
,
0100
0000
2000
0000
3010
0001
0100
0001
,
0200
0302
0023
0130
,
0100
0000
0020
0000
0130
0001
1000
0100
,
0020
0230
0302
0013
,
0010
0000
0000
0000
0100
0000
0000
0000
0001
0000
0100
1000
0100
0000
0001
0010
,
0001
0000
0000
0000
0010
0000
0000
0000
0100
0000
0010
0001
0010
0000
0100
1000
,
0100
1000
0100
1000
0100
0000
0000
0000
1000
0000
0010
0100
0010
0000
0001
1000
,
0001
0000
0000
0000
1000
0000
0000
0000
0001
0000
0100
0001
0100
0000
0010
1000
,
0010
0000
0000
0000
0010
0000
0000
0000
0100
0000
1000
0001
0100
0000
0010
1000
,
0001
0000
0000
0000
1000
0000
0000
0000
0010
0000
1000
0010
0100
0000
0001
0100
,
0001
0100
0001
0100
0001
0000
0000
0000
0010
0000
1000
0001
1000
0000
0100
1000
,
0010
0000
0000
0000
0100
0000
0000
0000
0100
0000
0010
0001
0010
0000
0100
1000
,
0100
0000
0000
0000
0010
0000
0000
0000
0010
0000
0100
0001
0100
0000
0010
0100
,
1000
1000
0100
0001
0200
0000
0310
1000
,
0010
0200
0000
0301
0000
0010
1000
0002
,
0100
0000
0100
0000
0100
0103
1000
0010
,
0100
0000
2000
0000
3000
0000
0101
0000
0000
0000
0001
1000
0001
0000
0100
0010
,
0100
0001
0100
0001
0020
0000
0130
1000
,
0010
0200
0000
1300
0000
0010
0001
0020
,
1000
0000
1000
0000
1000
0031
0010
1000
,
0010
0001
0100
2000
0000
0000
0000
3000
,
2000
3200
0320
0230
,
1300
0010
0200
0000
0301
0100
0000
0011
,
0100
0000
0100
0000
0100
1000
0100
0001
,
0100
2000
0000
3002
0000
0000
0000
0003
,
0200
0000
0320
0000
0230
0000
1300
0100
,
1000
0010
1000
0200
0000
0310
0011
2000
,
0000
0000
0000
0000
3000
0010
0100
0001
,
0100
0020
0000
2030
0000
0000
0000
0000
,
0020
0000
0000
0000
0000
3030
1000
0000
,
0001
0000
0100
0000
0010
0001
0100
0010
,
0001
0100
0100
1000
0020
0000
0000
0030
,
0100
0000
1000
0000
0100
0001
0100
0010
,
0001
0100
0020
0000
0232
0000
0000
0303
,
0010
0000
1100
0000
0010
0001
1100
0010
,
1000
0010
0101
1000
0002
0000
0000
0003
,
1000
0000
0110
0000
0001
0100
0011
0100
,
0010
1000
0002
0000
0023
0000
0000
0030
,
1000
0001
1000
0100
0001
0100
0010
0100
,
0010
1000
0100
0010
0020
0000
0000
0030
,
0010
0100
1000
0010
0100
0001
0100
0010
,
0001
0010
0200
0000
0302
0000
0000
0003
,
1000
0001
1000
0000
0100
0001
0100
0000
,
0100
0001
0100
0001
2200
0000
0000
3300
,
0010
0100
0010
0001
0100
0010
0002
0000
,
0103
1000
0100
0000
0200
0000
0000
0300
,
2000
3020
0230
0000
,
0000
0000
0320
0000
0031
0200
0000
0300
,
0020
0230
2300
0000
,
0000
0000
3200
0000
0310
0002
0000
0000
,
0023
0032
0023
0000
,
0000
0000
0230
0000
0310
0002
0000
0000
,
0000
0000
0000
0000
0003
0100
1000
0100
,
0010
0000
1000
0000
1000
0000
1000
0000
1000
0100
1000
0100
1000
0100
1000
0100
,
2002
0000
0000
0000
,
3003
0000
0000
0000
;

//---------------dance-single - Hung Up (Banana Inc----------------
#NOTES:
     dance-single:
     Hung Up (Banana Inc:
     Medium:
     6:
     0.427,0.384,0.057,0.314,0.000,275.000,6.000,33.000,0.000,0.000:
0200
0300
0001
0000
0200
0000
0000
0000
,
0300
0000
0010
0000
0100
0020
0000
0030
,
2000
3000
0100
0000
0020
0000
0000
0000
,
0030
0000
0100
0000
0001
2000
0000
3000
,
0100
0100
0100
0010
,
0010
0000
0100
0000
0100
1000
0100
0000
,
0010
0010
0010
1000
,
1000
0000
0010
0000
0010
1000
0010
0000
,
1000
1000
1000
0001
,
0001
0000
0100
0000
0100
1000
0100
0000
,
0010
0010
0010
0100
,
0100
0000
0010
0000
0010
1000
0010
0000
,
0100
0000
0100
0000
0000
0010
0001
0000
,
1000
0010
0001
0000
0100
0001
0100
0001
,
0010
0000
1000
0000
0000
0001
1000
0001
,
0100
0000
0010
0000
0010
0100
0010
1000
,
0001
0000
0001
0000
0001
0100
0000
0100
,
1000
0100
0001
0000
1000
0001
1000
0010
,
0100
0000
0010
0000
0010
0100
0001
0010
,
0100
0000
1000
0000
1000
0001
1000
0000
,
1000
0010
0100
0001
0100
0000
0010
0100
,
0010
1000
0000
0001
0000
1000
0200
0002
,
0000
0000
0303
0000
0000
0100
0010
1000
,
0001
1000
0000
0020
0000
0000
0000
0030
,
0100
0001
0100
0010
1000
0000
0100
1000
,
0010
1000
0000
0100
0000
0001
0020
2000
,
0000
0000
3030
0000
0000
0100
0001
1000
,
0000
0100
0010
0002
0000
0000
0000
0003
,
0100
1000
0100
0100
,
0001
0010
1000
0000
0100
0010
0000
0002
,
0000
0000
0000
0003
0000
1000
0010
0100
,
0000
0001
0100
0010
0000
1000
0010
0100
,
0000
0001
0100
0010
0000
1000
0010
0100
,
0000
0001
0100
0010
0000
0010
0100
0020
,
0000
0000
0000
0000
0030
1000
0001
1000
,
0010
1000
0000
0002
0000
0000
0000
0000
,
2000
0000
3003
0100
,
0100
0000
0010
1000
0010
0000
0100
0001
,
0100
0000
0100
0010
0100
0000
0001
1000
,
0100
0000
0010
0001
0100
0000
0001
1000
,
0010
1000
0001
0000
0200
0000
0000
0300
,
1000
0011
0100
1010
,
0100
1001
0010
0101
,
1000
0110
0001
0110
,
1000
0100
0100
0000
0002
0000
0000
0003
,
0100
0010
1000
0000
0100
0010
0100
0000
,
0001
1000
0001
1000
0200
0000
0000
0300
,
0010
0000
0010
0000
0010
1000
0010
0000
,
0100
0001
0100
0000
0002
0000
0000
0003
,
0010
0001
1000
0000
0010
0100
0001
0000
,
0100
0001
0100
0001
0200
0000
0000
0300
,
0001
0000
0010
0000
0010
1000
0100
1000
,
0100
0000
0001
0000
0020
0000
0000
0030
,
0002
0003
0100
0000
0020
0000
0000
0000
,
0030
0000
0100
0000
0001
0200
0000
0300
,
0020
0030
0100
0000
0200
0000
0000
0000
,
0300
0000
0001
0000
1000
0020
0000
0030
,
0200
0300
0001
0000
2000
0000
0000
0000
,
3000
0000
0001
0000
0100
0002
0000
0003
,
0100
0000
0100
0000
0000
0100
0001
1000
,
0100
0001
0000
2000
0000
0000
0000
0000
,
0002
0000
0000
0000
,
3003
0000
0000
0000
;
