#TITLE:The Riddle;
#SUBTITLE:;
#ARTIST:Gigi D'Agostino;
#TITLETRANSLIT:;
#SUBTITLETRANSLIT:;
#ARTISTTRANSLIT:;
#CREDIT:;
#BANNER:Riddle banner.jpg;
#BACKGROUND:Riddle BG v2.jpg;
#LYRICSPATH:;
#CDTITLE:;
#MUSIC:The Riddle Cut.ogg;
#OFFSET:0.312;
#SAMPLESTART:43.796;
#SAMPLELENGTH:12.000;
#SELECTABLE:YES;
#BPMS:0.000=127.000;
#STOPS:;
#BGCHANGES:;
// cache tags:
#FIRSTBEAT:17.000;
#LASTBEAT:322.000;
#SONGFILENAME:Songs/in the groove2/The Riddle/The Riddle.sm;
#HASMUSIC:1;
#HASBANNER:0;
#MUSICLENGTH:105.000;
// end cache tags

//---------------dance-single - StepsByLEET----------------
#NOTES:
     dance-single:
     StepsByLEET:
     Challenge:
     9:
     0.811,0.958,0.190,0.419,0.271,512.000,20.000,44.000,20.000,0.000:







0000
0000
0000
0000
,
0000
0000
0000
0000
,
0000
0000
0000
0000
,
0000
0000
0000
0000
,
0000
0000
1000
0100
0002
0000
1003
0100
,
0001
0100
1000
0010
0002
0000
1003
0010
,
0001
0000
0001
0010
2000
0000
0002
0003
,
3020
0100
0031
0100
2000
0000
3001
0100
,
2000
0000
0000
0000
3001
1000
0001
1000
0001
0000
0000
0000
1000
0000
0000
0000
0200
0000
0000
0000
0000
0000
0000
0000
0301
0000
0000
0000
0100
0000
0000
0000
,
0010
0100
0010
1000
0200
0000
0301
0100
,
0010
0000
1000
0100
0001
0000
0010
0000
,
1000
0100
0001
0100
1000
0000
0001
0100
,
1000
0000
1000
0100
0001
0000
1000
0100
,
0001
0100
1000
0100
0001
0000
0001
0100
,
1000
0000
1000
0010
0200
0000
0002
0300
,
0103
0010
0100
1000
0002
0000
1003
0100
,
0001
0000
0000
0000
1000
0000
0100
0000
0040
0004
0000
0030
0013
0000
0001
0000
,
0010
0000
0000
0000
0001
0010
0001
0010
0002
0000
0000
0000
1003
0000
0000
0000
0110
0000
0000
0000
0100
0000
0000
0000
0110
0000
0000
0000
0010
0000
0000
0000
,
1000
0100
0020
0001
0032
0100
0203
0010
,
0310
0100
2002
3000
2003
0000
3001
0100
,
1000
0010
0002
0000
0013
0000
1000
0100
,
0001
0100
1000
1001
1000
0000
0000
1000
,
1002
00M0
0100
M000
0010
0000
1000
0M00
,
0013
0000
1001
0000
2100
0000
0100
3010
,
0001
0010
0100
1000
1000
0000
2000
0400
,
0000
3310
0001
0010
0001
0000
1000
0000
,
0011
0000
0000
0000
1000
0100
1000
0100
4000
0000
0000
0000
0000
0000
0000
0000
300M
0000
0000
0000
0000
0000
0000
0000
0001
0000
0000
0000
0100
0000
0000
0000
,
1000
0100
0001
1000
0001
0000
M040
0000
,
0030
0000
0001
1000
0200
0000
0310
0001
,
0010
0001
0100
1000
0010
0000
0001
0100
,
1000
0000
1000
0100
0001
0000
1000
0100
,
0010
0001
0010
0100
1000
0000
M004
0000
,
0003
0000
1000
0100
1000
0000
0001
0010
,
0100
0010
0100
0010
0100
0000
0110
0100
,
1002
0000
0000
0000
1003
0001
1000
0001
1000
0000
0000
0000
0001
0000
0000
0000
0200
0000
0000
0000
0000
0000
0000
0000
0310
0000
0000
0000
1000
0000
0000
0000
,
0001
0100
0010
1000
0002
0000
4000
0000
,
3003
0000
0010
1000
0100
0000
0001
0100
,
0010
1000
0100
0001
0010
0000
1000
0100
,
0001
0000
4000
0000
3000
0000
M001
0100
,
0010
0100
0010
1000
0001
0000
0001
1000
,
0001
0000
1001
0001
0200
0000
0310
1000
,
0001
1000
0100
0001
0010
0000
1000
0100
,
0002
0000
0000
0103
1000
0001
0100
0020
,
1000
0000
0000
0000
1030
0100
1000
0100
1000
0000
0000
0000
1000
0000
0000
0000
0100
0000
0010
0000
0001
0000
0010
0000
0001
0000
0000
0000
1000
0000
0100
0000
,
1000
0100
1000
0010
1000
0000
0001
0100
0001
0100
0001
0000
1000
0010
0100
0010
,
0100
0000
0010
0000
1000
0000
0001
4000
0001
0000
0001
3000
0001
0000
1000
0100
,
1000
0010
0100
0010
0100
0000
0040
0100
0000
0100
0030
0000
1000
0100
1000
0000
,
0001
0000
0100
0000
0010
0000
1000
0000
0040
1000
0000
0100
0000
0001
M000
0100
,
0000
1000
003M
0000
1000
0000
0100
0010
0100
0000
0100
0001
0100
0000
0010
0000
,
1000
0000
0001
0000
0100
0000
1000
0000
0001
0000
0100
0010
1000
0000
0001
0100
,
0010
0000
0100
0000
0010
0000
1000
0100
0010
0000
0001
0000
1000
0000
0004
0100
,
0003
0000
0100
0000
0010
0000
1000
0000
0001
0400
0001
0000
0304
0100
0000
2000
,
3003
0400
0001
0000
0010
0000
0310
0100
4000
0400
000M
0000
0000
0000
00M0
0000
,
300M
0000
0300
0000
1000
0100
1000
0000
0000
0000
0000
0000
1000
0000
0000
0000
0100
0000
0000
0000
0000
0000
0000
0000
1000
0000
0000
0000
0001
0000
0000
0000
,
0100
0010
0100
0010
0002
0003
0001
0010
,
1000
0000
1000
0100
0001
0000
0100
1000
,
0001
1000
0001
0100
1000
0000
0010
0001
,
0100
0000
0010
0100
0010
0000
1000
0100
,
1000
0001
0100
0001
0010
0000
4000
0000
,
3000
0000
M001
0100
0010
0000
0001
0100
,
0010
0100
0001
0100
0002
0000
1003
0004
,
2003
0000
0000
0000
3100
1000
0100
0000
0000
0000
0000
0000
0001
0000
0000
0000
0100
0000
0000
0000
1000
0000
0000
0000
0100
0000
0000
0000
0001
0000
0000
0000
,
2000
0001
3001
0100
0020
0000
1030
0100
,
0010
0000
0001
1001
1000
0000
0001
0100
,
0010
1000
0100
0001
0010
0000
1000
0100
,
0001
0000
0001
0100
2000
0000
3001
0100
,
0010
0100
0010
0100
0001
0000
1001
1000
,
0100
0000
0100
0110
0010
0000
0010
1000
,
0001
0100
0001
1000
0200
0000
0040
0000
,
0330
0000
10M1
0001
0001
0100
0001
1000
,
0100
0000
0000
0000
1000
0100
1000
0000
0000
0000
0000
0000
0001
0000
0000
0000
2000
0000
0000
0000
0000
0000
0000
0000
3001
0000
0000
0000
0100
0000
0000
0000
,
0001
1000
0100
0001
0100
0000
1000
0100
,
0001
0000
0001
0100
1000
0000
0010
0000
,
0010
1000
0100
0010
0002
0000
1003
0100
,
0010
0000
0140
0000
0030
0000
0100
0010
,
1000
0001
0400
0010
0300
M000
0040
0100
,
0030
0000
100M
0100
1000
0000
0020
0000
,
0031
0010
0001
1000
0020
0000
4000
0031
,
3000
0000
0000
0000
1000
0000
0100
0000
0010
0001
0010
0000
0001
0000
0100
0000
,
0020
0000
M100
0130
0200
0010
0310
1000
,
0100
0000
0000
0000
0010
0001
0010
0001
M010
0000
0000
0000
0M01
0000
0000
0000
M011
0000
0000
0000
0000
0000
0000
0000
0000
0000
0000
0000
0000
0000
0000
0000
;

//---------------dance-single - StepsByLEET----------------
#NOTES:
     dance-single:
     StepsByLEET:
     Hard:
     7:
     0.705,0.728,0.190,0.124,0.038,484.000,20.000,13.000,0.000,1.000:





0000
0000
0000
0000
,
0000
0000
0000
0000
,
0000
0000
0000
0000
,
0000
0000
0000
0000
,
0000
0000
1000
0100
0010
0000
0001
0100
,
0010
0100
0010
0100
0001
0000
1000
0100
,
0010
0000
0001
1000
0001
0000
0001
0000
,
0010
0100
0010
0100
0001
0000
1000
0100
,
1000
0000
0001
0001
0001
0000
1000
0001
,
0100
0010
0100
0010
1000
0000
1000
0100
,
0010
0000
0001
0100
0010
0000
0010
0000
,
0010
1000
0100
0100
0100
0000
0100
0010
,
0010
0000
0100
0001
0100
0000
0100
0010
,
1000
0001
0100
0010
0010
0000
0100
0001
,
0010
0000
1000
0100
0010
0000
0010
0000
,
0010
0010
0100
0001
1000
0000
1001
0001
,
0010
0000
0100
0010
1000
0001
0100
0010
,
1000
0000
0001
0100
0010
1000
0001
1000
,
0001
0100
0010
0000
0110
0000
1001
0000
,
1001
0000
0100
0000
0010
0000
1000
0100
,
1000
0001
0010
0000
0020
0000
0030
0001
,
1000
0100
1000
0100
0010
0000
0000
0100
,
1000
0001
0110
1010
,
0011
0000
0100
0000
0020
0000
1030
0100
,
0010
0001
0010
0200
2000
0300
0000
3100
,
0010
0001
0010
0001
0020
0000
0002
0030
,
0010
0000
1003
0001
0020
0000
0130
0010
,
1000
0001
0100
0001
0100
0000
0100
0001
,
0100
0000
0100
0010
1000
0000
1000
0100
,
1000
0001
0100
0010
0100
0000
0010
0010
,
0010
0000
1000
0100
0001
0000
1000
0100
,
0010
0100
0010
0100
0010
0000
0010
1000
,
0001
0000
0001
1000
0100
0000
0100
0010
,
0001
0010
0100
1000
0001
0000
1000
0010
,
0100
0000
0010
1000
0002
0000
1000
1000
,
1003
0100
0010
0001
0010
0000
0010
1000
,
0100
0000
0001
0100
0010
0000
0010
1000
,
0002
0103
0010
0100
0010
0000
0010
0100
,
0100
0000
0010
1000
0001
0000
0001
0100
,
1000
0100
0001
0100
0010
0000
0100
0010
,
0001
0000
1000
0010
0001
0000
0001
0010
,
1000
1000
0100
0010
0001
0000
1000
0100
,
1000
0000
0000
0100
0001
0010
0001
0100
,
0010
0000
0000
0000
0110
0000
1000
0000
0001
0010
0001
0000
0100
0000
0001
0000
,
0100
0000
0010
0000
0100
0000
0000
0000
1000
0100
1000
0000
0001
0000
0100
0000
,
0010
0000
0100
0000
0010
0000
0000
0000
1000
0000
0100
0010
0100
0000
0010
0000
,
0001
0000
1000
0000
0100
0000
0000
0000
0001
0000
1000
0000
0100
0000
0010
0100
,
0010
0100
0010
0000
1000
0001
1000
0001
,
1000
0000
0001
1000
0001
0000
0000
0000
1000
0000
0010
0000
0100
0000
0010
0000
,
1000
0001
0100
0010
0100
0010
1000
0001
,
0100
0000
0010
0001
0010
0000
0000
0000
0010
0000
1000
0000
0100
0000
0010
0001
,
0010
0000
0001
0010
0001
0000
0000
0000
0011
0000
0000
0000
0110
0000
0000
0000
,
1010
0000
0000
0000
1100
0000
0000
0000
4000
0400
0000
0000
0000
0000
0000
0000
,
3300
0000
1100
0100
0010
0000
0010
0001
,
1000
0001
0100
0010
0010
0000
0100
0100
,
0010
0000
0010
1000
0001
0000
0001
0100
,
0010
1000
0001
0100
0010
0000
0010
1000
,
0100
0000
0100
0010
0001
0000
0001
0100
,
1000
0100
0001
0010
0001
0000
1000
0010
,
0100
0000
0010
0100
0001
0000
0001
1000
,
0010
1000
0001
0100
0010
0000
1000
0100
,
0100
0000
0110
0010
0001
0000
0001
0100
,
0010
1000
0100
0001
0100
0000
0010
1000
,
0001
0000
0001
1000
0100
0000
0100
0010
,
0010
0010
1000
0001
0100
0000
0100
0010
,
0010
0000
0010
1000
0100
0000
0100
0001
,
0010
0001
0100
0010
0100
0000
0010
1001
,
0010
0000
2000
0100
3100
0000
0100
0001
,
0100
0001
0100
0001
0100
0000
0101
0010
,
0010
0000
0000
0010
0010
0100
0010
0100
,
0100
0000
0010
0100
1002
0000
1003
0100
,
1000
0100
1000
0100
0001
0000
1000
0100
,
0001
0000
1000
0100
0010
0000
0010
0000
,
0010
1000
0001
0100
0010
0000
0010
0100
,
0010
0000
1000
1000
0001
0000
1000
0001
,
0001
1000
0001
0001
1000
0000
1000
1000
,
0001
0000
0001
0100
1000
0000
0001
0000
,
1000
0100
0100
1000
0100
0000
1000
0100
,
0100
0000
0100
0010
0010
0100
0010
0010
,
1000
0000
0100
0010
2002
0000
0000
0000
,
0010
0000
0000
3003
0110
0000
0000
0000
;

//---------------dance-single - StepsByLEET----------------
#NOTES:
     dance-single:
     StepsByLEET:
     Medium:
     5:
     0.558,0.613,0.362,0.038,0.000,368.000,38.000,4.000,0.000,0.000:





0000
0000
0000
0000
,
0000
0000
0000
0000
,
0000
0000
0000
0000
,
0000
0000
0000
0000
,
0000
0000
1000
0001
1000
0000
0001
1000
,
0001
0000
1000
0010
0100
0000
0010
0100
,
0010
0000
1000
0100
1000
0000
0001
0000
,
0010
0000
0100
0010
0100
0000
0010
0100
,
0010
0100
1001
0010
,
1000
0100
0010
0001
1000
0000
0001
0000
,
1100
0010
0100
0001
,
0001
0000
0100
0010
0001
0000
1001
0000
,
0010
0000
1000
0100
0010
0000
0001
0000
,
0010
0000
1000
0001
0010
0000
1000
0100
,
1000
0001
1000
0010
,
0001
0000
0010
1000
0100
0000
0001
0000
,
0110
0000
1000
0100
0020
0000
0031
0000
,
0200
0310
1001
1100
,
0101
0010
1000
0100
,
0010
0000
0101
0000
0010
0000
1000
0010
,
1000
0010
1000
0000
1010
0000
0010
1000
,
0000
1000
0010
0000
1001
0000
0001
0100
,
0000
0100
0010
0000
0110
0000
0010
0000
,
1001
0000
1100
0000
0001
0000
0100
0010
,
0100
0000
0001
0000
0011
0000
0001
0100
,
0010
1000
0100
0000
0101
0000
0110
0000
,
1001
0000
1000
0100
1000
0000
0001
0000
,
0100
0000
0010
0100
0010
0000
0010
0000
,
1001
0000
1000
0100
1000
0000
0001
0000
,
0010
0001
0100
1000
,
0010
0000
0001
1000
0001
0000
0100
0000
,
0010
0000
1000
0100
1000
0000
0001
0000
,
0011
0000
0001
0100
0010
0000
0100
0000
,
0010
1000
0001
1100
,
0010
0000
0001
1000
0010
0000
0100
0000
,
0110
0000
0010
1000
0100
0000
0001
0100
,
0010
0000
0100
0000
0110
0000
0010
0100
,
0010
1000
0100
0001
,
0010
0000
1000
0100
1000
0000
0001
0000
,
1100
0000
0010
0001
0010
0000
1000
0100
,
1000
0011
1100
0010
,
0101
0000
0010
1000
0010
0000
0100
0010
,
0001
0000
0000
0010
1000
0100
0010
0001
,
0010
0000
1000
0100
1000
0000
0100
0000
,
0010
0101
0010
0100
,
0010
1001
0100
0011
,
1000
1100
0100
0001
,
0010
1000
0100
0001
,
0100
1000
0010
0001
,
0100
1000
0100
0001
,
0010
1000
0100
1000
,
0010
0001
0100
1000
,
0100
0001
0100
1000
,
0010
0000
0001
0000
1100
0000
0010
0100
,
0010
0000
0010
0100
0000
0100
0010
0000
,
1001
0000
1000
0100
0010
0000
0001
0000
,
1000
0001
0100
1000
,
0010
0000
0001
0100
0010
0000
1000
0000
,
0100
0001
0010
1000
,
0100
0000
0010
0100
0010
0000
1000
0000
,
0100
0001
0010
1000
,
0100
0000
0100
0001
0100
0000
0100
0001
,
0100
0000
0100
0010
0000
0010
1000
0000
,
1001
0000
1000
0100
0000
0100
0010
0000
,
0010
0001
0010
0000
0011
0000
0001
0000
,
0011
0000
0001
1000
0010
0000
0110
0000
,
0010
0000
1000
0001
1000
0000
1000
0001
,
1000
0000
0100
0010
0001
0000
1000
0000
,
0010
0000
0001
0100
0010
0000
1000
0000
,
0011
0000
0000
1000
0100
1000
0100
1000
,
0100
0000
1000
0100
0100
0000
0010
0001
,
0010
1000
0001
0100
,
0010
0000
1000
0010
1000
0000
0010
0000
,
1000
0100
0001
0100
,
1000
0000
0001
0100
0010
0000
0100
0010
,
0100
0010
0010
0100
,
0100
0000
0001
1000
0001
0000
1000
0000
,
0100
0001
0010
1000
,
0100
0000
0010
1000
0100
0000
0010
0000
,
1100
0010
0200
0000
,
0020
0000
0000
0300
0130
0000
0000
0000
;

//---------------dance-single - StepsByLEET----------------
#NOTES:
     dance-single:
     StepsByLEET:
     Easy:
     3:
     0.329,0.422,0.200,0.124,0.000,208.000,21.000,13.000,0.000,0.000:

0000
0000
0000
0000
,
0000
0000
0000
0000
,
0000
0000
0000
0000
,
0000
0000
0000
0000
,
0000
1000
1000
0000
,
1001
0000
0001
0100
,
0100
0000
0110
0000
,
0010
1000
0100
0000
,
0010
0000
0001
0001
,
0100
0010
0200
0000
,
0310
0000
1000
0001
,
1000
0000
0110
0010
,
0010
0000
1100
0000
,
0011
0000
0001
0100
,
0010
0000
1000
0000
,
0001
0000
1000
0010
,
0001
0000
0001
0010
,
1000
1000
0100
0100
,
0100
0000
0101
0001
,
0001
0000
1000
0100
,
0010
0100
1000
0000
,
0001
0010
0010
0000
,
0100
0000
0010
0010
,
0010
0000
2000
0000
,
3002
0000
0203
0000
,
0320
0000
1000
1000
,
1030
0000
1001
0001
,
0010
0000
0100
0010
,
0010
0000
1000
0100
,
0010
0000
1001
0000
,
0110
0010
0100
0000
,
0010
0000
1000
0100
,
1000
0000
0001
0000
,
1000
0000
0001
0010
,
0001
0000
2000
0000
,
3100
0010
0002
0000
,
0013
0100
0020
0000
,
0230
0000
0310
0100
,
0010
0010
0010
0000
,
0010
0000
0010
0010
,
0010
0000
0100
0000
,
0100
0000
0100
0100
,
0100
0000
0220
0000
,
0000
0330
1000
0001
,
1000
0000
0001
1000
,
0001
0000
0010
0100
,
0010
0000
0100
0010
,
0100
0000
1000
0000
,
0100
0000
0001
0000
,
0010
0000
1000
0000
,
0100
0000
0001
0000
,
0010
0000
2000
0100
,
0100
3100
0020
0001
,
0001
0031
0101
0000
,
0110
0000
1010
0000
,
0110
0000
0001
0001
,
0010
0000
1000
0010
,
0010
0000
0100
0000
,
0010
0000
1000
0100
,
1000
0000
0010
0000
,
0100
0000
0001
0010
,
0001
0000
1000
1000
,
1000
0000
1001
0000
,
0110
0000
0010
0010
,
0010
0000
0100
0000
,
0110
0000
0001
0100
,
0010
0000
1000
0000
,
0001
0000
1000
0010
,
0100
0000
0010
0000
,
0010
0000
1000
0100
,
0010
0001
0001
0000
,
0001
0000
1000
0010
,
0001
0000
0001
0000
,
0010
0000
1000
0100
,
0010
0000
0110
0000
,
1001
0000
0001
0010
,
0010
0000
0010
0000
,
0100
0000
0010
1000
,
1000
0010
0100
0010
,
1000
0000
0101
0100
,
0100
0010
0011
0000
;

//---------------dance-single - Easy----------------
#NOTES:
     dance-single:
     Easy:
     Beginner:
     1:
     0.244,0.307,0.152,0.000,0.000,163.000,16.000,0.000,0.000,0.000:

0000
0000
0000
0000
,
0000
0000
0000
0000
,
0000
0000
0000
0000
,
0000
0000
0000
0000
,
0000
1000
1000
0000
,
1001
0000
0001
0000
,
0001
0000
0110
0000
,
0010
0000
0010
0000
,
0100
0000
0001
0001
,
0001
0000
0100
0000
,
0010
0000
1000
0000
,
1000
0000
0010
0010
,
0010
0000
1001
0000
,
0010
0000
0001
0000
,
0001
0000
0100
0000
,
1001
0000
0001
0000
,
0001
0000
1000
1000
,
1000
0000
0100
0100
,
0100
0000
0001
0001
,
0001
0000
1000
0000
,
1000
0000
1000
0000
,
0001
0001
0001
0000
,
0100
0000
0010
0010
,
0010
0000
1000
0000
,
0001
0000
0100
0000
,
0010
0000
1000
1000
,
1000
0000
1001
0000
,
0000
0000
0110
0000
,
0000
0000
0110
0000
,
0000
0000
1001
0000
,
0000
0000
0010
0000
,
0010
0000
1000
0000
,
1000
0000
0001
0000
,
1000
0000
0001
0001
,
0001
0000
1000
0000
,
0100
0000
0001
0000
,
0010
0000
0010
0000
,
0100
0000
0010
0000
,
0010
0000
0010
0000
,
0010
0000
0010
0010
,
0010
0000
0100
0000
,
0100
0000
0100
0100
,
0100
0000
0110
0000
,
0000
0000
1000
0000
,
1000
0000
0001
0000
,
0001
0000
0010
0000
,
0010
0000
0100
0000
,
0100
0000
1000
0000
,
1000
0000
1000
0000
,
0001
0000
0001
0000
,
0001
0000
0010
0000
,
0010
0000
0010
0000
,
0100
0000
0010
0000
,
0000
0000
0110
0000
,
0110
0000
0010
0000
,
0100
0000
0001
0000
,
0010
0000
1000
1000
,
1000
0000
0100
0000
,
0010
0000
1000
0000
,
1000
0000
0010
0000
,
0100
0000
0001
0000
,
0001
0000
1000
1000
,
1000
0000
1001
0000
,
0110
0000
0001
0001
,
0001
0000
1000
0000
,
0010
0000
0001
0001
,
0001
0000
1000
0000
,
0001
0000
1000
0000
,
1000
0000
0001
0000
,
0001
0000
1000
0000
,
0010
0000
0001
0000
,
0001
0000
1000
0000
,
0001
0000
0001
0000
,
0010
0000
1000
0000
,
0010
0000
1001
0000
,
0000
0000
0010
0010
,
0010
0000
0010
0000
,
0100
0000
1000
1000
,
1000
0000
1000
0000
,
1000
0000
0110
0000
,
0000
0000
0110
0000
;
