#TITLE:Beamsabre Beat Zero v2;
#SUBTITLE:Mega Man X2;
#ARTIST:DarkeSword;
#TITLETRANSLIT:;
#SUBTITLETRANSLIT:;
#ARTISTTRANSLIT:;
#CREDIT:;
#BANNER:../Zeppelin_bn.png;
#BACKGROUND:../bg_Zeppelin.png;
#LYRICSPATH:;
#CDTITLE:../cdtitle_ZAiA.png;
#MUSIC:DarkeSword - Beamsabre Beat Zero v2.ogg;
#OFFSET:-0.038;
#SAMPLESTART:35.380;
#SAMPLELENGTH:23.760;
#SELECTABLE:YES;
#BPMS:0.000=163.000;
#STOPS:;
#BGCHANGES:;
// cache tags:
#FIRSTBEAT:33.000;
#LASTBEAT:536.000;
#SONGFILENAME:Songs/Cirque du Zeppelin/Beamsabre Beat Zero v2 - [Zaia]/Beamsabre Beat Zero v2.sm;
#HASMUSIC:1;
#HASBANNER:1;
#MUSICLENGTH:203.205;
// end cache tags

//---------------dance-single - 17/8/8/17----------------
#NOTES:
     dance-single:
     17/8/8/17:
     Challenge:
     13:
     0.997,1.000,0.059,0.384,1.000,1328.000,12.000,78.000,0.000,1.000:
0000
0000
0000
0000
,
0000
0000
0000
0000
,
0000
0000
0000
0000
,
0000
0000
0000
0000
,
0000
0000
0000
0000
,
0000
0000
0000
0000
,
0000
0000
0000
0000
,
0000
0000
0000
0000
,
0000
0000
0001
0000
0000
1000
0000
0000
,
0010
0000
0000
0100
0000
0001
1000
0100
,
0000
0000
1000
0000
0000
0001
0000
0000
,
0100
0000
0000
0010
0000
1000
0001
0010
,
0000
0000
0100
0000
0000
1000
0000
0000
,
0010
0000
0000
1000
0000
0100
1000
0001
,
0200
0000
0000
0320
0000
0000
0230
0000
,
0302
0000
0000
0023
0000
0000
0230
0000
,
1300
0000
0001
0000
0100
0000
0001
0100
0000
0001
1000
0000
0100
0000
0010
0000
,
0001
0000
1000
0000
0010
0000
1000
0010
0000
0100
0001
0000
0010
0000
0001
0000
,
1000
0000
0100
0000
0010
0000
0100
1000
0000
0001
1000
0000
0010
0000
0100
0000
,
0001
0000
1000
0000
0100
0000
1000
0010
0000
1000
0001
0000
0010
0000
0100
0000
,
1100
0000
1001
0000
,
0101
0100
0010
1000
,
0001
0010
0001
1000
0100
1000
0010
0100
,
0001
1000
0001
0010
0100
1000
0001
0100
0010
0100
0010
1000
0001
0010
0001
1000
,
0010
0100
0001
1000
0100
1000
0001
0010
0100
1000
0010
0100
0001
1000
0010
1000
,
0100
0010
0100
1000
0001
0010
0001
1000
0100
1000
0010
0100
0001
1000
0100
1000
,
0001
0010
0100
0010
0100
1000
0001
0100
0010
1000
0100
0010
0001
1000
0100
1000
,
0010
0100
0010
1000
0001
0100
0001
1000
0010
1000
0100
0010
0001
1000
0010
1000
,
0001
0100
0010
1000
0001
0010
0001
1000
0100
0010
0001
0100
0010
1000
0001
0100
,
0001
0010
0100
0010
0001
1000
0100
1000
0001
0010
0001
0100
0010
1000
0001
1000
,
0100
0010
0001
1000
0001
0010
0100
1000
0001
1000
0010
1000
0001
0100
0010
0100
,
0001
0010
0100
1000
0001
1000
0010
0100
0001
0100
0010
0100
0001
0010
0001
1000
,
0100
0010
0001
1000
0010
0100
0010
1000
0001
1000
0100
0010
0100
1000
0100
1000
,
0010
0100
0001
0100
0001
0010
0100
1000
0001
1000
0100
1000
0001
0100
0010
1000
,
0001
0010
0001
1000
0001
0100
0010
0100
0001
1000
0001
0010
0100
1000
0001
0100
,
0010
1000
0001
0100
0001
1000
0001
0010
0100
1000
0010
1000
0001
0010
0001
1000
,
0100
1000
0001
0010
0001
1000
0010
0100
0001
0010
0100
0010
0001
0100
0010
1000
,
0001
0010
0001
1000
0010
0100
0010
1000
0001
0100
0001
0010
0100
1000
0001
0100
,
0010
1000
0001
1000
0010
1000
0001
0010
0100
0010
0001
1000
0010
0100
0010
1000
,
0100
1000
0001
0010
0001
0100
0010
0100
0001
1000
0001
0010
0100
1000
0001
0100
,
0020
0000
1030
0000
0002
0000
0013
0000
0200
0000
1300
0000
0010
0100
0001
1000
,
0001
0000
0010
0200
0000
0000
0000
0000
0000
0000
0000
0000
0000
0000
1300
0000
,
0001
0000
0100
0010
0000
0100
0002
0000
0000
0000
0013
0000
0100
0000
2000
0000
,
0000
0000
0000
0000
,
3001
0000
1000
0000
0010
0000
1000
0000
0100
0000
0010
0000
0100
1000
0001
0100
,
0010
0000
1000
0002
0000
0023
0000
0230
0000
0000
0000
0000
0000
0000
0000
0000
,
2300
3020
0230
0302
,
0023
0000
0230
2300
0000
3002
0203
0302
,
1003
0100
1000
0100
0010
0000
0001
0010
0000
0001
1000
0000
0010
0000
0100
0001
,
1000
0000
0100
0000
0010
0000
0100
0000
0020
0000
0000
0000
0000
0000
0032
0000
0000
0000
0000
0000
0000
0000
0000
0000
0000
0000
0000
0000
0000
0000
0000
0003
,
0100
0001
0100
0001
2000
0000
0000
3200
0000
0000
0320
0000
0032
0000
1003
0010
,
0100
0001
1000
0001
1000
0100
0010
0002
0000
0000
0000
0000
0000
0000
0000
0000
,
0103
0010
0100
0010
2000
0000
0000
3002
0000
0000
0203
0000
0320
0000
0130
0001
,
1000
0100
1000
0100
0020
0000
0000
0032
0000
0000
0000
0000
0000
0000
0000
0000
,
1003
0010
0100
0010
2000
0000
0000
3002
0000
0000
0023
0000
0230
0000
0310
0001
,
0010
0100
1000
0001
0100
0001
1000
0001
0010
0100
1000
0010
0100
0010
0100
0001
,
1000
0010
1000
0001
0100
0010
1000
0100
,
1000
0001
0010
0001
0100
1001
0010
1001
,
1000
0010
0100
0001
1000
0100
0010
0100
,
1000
0010
1000
0001
1000
0110
0001
0110
,
1000
0001
0010
0001
1000
0100
1000
0010
,
0100
0010
1000
0100
0010
1001
0100
1001
,
0001
0010
0001
1000
0010
1000
0100
0010
,
0001
0000
1000
0000
0010
0000
0100
0000
0000
0001
1000
0000
0100
0000
0010
0001
,
1000
0010
0100
0010
1000
0001
1000
0100
0010
0001
1000
0001
0100
0010
1000
0100
,
0010
0001
1000
0001
0100
0010
0100
0001
1000
0100
0010
0001
1000
0010
0100
0001
,
0010
0001
1000
0001
0100
0010
1000
0001
0010
0001
1000
0010
0100
0001
1000
0001
,
1000
0100
0010
0001
0010
0100
1000
0010
1000
0001
0100
0001
1000
0100
1000
0010
,
0100
0001
0100
0010
0100
0001
1000
0001
0010
0100
1000
0001
1000
0010
0100
0001
,
0010
0100
1000
0001
1000
0010
0100
0010
1000
0001
0010
0100
1000
0001
0100
0010
,
1000
0001
0010
0001
1000
0100
0010
0001
1000
0100
1000
0010
0100
0010
1000
0001
,
0100
0001
1000
0100
0010
0001
0100
0010
1000
0010
0100
0001
0010
0001
1000
0100
,
0010
0000
0100
0000
1000
0000
0001
0000
0100
0000
0001
0000
1000
0100
0000
0000
,
1000
0000
0010
0000
0100
0001
0000
0000
1000
0100
1000
0001
0000
0000
0010
0001
,
1000
0000
0010
0000
1000
0000
0010
0100
0000
0010
1000
0000
0100
0000
0010
0001
,
0100
0000
0001
0000
1000
0000
0001
0100
0000
0001
1000
0000
0100
0000
0010
0000
,
0001
0000
0000
0000
0000
0000
0000
0000
0000
0100
0000
0000
0001
0000
0000
0000
0000
0000
1000
0000
0010
0000
1000
0000
0001
0000
0000
0000
0000
0000
0010
0000
0000
0100
0000
0000
1000
0000
0000
0000
0000
0000
0000
0000
0000
0000
0000
0000
,
0000
0000
0000
0000
0000
0000
0002
0003
0000
0000
0000
0000
2000
3000
0000
0000
0000
0000
0200
0300
0000
0000
0000
0000
0010
0000
0000
0001
0000
0000
0100
0000
0000
0010
0000
0000
0000
0000
0000
0000
0000
0000
1000
0000
0100
0000
1000
0000
,
0001
0000
0000
0000
0000
0000
0000
0000
0000
0100
0000
0000
0010
0000
0000
0000
0000
0000
1000
0000
0001
0000
0010
0000
0001
0000
0000
0000
0000
0000
1000
0000
0000
0000
0000
0000
0000
0000
0000
0000
0000
0000
0000
0000
0000
0000
0000
0000
,
0001
0000
0000
0000
0000
0000
0100
0000
0000
0010
0000
0000
0000
0000
0000
0100
0000
0000
0000
0000
0000
0000
0000
0000
0001
0000
0000
0000
0000
0000
1000
0000
0000
0000
0000
0000
0100
0000
0000
1000
0000
0000
0001
0000
0010
0000
0001
0000
,
2000
3000
0000
0000
0000
0000
0000
0000
0000
0020
0030
0000
0000
0000
0000
0000
0000
0000
2000
3000
0000
0000
0000
0000
0010
0000
0000
0100
0000
0000
0001
0000
0000
1000
0000
0000
0000
0000
0000
0000
0000
0000
0100
0000
0000
0000
0000
0000
,
0010
0000
0000
0000
0000
0000
0000
0000
0000
0001
0000
0000
1000
0000
0000
0000
0000
0000
0010
0000
0000
0100
0000
0000
0010
0000
0000
0000
0000
0000
1000
0000
0000
0000
0000
0000
0001
0000
0000
0000
0000
0000
1000
0000
0100
0000
0010
0000
,
0001
1000
0010
0100
0000
0000
0001
0000
1000
0010
1000
0000
0001
0000
1000
0000
,
0200
0000
0000
0000
0000
0000
0300
0000
0000
0000
0000
0000
0000
0000
0000
0000
0000
0000
0000
0000
0000
0000
0000
0000
0010
0000
0000
0000
0000
0000
0000
0000
0000
0000
0000
0000
0000
0000
0000
0000
0000
0000
0000
0000
0000
0000
0000
0000
0001
0000
0000
0000
0000
0000
0000
0000
0000
0000
0000
0000
0000
0000
0000
0000
0000
0000
0000
0000
0000
0000
0000
0000
0200
0000
0000
0000
0000
0000
0300
0000
0000
0000
0000
0000
0000
0000
0000
0000
0000
0000
0000
0000
0000
0000
0000
0000
0010
0000
0000
0000
0000
0000
0000
0000
0000
0000
0000
0000
1000
0000
0000
0000
0000
0000
0000
0000
0000
0000
0000
0000
0001
0000
0000
0000
0000
0000
0000
0000
0000
0000
0000
0000
1000
0000
0000
0000
0000
0000
0000
0000
0000
0000
0000
0000
0100
0000
0000
0000
0000
0000
0000
0000
0010
0000
0000
0000
0000
0000
0000
0000
0001
0000
0000
0000
0000
0000
0000
0000
1000
0000
0000
0000
0000
0000
0000
0000
0001
0000
0000
0000
0000
0000
0000
0000
0100
0000
0000
0000
0000
0000
0000
0000
,
0010
1000
0001
1000
0010
0100
0001
1000
0100
0010
0100
1000
0001
0010
0001
1000
,
0001
0100
0010
0100
0001
1000
0010
1000
0001
1000
0100
0010
0001
1000
0001
1000
,
0010
0100
0001
1000
0100
0010
0100
1000
0001
1000
0010
0100
0001
1000
0010
1000
,
0001
0010
0001
1000
0100
1000
0010
1000
0001
0100
0010
0100
0001
1000
0100
0010
,
0001
1000
0001
0010
0001
0100
0010
1000
0001
1000
0100
0010
0100
1000
0001
1000
,
0010
0100
0001
0100
0010
1000
0100
1000
0001
0010
0100
0010
0001
1000
0001
0100
,
0010
1000
0001
1000
0010
0100
0010
1000
0100
0010
0001
1000
0010
0100
0001
1000
,
0100
0010
0001
0100
0010
1000
0001
0010
0100
0010
0001
1000
0010
1000
0100
1000
,
0001
0100
0001
0100
0010
0000
1000
0010
0000
1000
0001
0000
0010
0000
0100
1000
,
0001
0000
0100
0000
0010
0000
0100
0000
0020
0000
0000
0000
0000
0000
2030
0000
0000
0000
0000
0000
0000
0000
0000
0000
0000
0000
0000
0000
0000
0000
0000
3000
,
0100
1000
0100
1000
0002
0000
0000
0203
0000
0000
0320
0000
2030
0000
3001
0010
,
0100
1000
0001
1000
0001
0100
0010
2000
0000
0000
0000
0000
0000
0000
0000
0000
,
3100
0010
0100
0010
0002
0000
0000
2003
0000
0000
3200
0000
0320
0000
0130
1000
,
0001
0100
0001
0100
0020
0000
0000
2030
0000
0000
0000
0000
0000
0000
0000
0000
,
3001
0010
0100
0010
0002
0000
0000
2003
0000
0000
3020
0000
0230
0000
0310
1000
,
0010
0100
0001
1000
0100
1000
0001
1000
0010
0100
0001
0010
0100
0010
0100
1000
,
0002
0000
0003
0000
0000
0000
0000
0000
1000
0100
0000
0020
0000
0000
0031
0000
,
2000
0000
0000
0000
3010
0000
0200
0000
0000
0000
0000
0000
0000
0000
0000
0301
,
1000
0000
0200
0000
0000
0000
0000
0000
0310
0001
0000
2000
0000
0000
3010
0000
,
0200
0000
0000
0000
0000
0000
0301
1000
0020
0000
0000
0230
0000
0000
0320
0000
,
1031
0000
0101
0000
,
1010
0010
0100
0001
,
1000
0100
1000
0001
0010
0001
0100
0010
,
1000
0001
1000
0100
0010
0001
1000
0010
0100
0010
0100
0001
1000
0100
1000
0001
,
0100
0010
1000
0001
0010
0001
1000
0100
0010
0001
0100
0010
1000
0001
0100
0001
,
0010
0100
0010
0001
1000
0100
1000
0001
0010
0001
0100
0010
1000
0001
0010
0001
,
1000
0100
0010
0100
0010
0001
1000
0010
0100
0001
0010
0100
1000
0001
0010
0001
,
0100
0010
0100
0001
1000
0010
1000
0001
0100
0001
0010
0100
1000
0001
0100
0001
,
1000
0010
0100
0001
1000
0100
1000
0001
0010
0100
1000
0010
0100
0001
1000
0010
,
1000
0100
0010
0100
1000
0001
0010
0001
1000
0100
1000
0010
0100
0001
1000
0001
,
0010
0100
1000
0001
1000
0100
0010
0001
1000
0001
0100
0001
1000
0010
0100
0010
,
1000
0100
0010
0001
1000
0001
0100
0010
1000
0010
0100
0010
1000
0100
1000
0001
,
0010
0100
1000
0001
0100
0010
0100
0001
1000
0001
0010
0100
0010
0001
0010
0001
,
0100
0010
1000
0010
1000
0100
0010
0001
1000
0001
0010
0001
1000
0010
0100
0001
,
1000
0100
1000
0001
1000
0010
0100
0010
1000
0001
1000
0100
0010
0001
1000
0010
,
0100
0001
1000
0010
1000
0001
1000
0100
0010
0001
0100
0001
1000
0100
1000
0001
,
0010
0001
1000
0100
1000
0001
0100
0010
1000
0100
0010
0100
1000
0010
0100
0001
,
1000
0100
1000
0001
0100
0010
0100
0001
1000
0010
1000
0100
0010
0001
1000
0010
,
0100
0001
1000
0001
0100
0001
1000
0100
0010
0100
1000
0001
0100
0010
0100
0001
,
0010
0001
1000
0100
1000
0010
0100
0010
1000
0001
1000
0100
0010
0001
1000
0010
,
0100
0000
0001
0000
0000
1000
0000
0000
,
0100
0000
0000
0010
0000
0001
1000
0010
,
0000
0000
0100
0000
0000
0001
0000
0000
,
0010
0000
0000
0100
0000
0010
0001
0100
,
0000
0000
0010
0000
0000
1000
0000
0000
,
0001
0000
0000
0010
0000
0001
0100
0010
,
1000
0000
0000
0001
0000
0000
0010
0000
,
0100
0000
0000
1000
0000
0000
0010
0000
,
0200
0000
0000
0000
,
0000
0000
0000
0000
,
0300
0000
0000
0000
;

//---------------dance-single - 9----------------
#NOTES:
     dance-single:
     9:
     Hard:
     12:
     0.838,1.000,0.069,0.669,0.716,1042.000,14.000,136.000,0.000,2.000:
0000
0000
0000
0000
,
0000
0000
0000
0000
,
0000
0000
0000
0000
,
0000
0000
0000
0000
,
0000
0000
0000
0000
,
0000
0000
0000
0000
,
0000
0000
0000
0000
,
0000
0000
0000
0000
,
0000
0000
0001
0000
0000
1000
0000
0000
,
0010
0000
0000
0100
0000
0001
1000
0100
,
0000
0000
1000
0000
0000
0001
0000
0000
,
0100
0000
0000
0010
0000
1000
0001
0010
,
0000
0000
0100
0000
0000
1000
0000
0000
,
0010
0000
0000
1000
0000
0100
1000
0001
,
0200
0000
0000
0320
0000
0000
0230
0000
,
0302
0000
0000
0023
0000
0000
0230
0000
,
1300
0000
0001
0000
0100
0000
0001
0100
0000
0001
1000
0000
0100
0000
0010
0000
,
0001
0000
1000
0000
0010
0000
1000
0010
0000
0100
0001
0000
0010
0000
0001
0000
,
1000
0000
0100
0000
0010
0000
0100
1000
0000
0001
1000
0000
0010
0000
0100
0000
,
0001
0000
1000
0000
0100
0000
1000
0010
0000
1000
0001
0000
0010
0000
0100
0000
,
1100
0000
1001
0000
,
0101
0100
0010
1000
,
0001
0010
0001
1000
0100
1000
0010
0100
,
0001
1000
0001
0010
0100
1000
0001
0100
0010
0100
0010
1000
0001
0010
0001
1000
,
0010
0100
0001
1000
0100
1000
0001
0010
0100
1000
0010
0100
0001
1000
0010
1000
,
0100
0010
0100
1000
0001
0010
0001
1000
0100
1000
0010
0100
0001
1000
0100
1000
,
0001
0010
0100
0010
0100
1000
0001
0100
0010
1000
0100
0010
0001
1000
0100
1000
,
0010
0100
0010
1000
0001
0100
0001
1000
0010
1000
0100
0010
0001
1000
0010
1000
,
0001
0100
0010
1000
0001
0010
0001
1000
0100
0010
0001
0100
0010
1000
0001
0100
,
0001
0010
0100
0010
0001
1000
0100
1000
0001
0010
0001
0100
0010
1000
0001
1000
,
0100
0010
0001
1000
0001
0010
0100
1000
0001
1000
0010
1000
0001
0100
0010
0100
,
0001
0010
0100
1000
0001
1000
0010
0100
0001
0100
0010
0100
0001
0010
0001
1000
,
0010
0100
0002
0000
0013
0200
0000
1300
,
0020
0000
0130
0002
0000
0113
1000
0110
,
0002
0000
0013
0200
0000
2300
0000
3002
,
0000
2003
3020
0230
0000
0302
0203
0320
,
1030
0001
1000
0100
1000
0010
0100
0001
,
0010
0001
0100
0010
1000
0001
0010
0100
,
1000
0001
0100
0001
1000
0100
1000
0010
,
0100
0001
1000
0100
1000
0010
0100
0010
1000
0001
1000
0100
0010
0001
1000
0010
,
0200
0000
0301
0000
2000
0000
3100
0000
0020
0000
0031
0000
0100
0010
1000
0001
,
1000
0000
0100
0020
0000
0000
0000
0000
0000
0000
0000
0000
0000
0000
0031
0000
,
1000
0000
0010
0100
0000
0010
2000
0000
0000
0000
3100
0000
0010
0000
0002
0000
,
0000
0000
0000
0000
,
1003
0000
0001
0000
0100
0000
0001
0000
0010
0000
0100
0000
0010
0001
1000
0010
,
0100
0000
0001
2000
0000
3200
0000
0320
0000
0000
0000
0000
0000
0000
0000
0000
,
0032
0203
0320
2030
,
3200
0000
0320
0032
0000
2003
3020
2030
,
3001
0010
0001
0010
0100
0000
1000
0100
0000
1000
0001
0000
0100
0000
0010
1000
,
0001
0000
0010
0000
0100
0000
0010
0000
0200
0000
0000
0000
0000
0000
2300
0000
0000
0000
0000
0000
0000
0000
0000
0000
0000
0000
0000
0000
0000
0000
0000
3000
,
0010
1000
0010
1000
0002
0000
0000
0023
0000
0000
0230
0000
2300
0000
3001
0100
,
0010
1000
0001
1000
0001
0010
0100
2000
0000
0000
0000
0000
0000
0000
0000
0000
,
3010
0100
0010
0100
0002
0000
0000
2003
0000
0000
3020
0000
0230
0000
0310
1000
,
0001
0010
0001
0010
0200
0000
0000
2300
0000
0000
0000
0000
0000
0000
0000
0000
,
3001
0100
0010
0100
0002
0000
0000
2003
0000
0000
3200
0000
0320
0000
0130
1000
,
0100
0010
0001
1000
0010
1000
0001
1000
0100
0010
0001
0100
0010
0100
0010
1000
,
0001
0100
0001
1000
0010
0100
0001
0010
,
0001
1000
0100
1000
0010
1001
0100
1001
,
0001
0100
0010
1000
0001
0010
0100
0010
,
0001
0100
0001
1000
0001
0110
1000
0110
,
0001
1000
0100
1000
0001
0010
0001
0100
,
0010
0100
0001
0010
0100
1001
0010
1001
,
1000
0100
1000
0001
0100
0001
0010
0100
,
1000
0000
0001
0000
0100
0000
0010
0000
0000
1000
0001
0000
0010
0000
0100
1000
,
0001
0100
0010
0100
0001
0010
0001
1000
,
0100
0000
1000
0000
0010
0000
0100
0000
0001
0000
1000
0000
0100
0000
1000
0001
,
0100
0000
0010
0000
1000
0000
0001
0000
0010
0100
0000
1000
0000
0000
0001
0000
,
0200
0000
0000
0000
0000
0000
0310
1000
0002
0000
0000
0023
0000
0000
0230
0000
,
2300
0000
0000
0000
0000
0000
0000
0000
3001
0100
0000
0010
0000
0000
0100
0000
,
0002
0000
0000
0000
0013
0000
0200
0000
0000
0000
0000
0000
0000
0000
1300
0001
,
0200
0000
0000
0000
0000
0000
0000
0000
0000
0000
0000
0000
0000
0000
0000
0000
0000
0000
0320
0000
0000
0000
2030
0000
0000
0000
0000
0000
3002
0000
0000
0003
,
0100
0001
1000
0100
0010
0001
0100
0010
1000
0010
0100
0001
0010
0001
1000
0100
,
0010
0000
0100
0000
1000
0000
0001
0000
0100
0000
0001
0000
1000
0100
0000
0000
,
1000
0000
0010
0000
0100
0001
0000
0000
1000
0100
1000
0001
0000
0000
0010
0001
,
1000
0000
0010
0000
1000
0000
0010
0100
0000
0010
1000
0000
0100
0000
0010
0001
,
0100
0000
0001
0000
1000
0000
0001
0100
0000
0001
1000
0000
0100
0000
0010
0000
,
0001
0000
0000
0000
0000
0000
0000
0000
0000
0100
0000
0000
0001
0000
0000
0000
0000
0000
1000
0000
0010
0000
1000
0000
0001
0000
0000
0000
0000
0000
0010
0000
0000
0100
0000
0000
1000
0000
0000
0000
0000
0000
0000
0000
0000
0000
0000
0000
,
0000
0000
0000
0000
0000
0000
0002
0003
0000
0000
0000
0000
2000
3000
0000
0000
0000
0000
0200
0300
0000
0000
0000
0000
0010
0000
0000
0001
0000
0000
0100
0000
0000
0010
0000
0000
0000
0000
0000
0000
0000
0000
1000
0000
0100
0000
1000
0000
,
0001
0000
0000
0000
0000
0000
0000
0000
0000
0100
0000
0000
0010
0000
0000
0000
0000
0000
1000
0000
0001
0000
0010
0000
0001
0000
0000
0000
0000
0000
1000
0000
0000
0000
0000
0000
0000
0000
0000
0000
0000
0000
0000
0000
0000
0000
0000
0000
,
0001
0000
0000
0000
0000
0000
0100
0000
0000
0010
0000
0000
0000
0000
0000
0100
0000
0000
0000
0000
0000
0000
0000
0000
0001
0000
0000
0000
0000
0000
1000
0000
0000
0000
0000
0000
0100
0000
0000
1000
0000
0000
0001
0000
0010
0000
0001
0000
,
2000
3000
0000
0000
0000
0000
0000
0000
0000
0020
0030
0000
0000
0000
0000
0000
0000
0000
2000
3000
0000
0000
0000
0000
0010
0000
0000
0100
0000
0000
0001
0000
0000
1000
0000
0000
0000
0000
0000
0000
0000
0000
0100
0000
0000
0000
0000
0000
,
0010
0000
0000
0000
0000
0000
0000
0000
0000
0001
0000
0000
1000
0000
0000
0000
0000
0000
0010
0000
0000
0100
0000
0000
0010
0000
0000
0000
0000
0000
1000
0000
0000
0000
0000
0000
0001
0000
0000
0000
0000
0000
1000
0000
0100
0000
0010
0000
,
0001
1000
0010
0100
0000
0000
0001
0000
1000
0010
1000
0000
0001
0000
1000
0000
,
0200
0300
0000
0000
0010
0000
0000
0000
0001
0000
0000
0000
0200
0300
0000
0000
0010
0000
1000
0000
0001
0000
1000
0000
0200
0300
0010
0000
0100
0000
1000
0000
,
0001
0000
0100
0000
0010
1000
0010
0000
1000
0000
0001
0000
0010
0100
0010
0000
,
0001
0000
1000
0000
0001
0100
0001
0000
0010
0000
0100
0000
1000
0010
1000
0000
,
0001
0000
0100
0000
0001
1000
0001
0000
0010
0000
0100
0000
1000
0010
1000
0000
,
0001
0000
0100
0000
0001
0010
0001
0000
1000
0000
0010
0000
0100
0010
0100
0000
,
0001
0000
0010
0000
0100
1000
0100
0000
1000
0000
0001
0000
0100
0010
0100
0000
,
0001
0000
1000
0000
0001
0010
0001
0000
0100
0000
0010
0000
1000
0100
1000
0000
,
0001
0000
0010
0000
0001
1000
0001
0000
0100
0000
0010
0000
1000
0100
1000
0000
,
0100
0010
0001
0100
0010
1000
0001
0010
0100
0010
0001
1000
0010
1000
0100
1000
,
0001
0100
0001
0100
0010
0000
1000
0010
0000
1000
0001
0000
0010
0000
0100
1000
,
0001
0000
0100
0000
0010
0000
0100
0000
0020
0000
0000
0000
0000
0000
2030
0000
0000
0000
0000
0000
0000
0000
0000
0000
0000
0000
0000
0000
0000
0000
0000
3000
,
0100
1000
0100
1000
0002
0000
0000
0203
0000
0000
0320
0000
2030
0000
3001
0010
,
0100
1000
0001
1000
0001
0100
0010
2000
0000
0000
0000
0000
0000
0000
0000
0000
,
3100
0010
0100
0010
0002
0000
0000
2003
0000
0000
3200
0000
0320
0000
0130
1000
,
0001
0100
0001
0100
0020
0000
0000
2030
0000
0000
0000
0000
0000
0000
0000
0000
,
3001
0010
0100
0010
0002
0000
0000
2003
0000
0000
3020
0000
0230
0000
0310
1000
,
0010
0100
0001
1000
0100
1000
0001
1000
0010
0100
0001
0010
0100
0010
0100
1000
,
0002
0000
0003
0000
0000
0000
0000
0000
1000
0100
0000
0020
0000
0000
0031
0000
,
2000
0000
0000
0000
3010
0000
0200
0000
0000
0000
0000
0000
0000
0000
0000
0301
,
1000
0000
0200
0000
0000
0000
0000
0000
0310
0001
0000
2000
0000
0000
3010
0000
,
0200
0000
0000
0000
0000
0000
0301
1000
0020
0000
0000
0230
0000
0000
0320
0000
,
1031
0000
0101
0000
,
1010
0010
0100
0001
,
1000
0100
1000
0001
0010
0001
0100
0010
,
1000
0001
1000
0100
0010
0001
1000
0010
0100
0010
0100
0001
1000
0100
1000
0001
,
0100
0010
1000
1000
0002
0013
0010
0200
,
1300
1000
0002
0203
0310
2000
3200
2300
,
3020
0130
0002
2003
3001
0020
0130
0020
,
0031
2000
3020
0230
0310
2000
3002
0023
,
0130
1000
0100
1000
0002
0103
0020
2030
,
3001
0020
0230
2300
3010
1000
0001
0100
,
0001
0010
0001
1000
0100
1000
0010
0100
,
0001
0010
0100
1000
0001
1000
0010
0100
0001
0100
0010
0100
0001
0010
0001
1000
,
0100
0000
0010
0000
0100
0000
1000
0000
0010
0000
0100
0000
0001
0010
0100
1000
,
0001
0000
0100
0010
1000
0000
0001
0000
0010
0000
0100
0000
1000
0000
0001
0000
,
0100
0000
0010
1000
0000
0001
2000
0000
0000
0000
3001
0000
0010
0000
0100
0000
,
1000
0001
0100
0001
1000
0010
0100
0010
,
2000
0000
3001
0000
0020
0000
0130
0000
2000
0000
3001
0000
0100
0010
1000
0100
,
0020
0000
0031
2000
0000
3020
0000
0230
0000
0000
0000
0000
0000
0000
0000
0000
,
0301
1000
0010
1000
0100
0010
0001
0010
,
0100
1000
0001
0010
0001
0100
0010
0100
0001
1000
0001
0010
0100
1000
0001
0100
,
0010
0000
1000
0000
0000
0001
0000
0000
,
0010
0000
0000
0100
0000
1000
0001
0100
,
0000
0000
0010
0000
0000
1000
0000
0000
,
0100
0000
0000
0010
0000
0100
1000
0010
,
0000
0000
0100
0000
0000
0001
0000
0000
,
1000
0000
0000
0100
0000
1000
0010
0100
,
0001
0000
0000
1000
0000
0000
0100
0000
,
0010
0000
0000
0001
0000
0000
0100
0000
,
0020
0000
0000
0000
,
0000
0000
0000
0000
,
0030
0000
0000
0000
;

//---------------dance-single - ----------------
#NOTES:
     dance-single:
     :
     Medium:
     10:
     0.676,0.923,0.098,0.527,0.106,834.000,20.000,107.000,0.000,4.000:
0000
0000
0000
0000
,
0000
0000
0000
0000
,
0000
0000
0000
0000
,
0000
0000
0000
0000
,
0000
0000
0000
0000
,
0000
0000
0000
0000
,
0000
0000
0000
0000
,
0000
0000
0000
0000
,
0000
0000
0001
0000
0000
1000
0000
0000
,
0010
0000
0000
0100
0000
0001
1000
0100
,
0000
0000
1000
0000
0000
0001
0000
0000
,
0100
0000
0000
0010
0000
1000
0001
0010
,
0000
0000
0100
0000
0000
1000
0000
0000
,
0010
0000
0000
1000
0000
0100
1000
0001
,
0200
0000
0000
0320
0000
0000
0230
0000
,
0302
0000
0000
0023
0000
0000
0230
0000
,
1300
0001
0100
0001
1000
0001
0010
0100
,
1000
0001
0100
0001
1000
0001
0010
0001
,
1000
0100
0010
0100
1000
0001
0100
0010
,
1000
0001
0010
0001
1000
0001
0010
0100
,
1100
0000
1001
0000
,
0101
0100
0010
1000
,
0001
0010
0001
1000
0100
1000
0010
0100
,
0001
0010
0100
1000
0001
0010
0100
1000
,
0010
0100
0001
0010
0001
1000
0100
1000
,
0010
0100
0001
1000
0001
0010
0100
1000
,
0001
1000
0010
0100
0010
1000
0100
1000
,
0001
0010
0001
0100
0001
1000
0100
1000
,
0010
0100
0001
0010
0100
1000
0001
0100
,
0010
1000
0010
0100
0001
1000
0001
0010
,
0100
1000
0001
0100
0001
1000
0100
1000
,
0001
0010
0100
0010
0001
1000
0010
0100
,
0010
0100
0002
0000
0013
0200
0000
1300
,
0020
0000
0130
0002
0000
0113
1000
0110
,
0002
0000
0013
0200
0000
2300
0000
3002
,
0000
2003
3020
0230
0000
0302
0203
0320
,
1030
0001
1000
0100
1000
0010
0100
0001
,
0010
0001
0100
0010
1000
0001
0010
0100
,
1000
0001
0100
0001
1000
0100
1000
0010
,
0100
0001
1000
0010
0100
0001
1000
0010
,
0200
0301
2000
3100
0020
0031
0100
0010
,
1000
0000
0100
0020
0000
0000
0000
0000
0000
0000
0000
0000
0000
0000
0031
0000
,
1000
0010
0100
0002
0000
0013
0100
2000
,
0000
0000
0000
0000
,
3001
1000
0010
1000
0100
0010
0100
1000
,
0010
1000
0002
0023
0230
0000
0000
0000
,
2300
3020
0230
0302
,
0023
0000
0230
2300
0000
3002
0203
0302
,
1003
1000
0020
0130
0100
0002
0013
0010
,
0200
1300
1000
0020
0000
0000
0000
0000
,
0130
0100
0002
1003
1000
0020
0130
0100
,
0001
1000
0100
1000
0020
0000
0000
0000
,
1031
0000
1100
0000
,
0011
0001
1000
0001
,
0100
0010
1000
0001
0100
0010
1000
0001
,
0010
0100
0010
0001
0100
0010
0100
0001
,
1000
0010
1000
0001
0100
0010
1000
0100
,
1000
0001
0010
0001
0100
1001
0010
1001
,
1000
0010
0100
0001
1000
0100
0010
0100
,
1000
0010
1000
0001
1000
0110
0001
0110
,
1000
0001
0010
0001
1000
0100
1000
0010
,
0100
0010
1000
0100
0010
1001
0100
1001
,
0001
0010
0001
1000
0010
1000
0100
0010
,
0001
0000
1000
0000
0010
0000
0100
0000
0000
0001
1000
0000
0100
0000
0010
0001
,
1000
0010
0100
0010
1000
0100
1000
0001
,
0010
0000
0001
0000
0100
0000
0010
0000
1000
0000
0001
0000
0010
0000
0001
1000
,
0010
0100
0001
1000
0100
0010
0001
1000
,
0020
0000
0000
0000
0000
0000
0130
0001
2000
0000
0000
3200
0000
0000
0320
0000
,
0032
0000
0000
0000
1003
0010
0100
0010
,
2000
0000
0000
0000
3100
0000
0020
0000
0000
0000
0000
0000
0000
0000
0031
1000
,
0020
0000
0000
0000
0000
0230
0302
2003
,
3010
0100
0001
0010
0001
0100
0010
1000
,
0100
0000
0010
0000
0001
0000
1000
0000
0010
0000
1000
0000
0001
0010
0000
0000
,
0001
0000
0100
0000
0010
1000
0000
0000
0001
1000
0001
1000
0000
0000
0100
1000
,
0001
0000
0100
0000
0001
0000
0100
0001
0000
0100
0001
0000
1000
0000
0100
1000
,
0001
0000
1000
0000
0001
0000
1000
0010
0000
1000
0010
0000
0100
0000
0001
0000
,
1000
0010
1000
0010
1000
0010
1000
0010
,
1000
0001
1000
0001
1000
0001
1000
0001
,
0010
0001
0010
0001
0010
0001
0010
0001
,
0010
0100
0010
0100
0010
0100
0010
0100
,
1000
0100
1000
0100
1000
0100
1000
0100
,
1000
0010
0100
0010
0100
0010
0100
0010
,
0100
0001
0100
0001
0100
0001
0100
0001
,
1000
0001
1000
0001
1000
0001
1000
0001
,
1000
0000
0010
0000
0100
0001
0100
0000
0001
0000
1000
0000
0100
0010
0100
0000
,
1000
0000
0001
0000
1000
0010
1000
0000
0100
0000
0010
0000
0001
0100
0001
0000
,
1000
0000
0010
0000
1000
0001
1000
0000
0100
0000
0010
0000
0001
0100
0001
0000
,
1000
0000
0010
0000
1000
0100
1000
0000
0001
0000
0100
0000
0010
0100
0010
0000
,
1000
0000
0100
0000
0010
0001
0010
0000
0001
0000
1000
0000
0010
0100
0010
0000
,
1000
0000
0001
0000
1000
0100
1000
0000
0010
0000
0100
0000
0001
0010
0001
0000
,
1000
0000
0100
0000
1000
0001
1000
0000
0010
0000
0100
0000
0001
0010
0001
0000
,
0010
0100
1000
0001
0010
0100
0010
0001
,
1000
1000
0200
0310
0010
0002
0103
0100
,
0020
1030
1000
0200
0000
0000
0000
0000
,
0310
0010
0002
1003
1000
0200
0310
0010
,
0001
1000
0010
1000
0200
0000
0000
0000
,
1301
0000
1010
0000
,
0101
0001
1000
0001
,
0010
0100
1000
0001
0100
0010
1000
0001
,
0010
0100
0010
0001
0100
0010
0100
0001
,
2000
0000
3000
0000
0000
0000
0000
0000
0001
0010
0000
0200
0000
0000
1300
0000
,
0002
0000
0000
0000
0103
0000
0020
0000
0000
0000
0000
0000
0000
0000
0000
1030
,
0001
0000
0020
0000
0000
0000
0000
0000
0130
1000
0000
0002
0000
0000
0103
0000
,
0020
0000
0000
0000
0000
0000
1030
0001
0200
0000
0000
0320
0000
0000
0230
0000
,
1301
0000
1010
0000
,
0101
0100
0010
1000
,
0001
0010
0001
1000
0100
1000
0010
0100
,
0001
0010
0001
1000
0100
0010
0100
1000
,
0010
0100
0001
0001
2000
3100
0100
0020
,
0031
0001
2000
3020
0130
0002
0023
0032
,
0203
0310
2000
3002
1003
0200
0310
0200
,
1300
0002
0203
0320
0130
0002
2003
3200
,
0310
0001
0010
0001
2000
3010
0200
0302
,
1003
0200
0320
0032
0103
0001
1000
0010
,
1000
0100
1000
0001
0010
0001
0100
0010
,
1000
0100
1000
0001
0010
0001
1000
0100
,
0010
0000
0100
0000
0010
0000
0001
0000
0100
0000
0010
0000
1000
0001
1000
0001
,
1000
0000
0010
0100
0010
0000
1000
0000
0001
0000
0010
0000
0001
0000
1000
0000
,
0010
0100
0001
2000
0000
3001
0010
0100
,
1000
0001
0100
0001
1000
0010
0100
0010
,
2000
0000
3001
0000
0020
0000
0130
0000
2000
0000
3001
0000
0100
0001
0100
0001
,
2000
3001
0020
0230
0320
0000
0000
0000
,
0031
1000
0010
1000
0100
0010
0001
0010
,
0100
1000
0010
0100
0001
0010
0001
1000
,
0010
0000
1000
0000
0000
0001
0000
0000
,
0010
0000
0000
0100
0000
1000
0001
0100
,
0000
0000
0010
0000
0000
1000
0000
0000
,
0100
0000
0000
0010
0000
0100
1000
0010
,
0000
0000
0100
0000
0000
0001
0000
0000
,
1000
0000
0000
0100
0000
1000
0010
0100
,
0001
0000
0000
1000
0000
0000
0100
0000
,
0010
0000
0000
0001
0000
0000
0100
0000
,
0020
0000
0000
0000
,
0000
0000
0000
0000
,
0030
0000
0000
0000
;
