#TITLE:Take This Life;
#SUBTITLE:Come Clarity (2006);
#ARTIST:In Flames;
#TITLETRANSLIT:;
#SUBTITLETRANSLIT:;
#ARTISTTRANSLIT:;
#CREDIT:;
#BANNER:bnwer3wr23v.png;
#BACKGROUND:bg-14.png;
#LYRICSPATH:;
#CDTITLE:cdtitle.png;
#MUSIC:01 Take This Life.mp3;
#OFFSET:0.640;
#SAMPLESTART:164.340;
#SAMPLELENGTH:12.000;
#SELECTABLE:YES;
#BPMS:0.000=240.001;
#STOPS:;
#BGCHANGES:;
// cache tags:
#FIRSTBEAT:4.000;
#LASTBEAT:855.000;
#SONGFILENAME:Songs/Astronomic Metal Collection 2/(Patashu) Take This Life/01 Take This Life.sm;
#HASMUSIC:1;
#HASBANNER:1;
#MUSICLENGTH:215.202;
// end cache tags

//---------------dance-single - ----------------
#NOTES:
     dance-single:
     :
     Hard:
     13:
     1.000,1.000,1.000,0.163,0.330,1756.000,814.000,35.000,0.000,0.000:
0000
0000
0000
0000
,
0100
0010
0100
0010
0100
0010
0100
0010
,
1100
0011
1000
0011
1000
0011
1000
0011
,
1000
0011
1000
0011
1000
0011
1001
1100
,
0110
1001
0010
1001
0010
1001
0010
1001
,
0010
1001
0010
1001
0010
0101
0010
0101
,
1100
0011
1000
0011
1000
0011
1000
0011
,
1000
0011
1000
0011
1000
0011
1001
1100
,
0010
0100
0001
1000
0100
1000
0010
0100
0001
1000
0001
0010
,
0100
1000
0010
0100
0001
1000
0100
0010
0100
0010
0001
0010
,
1100
0011
1000
0011
1000
0011
1000
0011
,
1000
0011
1000
0011
1000
0011
1001
1100
,
0110
1001
0010
1001
0010
1001
0010
1001
,
0010
1001
0010
1001
0010
0101
0010
0101
,
1100
0011
1000
0011
1000
0011
1000
0011
,
1000
0011
1000
0011
1000
0011
1001
1100
,
0010
0000
0000
0000
0000
0000
0000
0000
0000
0000
0000
0000
0000
0000
0000
0001
0000
0000
0000
0000
0000
0000
0000
0000
0000
0000
0000
0000
0010
0000
0000
0000
0000
0000
0000
0000
0000
0000
0000
0001
0000
0000
0000
0000
0000
1000
0000
0000
0000
0000
0000
0000
0000
0000
0000
0000
0000
0000
0000
0010
0000
0000
0000
0000
0000
0000
0000
0000
0000
0000
0000
0000
0000
0000
0000
1000
0000
0000
0000
0000
0000
0000
0000
0000
0000
0000
0000
0000
0000
0000
0010
0000
0000
0000
0000
0000
0000
0000
0000
0000
0000
0000
0100
0000
0000
0000
0000
0000
0000
0000
0000
0000
0000
0000
0001
0000
0000
0000
0000
0000
0000
0000
0000
0000
0000
0000
0100
0000
0000
0000
0000
0000
0000
0000
0000
0000
0000
0000
0001
0000
0000
0000
0000
0000
0000
0000
0000
0000
0000
0000
1000
0000
0000
0000
0000
0000
0000
0000
0000
0000
0000
0000
0000
0000
0000
0010
0000
0000
0000
0000
0000
0000
0000
0000
0000
0000
0000
0000
0000
0000
1000
0000
0000
0000
0000
0000
0000
0000
0000
0000
0000
0000
,
0001
0000
0000
0000
0000
0000
0000
0000
0000
0000
0000
0000
0000
0000
0000
0000
0010
0000
0000
0000
0000
0000
0000
0000
0000
0000
0000
0000
0000
0000
0000
0000
0000
0000
0000
0000
0000
0000
0000
0100
0000
0000
0000
0000
0000
0000
0000
0000
0000
0000
0000
1000
0000
0000
0000
0000
0000
0000
0000
0000
0000
0000
0000
0100
0000
0000
0000
0000
0000
0000
0000
0000
0000
0000
0000
0010
0000
0000
0000
0000
0000
0000
0000
0000
0000
0000
0000
0100
0000
0000
0000
0000
0000
0000
0000
0000
1001
0000
0000
0000
0000
0000
0000
0000
0000
0000
0000
0000
0000
0000
0000
0000
0000
0000
0000
0000
0000
0000
0000
0000
0001
0000
0000
0000
0000
0000
0000
0000
0000
0000
0000
0000
0000
0000
0000
0000
0000
0000
0000
0000
0000
0000
0000
0000
1001
0000
0000
0000
0000
0000
0000
0000
0000
0000
0000
0000
0000
0000
0000
0000
0000
0000
0000
0000
0000
0000
0000
0000
0001
0000
0000
0000
0000
0000
0000
0000
0000
0000
0000
0000
0000
0000
0000
0000
0000
0000
0000
0000
0000
0000
0000
0000
,
0110
0000
1000
1000
0110
0001
0000
0001
,
0100
0001
0100
1000
0110
0001
0000
0001
,
0100
0011
0000
1000
0011
0011
0011
0011
,
0000
1010
0000
0100
1010
1010
1010
1010
,
1100
0000
0010
0001
1100
0010
0000
0010
,
0100
0010
0100
0001
1100
0010
0000
0010
,
0100
1001
0010
0100
1001
1001
1001
1001
,
0000
0110
0110
0110
0110
0110
0110
0110
,
0001
0001
1010
1000
0110
0001
0000
0001
,
0100
0001
0100
1000
0110
0001
0000
0001
,
0100
0011
0100
1000
0011
0011
0011
0011
,
0000
1010
0000
0100
1010
1010
1010
1010
,
1100
0000
0010
0001
1100
0010
0000
0010
,
0100
0010
0100
0001
1100
0010
0000
0010
,
0100
1001
0010
0100
1001
1001
1001
1001
,
0000
0110
0110
0110
0110
0110
0110
0110
,
0010
1001
0101
0011
0101
0011
0101
1001
,
1100
0011
0100
0011
0100
0011
0100
0011
,
0100
0011
0100
0011
0100
0011
0110
1100
,
1001
0101
1000
0101
1000
0101
1000
0101
,
1000
0101
1000
0101
1000
0110
1000
0110
,
1001
0011
0100
0011
0100
0011
0100
0011
,
0100
0011
0100
0011
0100
0011
0110
1100
,
0001
0000
0000
0000
0000
0000
0000
0000
0000
0000
0000
0000
0000
0000
0000
0000
1000
0000
0000
0000
0000
0000
0000
0000
0001
0000
0000
0000
0000
0000
0000
0000
0000
0000
0000
0000
1000
0000
0000
0000
0000
0000
0000
0000
0000
0000
0000
0000
0010
0000
0000
0000
0000
0000
0000
0000
0000
0000
0000
0000
0100
0000
0000
0000
0000
0000
0000
0000
0000
0000
0000
0000
0010
0000
0000
0000
0000
0000
0000
0000
0000
0000
0000
0000
0100
0000
0000
0000
0000
0000
0000
0000
0000
0000
0000
0000
0002
0000
0000
0000
0000
0000
0000
0000
0000
0000
0000
0000
1003
0000
0000
0000
0000
0000
0000
0000
0000
0000
0000
0000
0001
0000
0000
0000
0000
0000
0000
0000
0000
0000
0000
0000
1000
0000
0000
0000
0000
0000
0000
0000
0000
0100
0000
0000
0000
0000
0000
0000
0000
0000
0000
0000
0000
0010
0000
0000
0000
0000
0000
0000
0000
0000
0000
0000
0000
0000
0000
0000
0001
0000
0000
0000
0000
0000
0000
0000
0000
0000
0000
0000
0100
0000
0000
0000
0000
0000
0000
0000
0000
0000
0000
0000
,
0010
1000
0010
0100
0001
0010
0100
1000
0110
0000
0000
0000
0110
0000
0000
0000
,
0100
0011
0100
0011
0100
0011
0100
0011
,
0100
0011
0100
0011
0100
0011
0110
1100
,
1001
0101
1000
0101
1000
0101
1000
0101
,
1000
0101
1000
0101
1000
0110
1000
0110
,
1001
0011
0100
0011
0100
0011
0100
0011
,
0100
0011
0100
0011
0100
0011
0110
1100
,
0010
0000
0000
0000
0000
0000
0000
0000
0000
0000
0000
0000
0000
0000
0000
0100
0000
0000
0000
0000
0000
0000
0000
0000
0000
0000
0000
0000
0010
0000
0000
0000
0000
0000
0000
0000
0000
0000
0000
0100
0000
0000
0000
0000
0000
1000
0000
0000
0000
0000
0000
0000
0000
0000
0000
0000
0000
0000
0000
0001
0000
0000
0000
0000
0000
0000
0000
0000
0000
0000
0000
0000
0000
0000
0000
1000
0000
0000
0000
0000
0000
0000
0000
0000
0000
0000
0000
0000
0000
0000
0001
0000
0000
0000
0000
0000
0000
0000
0000
0000
0000
0000
0100
0000
0000
0000
0000
0000
0000
0000
0000
0000
0000
0000
0001
0000
0000
0000
0000
0000
0000
0000
0000
0000
0000
0000
0100
0000
0000
0000
0000
0000
0000
0000
0000
0000
0000
0000
0001
0000
0000
0000
0000
0000
0000
0000
0000
0000
0000
0000
1000
0000
0000
0000
0000
0000
0000
0000
0000
0000
0000
0000
0000
0000
0000
0010
0000
0000
0000
0000
0000
0000
0000
0000
0000
0000
0000
0000
0000
0000
0100
0000
0000
0000
0000
0000
0000
0000
0000
0000
0000
0000
,
0001
0000
0000
0000
0000
0000
0000
0000
0000
0000
0000
0000
0000
0000
0000
0000
0010
0000
0000
0000
0000
0000
0000
0000
0000
0000
0000
0000
0000
0000
0000
0000
0000
0000
0000
0000
0000
0000
0000
0100
0000
0000
0000
0000
0000
0000
0000
0000
0000
0000
0000
1000
0000
0000
0000
0000
0000
0000
0000
0000
0000
0000
0000
0100
0000
0000
0000
0000
0000
0000
0000
0000
0000
0000
0000
0010
0000
0000
0000
0000
0000
0000
0000
0000
0000
0000
0000
0100
0000
0000
0000
0000
0000
0000
0000
0000
1001
0000
0000
0000
0000
0000
0000
0000
0000
0000
0000
0000
0000
0000
0000
0000
0000
0000
0000
0000
0000
0000
0000
0000
0001
0000
0000
0000
0000
0000
0000
0000
0000
0000
0000
0000
0000
0000
0000
0000
0000
0000
0000
0000
0000
0000
0000
0000
1001
0000
0000
0000
0000
0000
0000
0000
0000
0000
0000
0000
0000
0000
0000
0000
0000
0000
0000
0000
0000
0000
0000
0000
0001
0000
0000
0000
0000
0000
0000
0000
0000
0000
0000
0000
0000
0000
0000
0000
0000
0000
0000
0000
0000
0000
0000
0000
,
0110
0001
1000
0001
0110
1000
0001
1000
,
0101
0010
0101
0110
1001
0110
0101
0010
,
2002
3000
0103
0000
0010
0000
1000
0000
0101
0000
0010
0000
1100
0000
0110
0000
,
1001
0110
0001
0010
1100
0010
0001
1000
,
0022
0030
0103
0000
0011
0000
1001
0000
0110
0000
1001
0000
0101
0000
0010
0000
,
0101
1000
0010
0001
1010
0100
0011
1000
,
0010
0001
0001
0001
0001
0001
1001
0001
,
0001
0001
0001
0001
0101
0010
0100
1000
,
0022
0030
0103
0000
0010
0000
1000
0000
0101
0000
0010
0000
1000
0000
0001
0000
,
0110
1000
0101
1001
0110
1000
0010
0100
,
2002
3000
0013
0000
0100
0000
1000
0000
0011
0000
0100
0000
1001
0000
1010
0000
,
0101
1010
1001
0100
1010
0100
0011
0100
,
1010
0010
0010
0010
0010
0010
0110
0010
,
0010
0010
0010
0010
0110
0010
0010
0010
,
1001
1001
1001
1001
1001
0000
1001
1001
,
1001
1001
1001
1001
1010
1010
1010
1010
,
1100
1010
1100
1001
1100
0001
1000
1000
,
1000
0100
1000
0010
1001
0011
1001
1001
,
0110
1010
0110
0101
0110
1001
0110
0110
,
0021
0001
0031
0201
0001
0301
1001
0101
,
1100
1010
1100
1001
1100
0001
1000
1000
,
1000
0100
1000
0010
1000
0011
1001
1001
,
0110
1010
0110
0011
1100
0011
0110
0110
,
1010
0001
0001
0101
1000
0001
0011
1001
,
1100
1010
1100
1001
1000
0001
1000
1000
,
1000
0100
1000
0010
1001
0011
1001
1001
,
0110
1010
0110
0101
0110
1001
0110
0110
,
0021
0001
0031
0201
0001
0301
1001
0101
,
1100
1010
1100
1001
1100
0001
1000
1000
,
1000
0100
1000
0010
1000
0011
1001
1001
,
0110
1010
0110
0011
1100
0011
0110
0110
,
1010
0001
0001
0101
1000
0001
0011
0101
,
1010
0101
1000
0101
1000
0101
1000
0101
,
1000
0101
1000
0101
1000
0101
0110
1010
,
0110
1001
0010
1001
0010
1001
0010
1001
,
0010
1001
0010
1001
0010
1100
0010
1100
,
1010
0101
1000
0101
1000
0101
1000
0101
,
1000
0101
1000
0101
1000
0101
0110
1010
,
0100
1000
0100
0010
0001
0100
0010
1000
0100
1000
0010
0100
,
0001
1000
0010
1000
0001
0100
0001
1000
0001
1000
0001
0100
,
1010
0101
1000
0101
1000
0101
1000
0101
,
1000
0101
1000
0101
1000
0101
0110
1010
,
0110
1001
0010
1001
0010
1001
0010
1001
,
0010
1001
0010
1001
0010
1100
0010
1100
,
1010
0101
1000
0101
1000
0101
1000
0101
,
1000
0000
0101
0000
1000
0000
0101
0000
1000
0000
0101
0000
0110
0000
0001
0010
,
0100
0000
0000
0000
0000
0000
0000
0000
0000
0000
0000
0000
0000
0000
0000
1000
0000
0000
0000
0000
0000
0000
0000
0000
0000
0000
0000
0000
0100
0000
0000
0000
0000
0000
0000
0000
0000
0000
0000
1000
0000
0000
0000
0000
0000
0001
0000
0000
0000
0000
0000
0000
0000
0000
0000
0000
0000
0000
0000
0100
0000
0000
0000
0000
0000
0000
0000
0000
0000
0000
0000
0000
0000
0000
0000
0001
0000
0000
0000
0000
0000
0000
0000
0000
0000
0000
0000
0000
0000
0000
0100
0000
0000
0000
0000
0000
0000
0000
0000
0000
0000
0000
0010
0000
0000
0000
0000
0000
0000
0000
0000
0000
0000
0000
1000
0000
0000
0000
0000
0000
0000
0000
0000
0000
0000
0000
0010
0000
0000
0000
0000
0000
0000
0000
0000
0000
0000
0000
1000
0000
0000
0000
0000
0000
0000
0000
0000
0000
0000
0000
0001
0000
0000
0000
0000
0000
0000
0000
0000
0000
0000
0000
0000
0000
0000
0100
0000
0000
0000
0000
0000
0000
0000
0000
0000
0000
0000
0000
0000
0000
0001
0000
0000
0000
0000
0000
0000
0000
0000
0000
0000
0000
,
1000
0000
0000
0000
0000
0000
0000
0000
0000
0000
0000
0000
0000
0000
0000
0000
0100
0000
0000
0000
0000
0000
0000
0000
0000
0000
0000
0000
0000
0000
0000
0000
0000
0000
0000
0000
0000
0000
0000
0010
0000
0000
0000
0000
0000
0000
0000
0000
0000
0000
0000
0001
0000
0000
0000
0000
0000
0000
0000
0000
0000
0000
0000
0010
0000
0000
0000
0000
0000
0000
0000
0000
0000
0000
0000
0100
0000
0000
0000
0000
0000
0000
0000
0000
0000
0000
0000
0010
0000
0000
0000
0000
0000
0000
0000
0000
1001
0000
0000
0000
0000
0000
0000
0000
0000
0000
0000
0000
0000
0000
0000
0000
0000
0000
0000
0000
0000
0000
0000
0000
1000
0000
0000
0000
0000
0000
0000
0000
0000
0000
0000
0000
0000
0000
0000
0000
0000
0000
0000
0000
0000
0000
0000
0000
1001
0000
0000
0000
0000
0000
0000
0000
0000
0000
0000
0000
0000
0000
0000
0000
0000
0000
0000
0000
0000
0000
0000
0000
1000
0000
0000
0000
0000
0000
0000
0000
0000
0000
0000
0000
0000
0000
0000
0000
0000
0000
0000
0000
0000
0000
0000
0000
,
0110
0001
1000
0010
0101
1000
0010
0100
,
1001
0010
1100
1010
0101
1010
1001
0010
,
0202
0300
0013
0000
0100
0000
1000
0000
0110
0000
1000
0000
0011
0000
0101
0000
,
1010
0101
0010
1000
0011
0100
1000
0100
,
2020
3000
0130
0000
1001
0000
1100
0000
0011
0000
1100
0000
1010
0000
0100
0000
,
1001
0010
0100
1000
0011
0100
1010
0100
,
0010
1000
1000
1000
1000
1000
1001
1000
,
1000
1000
1000
1000
1001
0010
0100
1000
,
0220
0300
1030
0000
0001
0000
1000
0000
0011
0000
0100
0000
0010
0000
1000
0000
,
0110
0001
1010
1100
0011
1100
1001
0100
,
2002
3000
0103
0000
1000
0000
0100
0000
0011
0000
0100
0000
0011
0000
1001
0000
,
0110
1001
1010
0100
0011
0100
0001
0010
,
1100
0100
0100
0100
0100
0100
0110
0100
,
0100
0100
0100
0100
0110
0100
0100
0100
,
1001
0000
1001
0000
1001
0000
1001
0000
1001
0000
1001
0000
1000
0010
0100
0001
,
1000
1001
1001
1001
0001
0010
0100
1000
,
1100
1010
1100
1001
1000
0001
1000
1000
,
1000
0100
1000
0010
1001
0011
1001
1001
,
0110
1010
0110
0101
0110
1001
0110
0110
,
0021
0001
0031
0201
0001
0301
1001
0101
,
1100
1010
1100
1001
1100
0001
1000
1000
,
1000
0100
1000
0010
1000
0011
1001
1001
,
0110
1010
0110
0011
1100
0011
0110
0110
,
1010
0001
0001
0101
1000
0001
0011
1001
,
1100
1010
1100
1001
1100
0001
1000
1000
,
1000
0100
1000
0010
1001
0011
1001
1001
,
0110
1010
0110
0101
0110
1001
0110
0110
,
0021
0001
0031
0201
0001
0301
1001
0101
,
1100
1010
1100
1001
1100
0001
1000
1000
,
1000
0100
1000
0010
1000
0011
1001
1001
,
0110
1010
0110
0011
1100
0011
0110
0110
,
1010
0001
0001
0101
1000
0001
0011
0101
,
1010
0010
0010
0010
0110
0010
0010
0010
,
1010
0010
0010
0010
0110
0010
0010
0010
,
1010
0010
0010
0010
0110
0010
0010
0010
,
1001
0010
0101
1001
0110
1001
0101
0010
,
1001
0001
1010
0001
0101
1000
0011
0001
,
1100
0001
0011
1000
0101
0001
1010
0010
,
0101
0001
1000
0001
0101
1000
0011
0001
,
0101
0110
1000
0100
1010
0011
0100
0011
,
1010
0010
0100
0010
0011
0100
1010
0010
,
1100
0010
1010
0100
0011
1010
0001
0001
,
0110
0011
1100
0010
0011
1100
1010
0010
,
0001
1010
0100
1000
0110
0011
0100
1010
,
1001
0001
1010
0001
0101
1100
0001
0001
,
0110
0011
0001
1000
0101
1001
0010
0010
,
1001
0011
1000
0001
0101
1100
0001
0001
,
1010
0101
1000
0100
0011
1010
0100
0001
,
0001
0010
0100
1000
0001
0000
0001
0000
0200
0000
0301
0000
0001
0000
0001
0000
,
0100
0000
1000
1000
0101
0001
0001
0001
,
0000
0001
0000
1000
0011
0001
0001
0001
,
0000
0001
0000
1000
0101
0001
0001
0001
,
0100
0110
0100
0100
0110
0100
0110
0110
,
1000
0000
0110
0110
1001
1000
1000
1000
,
0010
1000
0010
0001
1100
1000
1000
1000
,
0100
0100
0100
0100
0110
0100
0100
0101
,
0010
0010
1010
0010
0110
0110
1010
1010
,
0101
0000
1000
1000
0110
0010
0010
0010
,
0000
0010
0000
1000
0011
0010
0010
0010
,
0000
0010
0000
0100
1010
0010
0010
0010
,
1000
1001
1000
1000
1001
1000
1001
1001
,
0100
0000
0010
0010
0101
0100
0100
0100
,
0000
0100
0000
0001
1100
0100
0100
0100
,
0010
0010
0010
0010
0110
0010
0010
0010
,
0001
1001
0001
0001
1001
0001
0011
0001
,
1010
1100
1010
1001
1100
1001
1010
1100
,
0100
0011
0100
0011
0100
0011
0100
0011
,
0100
0011
0100
0011
0100
0011
0110
1100
,
1000
0101
1000
0101
1000
0101
1000
0101
,
1000
0101
1000
0101
1000
0110
1000
0110
,
1000
0011
0100
0011
0100
0011
0100
0011
,
0100
0011
0100
0011
0100
0011
0110
1100
,
0010
0000
0000
0000
0000
0000
0000
0000
0000
0000
0000
0000
0000
0000
0000
0000
0100
0000
0000
0000
0000
0000
0000
0000
0010
0000
0000
0000
0000
0000
0000
0000
0000
0100
0000
0000
0000
0000
0000
0000
0000
0000
0000
0000
0000
0001
0000
0000
0000
0000
0000
0000
0000
0000
0000
0000
0000
1000
0000
0000
0000
0000
0000
0000
0000
0000
0000
0000
0000
0001
0000
0000
0000
0000
0000
0000
0000
0000
0000
0000
0000
1000
0000
0000
0000
0000
0000
0000
0000
0000
0000
0000
0000
0100
0000
0000
0000
0000
0000
0000
0000
0000
0010
0000
0000
0000
0000
0000
0000
0000
0000
0000
0000
0000
0000
0000
0000
0000
0000
0000
0001
0000
0000
0000
0000
0000
0000
0000
0000
0000
0000
0000
0010
0000
0000
0000
0000
0000
0000
0000
0000
0000
0000
0000
0100
0000
0000
0000
0000
0000
0000
0000
0000
0000
0000
0000
1000
0000
0000
0000
0000
0000
0000
0000
0000
0000
0000
0000
0100
0000
0000
0000
0000
0000
0000
0000
0000
0010
0000
0000
0000
0000
0000
0000
0000
0000
0000
0000
0000
0000
0000
0000
,
0001
0000
0000
0000
0000
1000
0000
0000
0001
0000
0000
0000
1000
0000
0000
0000
0010
0000
0000
0000
0100
0000
0000
0000
0001
0000
0000
0000
1000
0000
0000
0000
0110
0000
0000
0000
0000
0000
0000
0000
0010
0000
0000
0000
0000
0000
0000
0000
0101
0000
0000
0000
0000
0000
0000
0000
0100
0000
0000
0000
0000
0000
0000
0000
,
1010
0001
0100
0010
1100
0001
0010
0100
,
1001
0010
1100
1010
0101
1010
1001
0010
,
0202
0300
0013
0000
1000
0000
0001
0000
0110
0000
1000
0000
0101
0000
0011
0000
,
1100
0011
0100
1000
0110
0001
1000
0010
,
2200
0300
3001
0000
0011
0000
0110
0000
1001
0000
0110
0000
1100
0000
1000
0000
,
0011
0100
0001
0010
0101
0010
0101
1000
,
0100
0001
0001
0001
0001
0001
1001
0001
,
0001
0001
0001
0001
0101
0010
0100
1000
,
0110
1000
0001
0010
0101
1000
0100
0010
,
1100
0001
0110
1010
0101
1010
1001
0100
,
0011
0100
1000
0010
0101
0010
0101
1001
,
0011
1100
1010
0001
1100
0010
0101
1000
,
0110
0010
0010
0010
0010
0010
0011
0010
,
0010
0010
0010
0010
0011
0010
0010
0010
,
1001
0000
1001
0000
1001
0000
1001
0000
1001
0000
1001
0000
0001
0100
0010
1000
,
0001
1001
1001
1001
0010
0100
1000
0100
,
0011
0101
0011
1001
0011
1000
0001
0001
,
0001
0010
0001
0100
1001
1100
1001
1001
,
0110
0101
0110
1010
0110
1001
0110
0110
,
1200
1000
1300
1020
1000
1030
1001
1010
,
0011
0101
0011
1001
0011
1000
0001
0001
,
0001
0010
0001
0100
0001
1100
1001
1001
,
0110
0101
0110
1100
0011
1100
0110
0110
,
0101
1000
1000
1010
0001
1000
1100
1001
,
0011
0101
0011
1001
0001
1000
0001
0001
,
0001
0010
0001
0100
1001
1100
1001
1001
,
0110
0101
0110
1010
0110
1001
0110
0110
,
1200
1000
1300
1020
1000
1030
1001
1010
,
0011
0101
0011
1001
0011
1000
0001
0001
,
0001
0010
0001
0100
0001
1100
1001
1001
,
0110
0101
0110
1100
0011
1100
0110
0110
,
0101
1000
1000
1010
0001
1000
1100
1010
,
0100
0010
0100
0010
0100
0010
0100
0010
,
1100
0011
1000
0011
1000
0011
1000
0011
,
1000
0011
1000
0011
1000
0011
1001
1100
,
0110
1001
0010
1001
0010
1001
0010
1001
,
0010
1001
0010
1001
0010
0101
0010
0101
,
1100
0011
1000
0011
1000
0011
1000
0011
,
1000
0011
1000
0011
1000
0011
1001
1100
,
0010
0000
0000
0000
0000
0000
0000
0000
0000
0000
0000
0000
0000
0000
0000
0000
0100
0000
0000
0000
0000
0000
0000
0000
0001
0000
0000
0000
0000
0000
0000
0000
0000
0000
0000
0000
0010
0000
0000
0000
0000
0000
0000
0000
0000
0000
0000
0000
0100
0000
0000
0000
0000
0000
0000
0000
0000
0000
0000
0000
1000
0000
0000
0000
0000
0000
0000
0000
0000
0000
0000
0000
0010
0000
0000
0000
0000
0000
0000
0000
0000
0000
0000
0000
0100
0000
0000
0000
0000
0000
0000
0000
0000
0000
0000
0000
0002
0000
0000
0000
0000
0000
0000
0000
0000
0000
0000
0000
1003
0000
0000
0000
0000
0000
0000
0000
0000
0000
0000
0000
0100
0000
0000
0000
0000
0000
0000
0000
0000
0000
0000
0000
0010
0000
0000
0000
0000
0000
0000
0000
0000
0000
0000
0000
0001
0000
0000
0000
0000
0000
0000
0000
0000
0010
0000
0000
0000
0000
0000
0000
0000
0000
0000
0000
0000
0100
0000
0000
0000
0000
0000
0000
0000
0000
0000
0000
0000
1000
0000
0000
0000
0000
0000
0000
0000
0000
0000
0000
0000
0000
0000
0000
,
0010
0000
0000
0000
0000
0000
0000
0000
0000
0000
0000
0000
0100
0000
0000
0000
0000
0000
0000
0000
0000
0000
0000
0000
0000
0000
0000
0001
0000
0000
0000
0000
0000
0000
0000
0000
0000
0000
0000
0000
1000
0000
0000
0000
0000
0000
0000
0000
0000
0000
0000
0000
0000
0000
0000
0000
0100
0000
0000
0000
0000
0000
0000
0000
0010
0000
0000
0000
0000
0000
0000
0000
0001
0000
0000
0000
0000
0000
0000
0000
0000
0000
0000
0000
0000
0000
0000
0000
0010
0000
0000
0000
0000
0000
0000
0000
1100
0000
0000
0000
0000
0000
0000
0000
0000
0000
0000
0000
0000
0000
0000
0000
0000
0000
0000
0000
0000
0000
0000
0000
0000
0000
0000
0000
0000
0000
0000
0000
0000
0000
0000
0000
0000
0000
0000
0000
0000
0000
0000
0000
0000
0000
0000
0000
1100
0000
0000
0000
0000
0000
0000
0000
0000
0000
0000
0000
0000
0000
0000
0000
0000
0000
0000
0000
0000
0000
0000
0000
0000
0000
0000
0000
0000
0000
0000
0000
0000
0000
0000
0000
0000
0000
0000
0000
0000
0000
0000
0000
0000
0000
0000
0000
;
