#TITLE:Tie My Rope;
#SUBTITLE:Penguin Shoulder;
#ARTIST:Children Of Bodom;
#TITLETRANSLIT:;
#SUBTITLETRANSLIT:;
#ARTISTTRANSLIT:;
#CREDIT:;
#BANNER:;
#BACKGROUND:;
#LYRICSPATH:;
#CDTITLE:;
#MUSIC:Children_Of_Bodom_-_Tie_My_Rope.mp3;
#OFFSET:-0.280;
#SAMPLESTART:124.740;
#SAMPLELENGTH:12.000;
#SELECTABLE:YES;
#BPMS:0.000=132.001,32.000=266.001,36.000=132.001,264.000=134.001,268.000=132.001,272.000=260.002,280.000=132.001,492.000=264.002,496.000=132.501,504.000=132.001;
#STOPS:32.000=0.020
;
#BGCHANGES:;
// cache tags:
#FIRSTBEAT:0.000;
#LASTBEAT:563.000;
#SONGFILENAME:Songs/toune 5/Tie My Rope/Children_Of_Bodom_-_Tie_My_Rope.sm;
#HASMUSIC:1;
#HASBANNER:0;
#MUSICLENGTH:254.040;
// end cache tags

//---------------dance-single - ----------------
#NOTES:
     dance-single:
     :
     Hard:
     11:
     1.000,1.000,1.000,1.000,1.000,1465.000,318.000,296.000,0.000,2.000:
0100
0010
0001
0010
1000
0010
0100
0001
0100
1000
0010
0100
0010
0001
0100
0010
,
1000
0100
0010
0100
0001
0010
0100
1000
0010
0001
0100
0010
1000
0100
0001
0010
,
0001
1000
0010
1000
0100
1000
0001
0010
0001
0100
1000
0001
1000
0010
0001
1000
,
0100
0001
1000
0001
0010
1000
0001
0100
1000
0010
0001
1000
0100
0001
0010
1000
,
0010
0100
1000
0100
0001
0100
0010
1000
0010
0001
0100
0010
0100
1000
0010
0100
,
0001
0010
0100
0010
1000
0100
0010
0001
0100
1000
0010
0100
0001
0010
1000
0100
,
1000
0001
0100
0001
0010
0001
1000
0100
1000
0010
0001
1000
0001
0100
1000
0001
,
1000
1000
1000
0022
0030
0103
1010
1010
2020
3030
0101
0101
0101
0000
0000
0000
,
0000
0000
1001
0000
,
1000
0100
0001
0200
0300
1000
0100
0001
0010
0100
1000
0200
0300
0001
0200
0300
,
1000
0100
0001
0200
0300
1000
0100
0000
0101
0000
0101
0000
0101
0000
0011
0000
,
1000
0100
0001
0200
0300
1000
0100
0001
0010
0100
1000
0200
0300
0001
0200
0300
,
1000
0100
0001
0200
0300
1000
0100
0000
1010
0000
1010
0000
1010
0000
0110
0000
,
0001
0010
1000
0020
0030
0001
0010
1000
0100
0010
0001
0020
0030
1000
0020
0030
,
0001
0010
1000
0020
0030
0001
0010
0000
1010
0000
1010
0000
1010
0000
1100
0000
,
1000
0100
0001
0200
0300
1000
0100
1000
0001
0100
1000
0020
0030
0001
0020
0030
,
1000
1000
1000
0220
0330
1000
0101
0101
0101
0000
0011
0011
0011
0000
0000
0000
,
0100
0100
0100
2020
3030
0100
0022
0033
0100
0100
0100
2020
3030
0100
0220
0330
,
0100
0100
0100
2020
3030
0100
1100
0000
1000
1000
0011
0100
1000
1000
0011
0000
,
0010
0010
0010
0202
0303
0010
2200
3300
0010
0010
0010
0202
0303
0010
0220
0330
,
0010
0010
0010
0202
0303
0010
0011
0000
0010
0010
1000
1000
0001
0001
0100
0100
,
0000
0000
0002
0103
1010
0000
0110
0000
0001
0010
0001
2200
3300
0001
1010
0001
,
0010
0100
0020
0030
0100
0002
0003
0001
0010
0100
1010
0001
0100
0100
1010
0000
,
0200
0300
0000
0010
1000
0100
0011
0100
0220
0330
2200
3300
2020
3030
0202
0303
,
0022
0033
0100
2020
3030
0000
0110
0000
0010
0010
1000
1000
0001
0001
0100
0100
,
1000
0101
0110
2000
3001
0101
1010
0110
,
0101
0000
0001
0010
0100
0020
0000
0030
1100
0100
0011
0100
1000
1000
0011
0000
,
0000
0000
0000
0000
0000
0000
1010
0000
0000
0000
0000
0000
0100
0000
0000
0010
0000
0000
1000
0000
0000
0200
0000
0000
0300
0000
0000
0000
0000
0000
0011
0000
0000
0000
0110
0000
0000
0000
0000
0000
0000
0000
1100
0000
0000
0000
0000
0000
,
1000
0010
2002
0000
3003
0000
0220
0000
0330
0000
2010
0001
3100
0010
1000
0100
,
1000
0100
1000
0100
0022
0033
1000
0220
0330
0000
0000
0000
0002
0003
0022
0000
,
0033
0000
0100
1000
0011
0000
0100
0000
1010
0000
0000
0110
0000
0000
0011
0000
,
2000
0000
0000
3200
0000
0300
0020
0032
,
0003
0000
1000
1000
0022
0033
1000
1000
0220
0330
1000
1000
0202
0000
0303
0000
,
1000
0100
1000
0100
0022
0033
1000
0220
0330
0000
0020
0000
0032
0003
0022
0000
,
0033
0000
0100
1000
0011
0000
0100
0000
1010
0000
0000
0110
0000
0000
0011
0000
,
2200
0000
0000
3300
0000
0000
0020
0032
,
0003
0000
1100
0000
1010
0000
1100
0000
0000
0000
1100
0000
0000
0110
0000
0000
,
1001
0100
0001
0200
0300
1000
0100
0001
0010
0100
1000
0200
0300
0001
0200
0300
,
1000
0100
0001
0200
0300
1000
0100
0000
0101
0000
0101
0000
0101
0000
0011
0000
,
1000
0100
0001
0200
0300
1000
0100
0001
0010
0100
1000
0200
0300
0001
0200
0300
,
1000
0100
0001
0200
0300
1000
0100
0000
1010
0000
1010
0000
1010
0000
0110
0000
,
0001
0010
1000
0020
0030
0001
0010
1000
0100
0010
0001
0020
0030
1000
0020
0030
,
0001
0010
1000
0020
0030
0001
0010
0000
1010
0000
1010
0000
1010
0000
1100
0000
,
1000
0100
0001
0200
0300
1000
0100
1000
0001
0100
1000
0020
0030
0001
0020
0030
,
1000
1000
1000
0220
0330
1000
0101
0101
0101
0000
0011
0011
0011
0000
0000
0000
,
0000
0000
0101
0000
1010
0000
0110
0000
0001
0010
0000
2200
3300
0000
0110
0000
,
1010
0000
0100
1010
0000
0000
0101
0000
1010
0100
1010
0001
0100
0100
1010
0000
,
0200
1300
0000
0022
0033
0100
0001
0000
0220
0330
2200
3300
2020
3030
0202
0303
,
0022
0033
0100
1000
0100
2000
3000
0000
1010
0010
1000
1000
0001
0001
0100
0100
,
1000
0100
0010
0000
0110
0000
1000
0100
1001
0000
0101
0000
1010
0000
0110
0000
,
0101
0000
0000
0000
0100
0010
0001
0000
1100
0100
0011
0100
1000
1000
0011
0000
,
0001
0100
0001
0020
0030
0000
1000
0010
0101
0000
0011
0000
1010
0000
0022
0033
,
0000
2002
3003
0220
0330
2002
3003
0110
,
1001
0010
0001
0010
2200
3300
0001
0220
0330
0000
0000
0000
2000
3000
2200
0000
,
3300
0000
0010
0001
1100
0000
0010
0000
0101
0000
0000
0110
0000
0000
1100
0000
,
0002
0000
0000
0023
0000
0030
0200
2300
,
3000
0000
0001
0001
2200
3300
0001
0001
0220
0330
0001
0001
2020
0000
3030
0000
,
0001
0010
0001
0010
2200
3300
0001
0220
0330
0000
0200
0000
2000
0000
0000
0000
,
3300
0000
0010
0001
1100
0000
0010
0000
0101
0000
0000
0110
0000
0000
1100
0000
,
0022
0000
0000
0033
0000
0000
0200
2300
,
3000
0000
0000
0000
0011
0000
0000
0000
0101
0000
0000
0000
0011
0000
0000
0000
0000
0000
0000
0000
1000
0000
0010
0000
0100
0000
0001
0000
1000
0001
0010
0100
,
1001
1001
0010
0100
0001
0100
0010
1000
,
0101
0100
0001
0010
1100
1000
0100
0010
,
0011
0000
1010
0000
0011
0000
0010
0000
0100
0000
1000
0000
0100
0001
0100
0001
,
0010
1000
0011
0100
0010
0001
0010
0100
,
1010
0000
1010
0000
0100
0000
0001
0000
0010
0000
0100
0000
1000
0000
0100
0010
,
0101
0010
0001
0010
0101
1000
0100
1000
,
0011
0000
0110
0000
0011
0000
0100
0000
1000
0000
0010
0001
1000
0100
1000
0000
,
0011
0000
0000
0000
0000
0000
0000
0000
0000
0000
0000
0000
0000
0000
0000
0000
0000
0000
0000
0000
0000
0000
0000
0001
,
0000
0000
0000
0000
0000
0000
0000
0000
0010
0000
0000
0000
0000
0000
0000
0000
0000
0000
0000
0000
0000
0000
0000
0000
0100
0000
0000
0000
0000
0000
0000
0000
0000
0000
0000
0000
0000
0000
0000
0000
1000
0000
0000
0000
0000
0000
0000
0000
0000
0000
0000
0000
0000
0000
0000
0000
0001
0000
0000
0000
0000
0000
0000
0000
0000
0000
0000
0000
0000
0010
0000
0000
0000
0000
0000
0000
0000
0000
0000
0000
0000
0000
0000
0000
0100
0000
0000
0000
0000
0000
0000
0000
0000
0000
0000
0000
1001
0000
0000
0000
0000
0000
0000
0000
0000
0000
0000
0000
0000
0000
0000
0000
0000
0000
0000
0000
0000
0000
0000
0000
0000
0000
0000
0000
0000
0000
0000
0000
0000
0000
0000
0000
0000
0000
0000
0000
0000
0000
0000
0000
0000
0000
0000
0000
0000
0000
0000
0000
0000
0000
0000
0000
0000
0000
0000
0000
0000
0000
0000
0000
0000
0000
0000
0000
0000
0000
0000
0000
0000
0000
0000
0000
0000
0000
0000
0000
0000
0000
0000
0000
0000
0000
0000
0000
0000
0000
0000
0000
0000
0000
0000
0000
,
1000
0000
0020
0031
0010
0000
0200
0000
0300
0000
0001
0000
0100
0000
0010
0000
,
0010
0100
0010
0100
1000
0100
0010
0100
0001
0010
0001
0010
0100
0010
0001
0010
,
1000
0000
0020
0031
0010
0000
0200
0000
0000
0000
0320
0000
0032
0000
0023
0030
,
1000
0010
1000
0010
0001
0010
1000
0010
1000
0100
0001
0010
0100
0010
0001
0100
,
1000
0000
0101
0000
0011
0000
0202
0000
0000
0000
0303
1000
0100
0000
0010
0000
,
0101
0110
0202
0303
1100
1010
2200
3300
,
0000
1010
0101
0022
0000
0033
0000
1000
,
0022
0033
0022
0033
0011
0101
0022
0033
,
0000
1010
1100
0202
0000
0303
0000
1000
,
0110
0000
0101
0000
1010
0100
2002
3003
,
0000
1100
0110
0022
0000
0033
0000
0000
,
1010
0000
1010
0000
0101
0110
1001
0000
,
0100
0010
0001
0200
0310
1000
0010
0000
0001
0010
1000
0200
0310
0001
0010
0000
,
1000
0100
0010
0200
0310
1000
0100
0000
1100
0000
1100
0000
1100
0000
1010
0000
,
1010
0100
0010
0220
0330
1000
0110
0000
0101
0010
1000
0202
0303
0010
0101
0000
,
1010
0100
0010
0220
0330
1000
0110
0001
1010
0100
1000
0011
0100
1000
0011
0011
,
1100
0010
0100
2002
3003
0100
1001
0000
0011
1000
0100
0022
0033
1000
0011
0000
,
1100
0010
0100
2002
3003
0100
1001
0010
1100
0001
0100
1010
0001
0100
1010
1010
,
0011
0100
0010
2002
3003
0010
1001
0000
1100
0001
0010
2200
3300
0001
1100
0000
,
0011
0100
0010
2002
3003
0010
1001
0100
0011
1000
0010
0101
1000
0010
0101
0101
,
0001
1000
0100
0010
0100
0010
0001
0100
0010
0002
0003
0010
0001
1000
0010
0001
,
0010
0001
1000
0100
1000
0100
0010
1000
0100
0020
0030
0100
0010
0001
0100
0010
,
0001
0100
0001
1000
0001
1000
0010
0001
1000
0020
0030
1000
0010
0100
1000
0010
,
1000
0010
0100
0001
0100
0001
1000
0100
0001
1000
0010
0001
2000
0200
0000
3300
,
1000
0001
0010
0100
0010
0100
1000
0010
0100
1000
0001
0100
1000
0001
0010
1000
,
0100
1000
0001
0010
0001
0100
1000
0001
0010
0100
0001
0010
0100
1000
0010
0100
,
0001
0010
1000
0001
1000
0001
0100
1000
0001
0100
0010
0001
0100
0010
0001
0100
,
0001
0100
0010
0001
0100
0010
0001
0100
0010
0001
0100
0010
0002
0000
0003
0000
,
0010
0001
1000
0100
1000
0100
0010
1000
0100
0020
0030
0100
0010
0001
0100
0010
,
0100
0010
0001
1000
0001
1000
0100
0001
1000
0200
0300
1000
0100
0010
1000
0100
,
0010
1000
0010
0001
0010
0001
0100
0010
0001
0200
0300
0001
0100
1000
0001
0100
,
0001
0100
1000
0010
1000
0010
0001
1000
0010
0001
0100
0010
0002
2000
0000
3003
,
0001
0010
0100
1000
0100
1000
0001
0100
1000
0001
0010
1000
0001
0010
0100
0001
,
1000
0001
0010
0100
0010
1000
0001
0010
0100
1000
0010
0100
1000
0001
0100
1000
,
0010
0100
0001
0010
0001
0010
1000
0001
0010
1000
0100
0010
1000
0100
0010
1000
,
0001
0000
0100
0000
0010
0000
1000
0000
0010
0000
0100
0000
0001
0000
0100
0000
0010
0000
1000
0000
0010
0000
0100
0000
0001
0000
0100
0000
0010
0000
1000
0000
0010
0000
0100
0000
0002
0000
0000
0000
0000
0000
0000
0000
0000
0003
0000
0000
,
0000
0000
2000
0000
3022
0000
0033
0202
0000
0000
0000
0000
0000
0000
0000
0303
,
0001
0010
1000
0100
0010
0100
0001
0010
1000
0100
0010
0100
0010
1000
0100
1000
,
0010
0000
0100
0000
0010
0000
0100
0000
1000
0000
0001
0000
0100
0000
0010
0000
1000
0000
0100
0000
0010
0000
0100
0000
0001
0000
0010
0000
0100
0000
1000
0100
,
0010
0000
0100
0000
1000
0000
0100
0000
0020
0000
0031
0000
0010
0000
1000
0000
0200
0000
0310
0000
0002
0000
0203
0000
0000
0000
0300
0020
0000
0000
0030
0000
,
0022
0000
0000
0030
0000
0003
0022
0000
0000
0030
0000
0003
0022
0000
0030
0000
,
0003
0000
0000
0000
0002
0000
2003
0000
3200
0300
0002
0200
0000
0300
0000
0200
0000
0300
0000
0020
0000
0000
0000
0000
0000
0000
0003
0000
0000
0000
0030
0000
,
0001
0010
0100
0010
0100
1000
0010
0100
1000
0100
0001
0100
1000
0100
0010
0100
0010
0001
0100
0010
0001
0010
0100
1000
,
0100
0001
0010
0100
1000
0010
0100
0010
0001
0010
0100
0010
0100
1000
0100
0010
,
0002
0003
0100
0100
0001
0001
1000
1000
0010
0010
0100
0100
0010
0010
1000
0200
,
0000
0002
0000
0000
0000
0000
0003
0000
0000
0002
0000
0000
0000
0000
0000
0000
0000
0000
0000
0000
0000
0000
0000
0000
0000
0000
0000
0000
0000
0000
0000
0000
0000
0000
0000
0000
0000
0000
0000
0000
0000
0000
0000
0000
0000
0000
0000
0000
0003
0000
0000
0000
0000
0000
0000
0000
0300
0000
0000
0000
0000
0000
0000
0000
,
0101
0100
0001
0010
1100
1000
0100
0010
,
0011
0000
1010
0000
0011
0000
0010
0000
0100
0000
1000
0000
0100
0001
0100
0001
,
0010
1000
0011
0100
0010
0001
0010
0100
,
1010
1010
0100
0001
0010
0100
1000
0100
,
0101
0010
0001
0010
0101
1000
0100
1000
,
0011
0000
0110
0000
0101
0010
0100
1000
0001
0010
0100
1000
0001
0010
0100
1000
,
0100
0010
0100
0002
0000
1003
0101
0101
0202
0303
1010
1010
1010
0100
0010
0100
,
0001
0010
0100
1000
0001
0010
0100
1000
,
1000
0000
0101
0000
0011
0000
0202
0000
0000
0000
0303
1000
0100
0000
0010
0000
,
0101
0110
0202
0303
1100
1010
2200
3300
,
0000
1010
0101
0022
0000
0033
0000
1000
,
0022
0033
0022
0033
0011
0101
0022
0033
,
0000
1010
1100
0202
0000
0303
0000
1000
,
0110
0000
0101
0000
1010
0100
2002
3003
,
0000
1100
0110
0022
0000
0033
0000
0000
,
1000
0000
0020
0031
0010
0000
0100
0000
0100
0000
0001
0000
0100
0000
0010
0000
,
1000
0000
0020
0031
0010
0000
0200
0000
0300
0000
0001
0000
0100
0000
0010
0000
,
0010
0100
0010
0100
1000
0100
0010
0100
0001
0010
0001
0010
0100
0010
0001
0010
,
1000
0000
0020
0031
0010
0000
0200
0000
0000
0000
0320
0000
0032
0000
0023
0030
,
1000
0010
1000
0010
0001
0010
1000
0010
1000
0100
0001
0010
0100
0010
0001
0100
,
0001
0000
0200
1300
0100
0000
0020
0000
0030
0000
1000
0000
0010
0000
0100
0000
,
0100
0010
0100
0010
0001
0010
0100
0010
1000
0100
1000
0100
0010
0100
1000
0100
,
0001
0000
0200
1300
0100
0000
0020
0000
0000
0000
0230
0000
2300
0000
3200
0300
,
2002
3003
2002
3003
1001
1001
2002
0100
,
0000
0000
0000
3003
;
