#TITLE:The Storm;
#SUBTITLE:;
#ARTIST:Yanni;
#TITLETRANSLIT:;
#SUBTITLETRANSLIT:;
#ARTISTTRANSLIT:;
#CREDIT:;
#BANNER:bn.png;
#BACKGROUND:bg.png;
#LYRICSPATH:;
#CDTITLE:!ZeroTitle.png;
#MUSIC:Yanni - The Storm.mp3;
#OFFSET:-3.006;
#SAMPLESTART:37.737;
#SAMPLELENGTH:20.000;
#SELECTABLE:YES;
#BPMS:0.000=90.000,8.000=90.000,15.000=88.000,17.000=88.000,17.250=87.000,17.500=85.000,17.750=83.000,18.000=80.000,18.250=77.000,18.500=73.000,18.750=69.000,19.000=65.000,20.000=63.000,21.000=61.500,22.000=60.000,23.000=160.000;
#STOPS:39.000=1.125
,332.000=1.125
;
#BGCHANGES:;
// cache tags:
#FIRSTBEAT:8.000;
#LASTBEAT:441.000;
#SONGFILENAME:Songs/Hard Songs Megapack Volume 9/The Storm/Yanni - The Storm.sm;
#HASMUSIC:1;
#HASBANNER:1;
#MUSICLENGTH:184.163;
// end cache tags

//---------------dance-single - ----------------
#NOTES:
     dance-single:
     :
     Hard:
     12:
     1.000,1.000,1.000,0.891,1.000,1600.000,481.000,164.000,0.000,4.000:
0000
0000
0000
0000
,
0000
0000
0000
0000
,
2200
3300
2020
3030
0202
0000
0000
0000
0303
0000
0000
0000
0202
0303
0220
0330
,
0022
0000
0000
0000
0033
0000
0000
0000
2020
3030
2200
3300
0202
0000
0000
0000
,
0303
0000
0000
0000
0220
0330
0202
0303
2200
0000
0000
0000
3300
0000
0000
0000
,
2002
0000
0000
0000
0000
0000
0000
0000
0003
0000
0000
3000
0101
0000
0000
0000
,
0101
0101
0101
0101
,
0101
0000
0101
0000
0101
0000
0101
0101
,
0101
0000
0101
0000
0101
0000
0101
0000
0101
0000
0101
0000
0101
1010
0101
1010
,
0101
1010
0101
1010
0101
1010
0101
1010
0101
1010
0101
1010
0101
0000
0000
0000
,
0101
0010
0100
0010
0101
0010
1000
0010
0101
0010
0100
0010
0101
0010
1000
0010
,
0101
0010
0100
0010
0101
0010
1000
0010
0101
0010
0100
0010
0101
0010
1000
0010
,
0101
0010
0100
0010
0101
0010
1000
0100
0011
1000
0110
1000
0011
1000
0101
0010
,
1001
0100
1000
0100
1001
0100
0010
0100
1001
0100
1000
0100
1001
0100
0010
0100
,
1001
0100
1000
0100
1001
0100
0010
0100
1001
0010
0101
0010
1001
0100
0011
0100
,
1010
0001
0100
0001
1100
0001
0010
0001
1100
0001
0100
0001
1100
0001
0110
0001
,
1010
0100
0011
0100
1010
0100
0011
1000
0110
0001
0100
0001
0110
0001
1000
0001
,
0110
0001
0100
0001
0110
0001
1000
0001
1010
0100
0011
0100
1010
0100
1001
0010
,
1100
0000
0001
0000
0010
0000
0001
0000
0110
0000
0001
0000
1000
0000
0001
0000
0110
1000
0001
0010
0100
1000
0001
0010
1100
0000
1100
0000
0001
0000
0010
0000
,
0101
1000
0100
1000
0101
1000
0010
1000
0101
1000
0100
1000
0101
1000
0010
1000
,
0101
0010
0100
0010
0101
0010
1000
0010
0101
0010
0100
0010
0101
0010
1000
0010
,
1100
0001
0100
0001
1100
0001
0010
0001
1100
0001
0100
0001
1100
0001
0010
0001
,
0110
1000
0010
1000
0110
1000
0001
1000
0110
1000
0100
1000
0110
1000
0001
0100
,
0011
1000
0010
1000
0011
1000
0100
1000
0011
1000
0010
1000
0011
1000
0100
1000
,
0011
0100
0001
0100
0011
0100
1000
0100
0011
0100
0010
0100
0011
0100
1000
0100
,
0011
1000
0001
1000
0101
1000
0010
1000
0101
1000
0001
1000
0101
1000
0010
1000
,
0101
0010
0001
0010
0101
0010
1000
0010
0101
0010
0001
0010
0101
0010
1000
0010
,
0101
0000
1000
0000
0001
0000
1000
0000
0101
0000
1000
0000
0010
0000
1000
0000
0101
1000
0010
0100
0001
1000
0010
0100
1001
0000
1001
0000
0010
0000
0100
0000
,
0011
1000
0010
1000
0011
1000
0100
1000
0011
1000
0010
1000
0011
1000
0100
1000
,
0101
0010
0100
0010
0101
0010
1000
0010
0101
0010
0100
0010
0101
0010
1000
0010
,
1001
0010
1000
0010
1001
0010
0100
0010
1001
0010
1000
0010
1001
0010
0100
0001
,
1010
0001
0010
0100
1000
0010
0100
1000
0001
0100
0010
1000
0010
0100
0001
0100
,
0010
0000
0100
0000
1000
0000
0001
0000
0010
0000
0100
0000
1000
0000
0010
0000
0100
0000
0001
0000
0010
0000
0100
0000
0010
0000
0100
0000
1000
0100
0010
1001
,
0000
0100
0010
0101
1000
0100
0011
1000
0100
0011
0100
0010
1001
0010
0100
0011
,
0100
0000
1000
0000
0011
0000
1000
0000
0100
0000
1010
0000
0100
0000
0010
0000
0101
0000
1000
0000
0100
0000
0011
0000
1100
0000
0000
0000
0011
0100
0000
0000
,
1001
0110
0001
1000
0110
0001
0010
1100
0010
1100
0011
0100
1001
0100
0010
1001
,
0100
1010
0101
0010
1100
0001
0010
1100
0010
1100
0011
1000
0101
0010
0001
0110
,
1000
0101
1010
0001
0110
1000
0001
0110
1000
0011
1000
0010
0101
0010
1000
0101
,
0010
1001
0100
1000
0101
0010
1000
0101
0010
1001
0100
0010
1100
0001
0010
1100
,
0001
1100
0010
0100
0011
1000
0010
0101
1000
0101
0010
0001
0110
1000
0001
0110
,
0001
1010
0001
1000
0110
0001
0010
1100
0001
1100
0010
0100
0011
1000
0001
0110
,
1001
0100
0011
1000
0101
0010
1000
0101
0010
0001
0110
0001
1000
0101
0010
0101
,
0010
0000
0000
0000
0000
0000
0000
0000
0000
0000
0000
0000
1000
0000
0000
0000
0000
0000
0000
0000
0000
0000
0000
0000
0011
0000
0000
0000
0000
0000
0000
0000
0000
0000
0000
0000
0100
0000
0000
0000
0000
0000
0000
0000
0000
0000
0000
0000
0001
0000
0000
0000
0000
0000
0000
0000
0000
0000
0000
0000
1010
0000
0000
0000
0000
0000
0000
0000
0000
0000
0000
0000
0100
0000
0000
0000
0000
0000
0000
0000
0000
0000
0000
0000
1001
0000
0000
0000
0000
0000
0000
0000
0000
0000
0000
0000
0010
0000
0000
0000
0000
0000
0001
0000
0000
0000
0000
0000
1000
0000
0000
0000
0000
0000
0100
0000
0000
0000
0000
0000
0010
0000
0000
0000
0000
0000
0001
0000
0000
0000
0000
0000
1000
0000
0000
0000
0000
0000
0100
0000
0000
0000
0000
0000
0011
0000
0000
0000
0000
0000
0000
0000
0000
0000
0000
0000
0011
0000
0000
0000
0000
0000
0000
0000
0000
0000
0000
0000
2000
0000
0000
0000
0000
0000
0000
0000
3200
0000
0000
0000
0000
0000
0000
0000
0320
0000
0000
0000
0000
0000
0000
0000
,
2031
0000
0100
0000
0001
0100
0000
0001
3000
0000
0201
0000
1000
0320
0000
1000
,
0000
0030
0200
0000
2300
0000
3002
0000
0023
0000
0100
0000
0000
0000
0001
0000
0100
0000
0000
0000
1000
0000
0030
0000
0100
0000
0010
0000
0000
0000
1000
0000
,
0001
0000
0000
0000
0200
0000
0000
0000
0302
0203
0320
2030
3002
0000
0203
0000
0320
0000
0000
0030
2000
0000
0000
0000
3200
0000
0001
0000
0000
0000
0320
0000
,
0100
0000
0000
0030
0000
0020
0032
0000
0000
0000
0000
0000
0100
0000
0000
0010
0000
0000
0000
0000
0000
1000
0000
0000
0010
0000
0000
0000
0000
0000
0100
0000
0000
0000
0000
0000
0010
0000
0000
1000
0000
0000
0000
0000
0000
0103
0000
0000
,
1010
0000
0000
0000
0000
0000
0000
0000
0001
0000
0000
0000
0000
0000
0000
0000
0110
0000
0000
0000
0001
0000
0000
0000
0200
0000
0000
0000
1000
0000
0000
0000
0010
0000
0302
0000
0000
0000
0000
0000
1000
0000
0000
0000
0000
0000
0023
0000
0100
0000
0000
0000
0001
0000
0000
0230
0000
0000
0000
0000
1000
0000
0000
0000
,
0320
0000
0000
0000
0032
0000
0023
0000
0230
0000
0000
0000
0000
0320
0000
0000
0001
0000
0000
0000
2030
0000
0000
0000
3020
0000
0230
0000
0302
0000
0023
0000
,
0230
0000
0000
0000
0320
0000
1000
0000
0032
0000
0000
0000
0103
0000
0000
1000
0000
0000
0002
0000
0203
0000
0320
0000
0230
0000
0000
0000
0300
0000
0002
0000
0203
0000
0320
0000
0230
0000
0000
0000
0000
0000
0010
0000
0000
1000
0000
0000
,
0000
0000
0000
0010
0300
0000
1001
0000
0000
0000
0000
0000
0100
0000
0000
1001
0000
0000
0000
0000
0000
1001
0000
0000
0000
0000
0000
0011
0000
0000
0200
0000
0000
0320
0000
0000
2031
0000
0000
3201
0000
0000
0320
0000
0000
0032
0000
0000
,
2003
0000
0000
0000
0000
0000
0001
0000
0000
3020
0000
0000
0000
0000
0000
0001
0000
0000
0230
0000
0000
0000
0300
0000
0020
0000
0230
0000
2300
0000
0000
0000
0000
0000
0000
0000
3002
0000
0000
0203
0000
0000
0320
0000
0000
2030
0000
0000
,
3002
0000
0000
0000
0000
0000
0000
0000
0000
0000
0000
0000
0000
0000
0000
0000
0000
0000
0000
0000
0000
0000
0000
0000
1000
0000
0000
0000
0000
0000
0000
0000
0000
0000
0000
0000
0023
0000
0000
0000
0000
0000
0000
0000
0000
0000
0000
0000
1000
0000
0000
0000
0000
0000
0000
0000
0000
0000
0000
0000
0000
0000
0000
0000
0000
0000
0000
0000
0000
0000
0000
0000
0230
0000
0000
0000
0000
0000
0000
0000
0000
0000
0000
0000
0000
0000
0000
0000
0000
0000
0000
0000
0000
0000
0000
0000
0320
0000
0000
0000
0230
0000
0000
0000
2300
0000
0000
0000
3002
0000
0000
0023
0000
0000
0230
0000
0000
2300
0000
0000
3000
0000
0000
0000
0000
0000
0000
0000
0000
0000
0000
0000
0000
0000
0000
0000
0000
0000
0000
0000
0000
0000
0000
0000
1001
0000
0000
0000
0000
0000
0000
0000
0000
0000
0000
0000
0000
0000
0000
0000
0000
0000
0000
0000
0000
0000
0000
0000
0100
0000
0000
0000
0000
0000
0000
0000
0000
0000
0000
0000
0010
0000
0000
0000
0000
0000
0000
0000
0000
0000
0000
0000
,
1000
0000
0000
0000
0000
0000
0001
0000
0000
0200
0000
0000
0000
0300
0020
0000
0230
0000
0302
0000
0000
0000
0000
0000
1000
0000
0000
0203
0000
0000
0000
0000
0000
1000
0000
0000
0320
0000
0000
0000
0000
0000
0230
0000
0000
0000
0000
0000
,
0302
0000
0023
0000
0030
0200
0000
0000
0001
0000
0310
0000
0000
0000
0001
0000
1100
0000
0000
0000
0002
0000
0000
0000
0010
0000
1000
0003
0200
0000
0300
0000
,
0002
0000
0000
0000
0023
0000
0000
0230
0000
2300
0000
3000
0000
0000
0000
0000
0210
0000
0000
0000
0302
0000
0023
0000
0230
0000
0300
0000
0000
0000
0000
0000
0020
0000
0000
0030
0002
0000
0023
0000
0230
0000
0300
0000
0000
0000
0000
0000
1002
0000
0000
0000
0203
0000
0000
0320
0000
2030
0000
3000
0000
0000
0000
0000
,
0002
0000
0000
0000
0203
0000
0000
0320
0000
0000
2030
0000
3000
0000
0000
0000
0021
0000
0000
0000
0230
0000
0000
0000
2300
0000
0000
0000
3002
0000
0000
0000
0023
0000
0000
0000
0230
0000
0000
0000
0320
0000
0000
0000
2030
0000
0000
0000
3102
0000
0000
0000
0023
0000
0000
0000
0230
0000
0000
0000
2300
0000
0000
0000
,
3020
0230
0302
0000
1000
0000
0000
1000
0010
0000
0203
0000
0001
0320
0000
0000
,
2030
0000
0000
0100
0000
0000
0010
0000
0000
0000
0000
0000
0001
0000
0000
0010
0000
0000
3000
0000
0000
0001
0000
0000
0110
0000
0000
0000
0000
0000
0010
0000
0000
1000
0000
0000
0101
0000
0000
2000
0000
0000
3000
0000
0200
0000
2300
0000
,
3002
0000
0203
0000
0320
0000
0001
0000
0000
0100
0000
0000
1000
0000
0000
0100
0000
0000
0001
0000
0000
0100
0000
0000
1000
0000
0000
0100
0000
0000
0001
0000
0000
0100
0000
0000
1000
0000
0000
0100
0000
0000
0001
0000
0000
0100
0030
0000
,
1002
0000
0000
0000
0000
0000
0000
0000
0000
0000
0000
0000
0000
0000
0000
0023
0000
0000
0000
0000
0000
0000
0000
0000
0230
0000
0000
0000
2300
0000
0000
0000
0000
3002
0000
0000
0000
0000
0000
0023
0000
0000
0000
0000
0000
0230
0000
0000
2000
0000
0000
0300
0000
0000
3000
0000
0010
0000
0000
0000
0000
0000
0000
0000
0100
0000
0000
0000
0000
0000
0000
0000
1000
0000
0000
0000
0000
0000
0000
0000
0001
0000
0000
0000
0000
0000
0000
0000
0010
0000
0000
0000
0000
0000
0000
0000
0100
0000
0000
0000
0000
0000
0000
0000
0001
0000
0000
0000
0000
0000
0000
0000
0100
0000
0000
0000
0000
0000
0000
0000
1000
0000
0000
0000
0000
0000
0000
0000
0001
0000
0000
0000
0000
0000
0000
0000
0010
0000
0000
0000
0000
0000
0000
0000
0100
0000
0000
0000
0000
0000
0000
0000
0001
0000
0000
0000
0000
0000
0000
0000
0010
0000
0000
0000
0000
0000
0000
0000
1000
0000
0000
0000
0000
0000
0000
0000
0010
0000
0000
0000
0000
0000
0000
0000
0100
0000
0000
0000
0000
0000
0000
0000
,
1001
0010
0100
0010
0101
0010
0100
0010
1001
0010
0100
0010
1100
0010
0100
0010
,
0101
0010
0100
0010
1100
0010
0100
0010
1001
0010
0100
0010
0101
0010
0100
0010
,
1100
0001
1000
0001
1100
0001
1000
0001
0110
0001
1000
0001
1100
0001
1000
0001
,
0110
0000
0001
0000
1000
0000
0001
0000
1010
0000
0001
0000
1000
0000
0001
0000
1010
0001
0100
0010
1000
0001
0100
0010
1001
0000
1001
0000
0100
0000
0001
0000
,
0110
0001
0010
0100
1001
0100
0010
1000
0011
0100
0010
0100
1010
0100
1000
0100
,
1010
0001
0010
0100
0011
0100
0010
0100
1001
0010
0100
1000
0110
1000
0100
1000
,
0101
0010
0001
1000
0011
0100
0010
0001
1010
0100
0010
0100
1001
0100
1000
0100
,
1010
0100
0001
0010
0101
1000
0010
0100
1001
0010
0100
0010
0101
1000
0100
1000
,
0110
1000
0001
0010
1100
0010
0100
1000
0011
0100
0010
0100
1010
0100
1000
0100
,
1010
0000
0100
0000
1000
0000
0100
0000
1010
0000
0100
0000
1000
0000
0100
0000
1010
0001
0100
0010
1000
0001
0100
0010
1001
0000
0101
0000
1000
0000
0100
0000
,
1010
0001
0100
0010
1100
0010
0001
0010
0101
1000
0100
0010
0101
0000
0000
0000
,
1100
0000
0001
0000
0100
0000
0010
0000
1100
0000
0010
0000
0001
0000
0010
0000
1100
0000
0010
0001
1000
0100
0010
0001
1100
0000
1100
0000
0000
0000
0000
0000
,
1010
0001
0100
0010
1100
0010
0001
0100
0011
1000
0010
0100
0011
0000
0000
0000
,
0101
0010
0001
0100
1010
0100
0010
0001
1010
0100
0010
0100
0011
0000
0000
0000
,
1100
0000
0001
0000
0100
0000
0010
0000
1100
0000
0001
0000
0010
0000
0100
0000
1010
0000
0100
0010
0001
1000
0100
0010
0101
0000
0101
0000
0000
0000
0000
0000
,
1010
0100
0001
0100
1010
0100
0001
0100
1010
0100
0001
0100
1010
0100
0001
0100
,
1001
0010
0100
1000
0110
0001
0010
0100
1010
0100
0010
1000
0101
0010
0100
0010
,
1100
0010
0001
0100
0011
1000
0001
0100
0011
0100
1000
0001
0110
1000
0001
0100
,
1001
0010
0100
1001
0010
0100
1001
0010
1001
0100
0010
1001
0100
0010
1001
0010
,
1100
0001
0010
1100
0001
0010
1100
0001
1010
0100
0001
1010
0100
0001
1010
0100
,
0011
0100
1000
0011
0100
1000
0011
0100
0011
1000
0100
0011
1000
0100
0011
1000
,
0110
0001
1000
0110
0001
1000
0110
1000
0101
0010
1000
0101
0010
1000
0101
0010
,
1001
0000
0000
0000
1010
0100
0010
0100
1010
0100
0001
0100
1010
0100
0010
0100
,
1010
0100
0001
0100
1010
0100
0010
0100
1010
0100
0001
0100
1010
0100
0010
0100
,
1010
0100
0001
0100
1010
0100
0010
0100
1010
0100
0001
0010
1100
0001
0110
0001
,
1100
0001
1010
0100
1001
0010
0001
0010
1001
0010
0101
0010
1001
0010
0001
0010
,
1001
0010
0101
0010
1001
0010
0001
0010
1001
0010
1100
0010
1001
0100
1010
0100
,
1001
0010
1100
0010
0101
1000
0010
1000
0011
1000
0110
1000
0011
1000
0010
1000
,
0011
1000
0110
1000
0101
0010
1100
0010
0101
0010
1100
0001
0110
1000
0010
1000
,
0110
1000
0101
1000
0110
1000
0010
1000
0110
1000
0011
1000
0101
0010
1100
0010
,
0101
0000
0010
0000
1001
0000
0100
0000
0011
0000
1000
0000
0100
0000
1000
0000
0110
0000
1000
0000
0001
0000
1000
0000
0110
0001
1000
0100
0010
0001
1000
0100
,
0011
0011
1000
0100
1010
0001
1010
0001
1010
0001
1100
0001
1010
0001
1010
0001
,
1010
0001
0110
1000
0011
1000
0011
1000
0011
1000
0101
1000
0011
1000
0011
1000
,
0011
1000
0110
1000
0101
0010
0101
0010
0101
0010
1001
0010
0101
0010
0101
0010
,
0101
0000
0010
0000
1100
0000
0001
0000
1010
0000
0100
0000
1010
0000
0100
0000
1010
0000
0100
0000
0011
0000
0100
0000
1010
0000
0100
0000
1010
0001
0010
0100
,
1010
1010
0101
0010
1100
0001
1100
0001
1100
0001
1010
0001
1100
0001
1100
0001
,
1100
0001
0110
0001
1100
0000
0000
0000
0110
0000
0100
0000
0011
0100
0010
0001
,
1010
0100
1000
0001
0110
1000
0100
1000
0101
1000
0100
1000
0110
0001
0010
0001
,
1100
0010
1000
0001
0110
0001
0100
0001
1100
0001
0100
0001
1010
0100
0010
1000
,
0011
0100
0001
0100
1010
0000
0000
0000
0110
0000
0001
0000
1010
0000
0000
0000
,
0011
0000
0100
0000
1010
0100
1010
0100
1010
0100
1001
0100
1010
0100
1010
0100
,
1010
0100
1010
0001
0110
1000
0110
1000
0110
1000
0011
1000
0110
1000
0110
1000
,
0110
0000
1000
0000
0011
0000
0100
0000
1001
0000
0010
0000
1001
0000
0010
0000
1001
0000
0010
0000
1100
0000
0010
0000
1001
0010
0100
1000
0001
0010
0100
1000
,
0101
0101
0010
1000
0101
1000
0010
1000
0101
1000
0010
1000
0011
1000
0100
1000
,
0101
1000
0010
1000
0011
0100
0010
0100
0011
1000
0100
1000
0101
1000
0001
1000
,
0011
0100
0010
0100
1001
0100
0010
0100
0011
1000
0001
1000
0101
1000
0100
1000
,
0011
0100
0001
0100
1010
0001
0100
0010
1100
0001
0010
0100
1001
0010
0100
0001
,
1100
0010
0100
0001
1010
0100
1000
0001
1010
0100
0010
1000
0101
0010
0100
1000
,
0101
0010
1000
0001
0110
0000
0000
0000
0000
0000
0000
0000
0000
0000
0000
0000
,
0000
0000
0000
0000
1000
0001
0010
0100
1001
0000
0000
0000
0000
0000
0000
0000
0000
0000
0000
0000
0000
0000
0000
0000
0000
0000
0000
0000
0000
0000
0000
0000
;

//---------------dance-single - ----------------
#NOTES:
     dance-single:
     :
     Challenge:
     15:
     1.000,1.000,1.000,0.912,1.000,1607.000,795.000,168.000,0.000,75.000:
0000
0000
0000
0000
,
0000
0000
0000
0000
,
0222
0303
2200
3300
0202
0000
0000
0000
0333
0000
0000
0000
2202
3003
2020
3030
,
0022
0000
0000
0000
0333
0000
0000
0000
0222
0303
2200
3300
2002
0000
0000
0000
,
3033
0000
0000
0000
2022
3030
2200
3300
0220
0000
0000
0000
0333
0000
0000
0000
,
2022
0000
0000
0000
0000
0000
0000
0000
0003
0000
0000
3030
0101
0000
0000
0000
,
0101
0101
0101
0101
,
0101
0000
0101
0000
0101
0000
0101
0101
,
0101
0000
0101
0000
0101
0000
0101
0000
0101
0000
0101
0000
0101
0101
0101
0101
,
0101
0101
0101
0101
0101
0101
0101
0101
0101
0101
0101
0101
1101
0000
0000
0000
,
0101
0100
0100
0100
0101
0100
1000
0100
0101
0100
0100
0100
0101
0100
1000
0100
,
0101
0100
0100
0100
0101
0100
1000
0100
0101
0100
0100
0100
0101
0100
1000
0100
,
0101
0100
0100
0100
0101
0100
1000
0100
0011
1100
0110
1100
0011
1100
0101
0110
,
1001
1000
1000
1000
1001
1000
0010
1000
1001
1000
1000
1000
1001
1000
0010
1000
,
1001
1000
1000
1000
1001
1000
0010
1000
1001
0011
0101
0011
1001
0110
0101
0110
,
1010
0001
0001
0001
1001
0001
0010
0001
1001
0001
0001
0001
1001
0001
0110
0001
,
1010
1100
0011
0110
1010
0110
0011
1100
0110
0001
0001
0001
0011
0001
1100
0001
,
0011
0001
0001
0001
0011
0001
1000
0001
1010
0110
0011
0110
1010
0110
1001
0110
,
1100
0000
0010
0000
0010
0000
0010
0000
0110
0000
0010
0000
1000
0000
0010
0000
0010
1000
0010
1000
0010
1000
0010
1000
0101
0000
0101
0000
0010
0000
0001
0000
,
0101
0100
0100
0100
0101
0100
0010
0100
0101
0100
0100
0100
0101
0100
0010
0100
,
0101
0010
0010
0010
0011
0010
1000
0010
0011
0010
0010
0010
0011
0010
1000
0010
,
1001
0001
0001
0001
1001
0001
0010
0001
1001
0001
0001
0001
1001
0001
0010
0001
,
0110
1000
1000
1000
1010
1000
0001
1000
1010
1000
1000
1001
1010
1000
0001
1000
,
0011
0010
0010
0010
0011
0010
0100
0010
0011
0010
0010
0010
0011
0010
0100
0010
,
1001
0100
0100
0100
0101
0100
1000
0100
0101
0100
0100
0100
0101
0100
1000
0100
,
0110
0001
0001
0001
0101
0001
0010
0001
0101
0001
0001
0001
0101
0001
0010
0001
,
1010
0100
0100
0100
0101
0100
1000
0100
0101
0100
0100
0100
0101
0100
1000
0100
,
0101
0000
1000
0000
1000
0000
1000
0000
1001
0000
1000
0000
0010
0000
1000
0000
1100
0001
0100
0001
0100
0001
0100
0001
1100
0000
1100
0000
0010
0000
0100
0000
,
0110
0001
0001
0001
0011
0001
0100
0001
0011
0001
0001
0001
0011
0001
0100
0001
,
0110
0001
0001
0001
0101
0001
1000
0001
0101
0001
0001
0001
0101
0001
1000
0001
,
0110
0100
0100
0100
0101
0100
0010
0100
0101
0100
0100
0100
0101
0100
0010
0100
,
1010
0001
0010
0100
1001
0010
0100
1000
0011
0100
0010
1000
0011
0100
0001
0100
,
1010
0000
0100
0000
1000
0000
0010
0000
1001
0000
0010
0000
0100
0000
1000
0000
0110
0000
0001
0000
0010
0000
0100
0000
0011
0000
0100
0000
0010
0100
0010
0101
,
0000
0100
0010
0101
0010
1100
0011
1000
0110
1001
0100
0011
1100
0010
0101
1010
,
0001
0000
1100
0000
0011
0000
1000
0000
0101
0000
1010
0000
0100
0000
0011
0000
1100
0000
0001
0000
0110
0000
1001
0000
0110
0000
0000
0000
0011
0100
0000
0000
,
1001
0110
1001
0100
1010
0101
0010
1100
0001
1100
0011
0100
1001
0110
1000
0011
,
0100
1010
0101
0010
1100
0011
0100
1001
0010
1100
0011
1000
0101
1010
0001
0110
,
1000
0110
1001
0100
0011
1100
0001
0110
1000
0011
1100
0010
0101
1010
0100
0011
,
0100
1001
0110
1000
0101
1010
0100
1001
0010
1100
0011
0100
1010
0101
0010
1100
,
0001
1100
0011
0100
0011
1100
0010
0101
1000
0101
1010
0001
0110
1001
0100
0011
,
0100
1010
0101
1000
0110
1001
0010
1100
0001
1010
0101
1000
0011
1100
0001
0110
,
0001
1100
0011
1000
0101
1010
0100
0011
0100
1001
0110
0001
1010
0101
0010
0101
,
0010
0000
0000
0000
0000
0000
0000
0000
0000
0000
0000
0000
1001
0000
0000
0000
0000
0000
0000
0000
0000
0000
0000
0000
0110
0000
0000
0000
0000
0000
0000
0000
0000
0000
0000
0000
1000
0000
0000
0000
0000
0000
0000
0000
0000
0000
0000
0000
0101
0000
0000
0000
0000
0000
0000
0000
0000
0000
0000
0000
1010
0000
0000
0000
0000
0000
0000
0000
0000
0000
0000
0000
0100
0000
0000
0000
0000
0000
0000
0000
0000
0000
0000
0000
1001
0000
0000
0000
0000
0000
0000
0000
0000
0000
0000
0000
0010
0000
0000
0000
0000
0000
0100
0000
0000
0000
0000
0000
0011
0000
0000
0000
0000
0000
0100
0000
0000
0000
0000
0000
1010
0000
0000
0000
0000
0000
0100
0000
0000
0000
0000
0000
0010
0000
0000
0000
0000
0000
0100
0000
0000
0000
0000
0000
0011
0000
0000
0000
0000
0000
0000
0000
0000
0000
0000
0000
0011
0000
0000
0000
0000
0000
0000
0000
0000
0000
0000
0000
2000
0000
0000
0000
0000
0000
0000
0000
3200
0000
0000
0000
0000
0000
0000
0000
0320
0000
0000
0000
0000
0000
0000
0000
,
2031
0000
0100
0000
0001
0100
0000
0001
3000
0000
0201
0000
1000
0320
0000
1000
,
0000
0030
0200
0000
2300
0000
3002
0000
0023
0000
0100
0000
0000
0000
0001
0000
0100
0000
0000
0000
1000
0000
0030
0000
0100
0000
0010
0000
0000
0000
1000
0000
,
0001
0000
0000
0000
0200
0000
0000
0000
0301
0200
0320
2030
3002
0000
0203
0000
0320
0000
0000
0030
2000
0000
0000
0000
3200
0000
0001
0000
0000
0000
0320
0000
,
0100
0000
0000
0030
0000
0020
0032
0000
0000
0000
0000
0000
0100
0000
0000
0010
0000
0000
0000
0000
0000
1000
0000
0000
0010
0000
0000
0000
0000
0000
0100
0000
0000
0000
0000
0000
0010
0000
0000
1000
0000
0000
0000
0000
0000
0103
0000
0000
,
1010
0000
0000
0000
0000
0000
0000
0000
0001
0000
0000
0000
0000
0000
0000
0000
0110
0000
0000
0000
0001
0000
0000
0000
0200
0000
0000
0000
1000
0000
0000
0000
0010
0000
0302
0000
0000
0000
0000
0000
1000
0000
0000
0000
0000
0000
0023
0000
0100
0000
0000
0000
0001
0000
0000
0230
0000
0000
0000
0000
1000
0000
0000
0000
,
0320
0000
0000
0000
0032
0000
0023
0000
0230
0000
0000
0000
0000
0320
0000
0000
0001
0000
0000
0000
2030
0000
0000
0000
3020
0000
0230
0000
0302
0000
0023
0000
,
0230
0000
0000
0000
0320
0000
1000
0000
0032
0000
0000
0000
0103
0000
0000
1000
0000
0000
0002
0000
0203
1000
0320
0000
0230
0000
0000
0000
0300
0000
1002
0000
0203
0000
0320
0000
0230
0000
0000
1000
0000
0000
0010
0000
0000
1001
0000
0000
,
0000
0000
0000
0010
0300
0000
1001
0000
0000
0000
0000
0000
0100
0000
0000
1001
0000
0000
0000
0000
0000
1001
0000
0000
0000
0000
0000
0011
0000
0000
0200
0000
0000
0320
0000
0000
2031
0000
0000
3201
0000
0000
0320
0000
0000
0032
0000
0000
,
2003
0000
0000
0000
0000
0000
0001
0000
0000
3020
0000
0000
0000
0000
0000
0001
0000
0000
0230
0000
0000
0000
0300
0000
0020
0000
0230
0000
2300
0000
0000
0000
0000
0000
0000
0000
3002
0000
0000
0203
0000
0000
0320
0000
0000
2030
0000
0000
,
3002
0000
0000
0000
0000
0000
0000
0000
0000
0000
0000
0000
0000
0000
0000
0000
0000
0000
0000
0000
0000
0000
0000
0000
1000
0000
0000
0000
0000
0000
0000
0000
0000
0000
0000
0000
0023
0000
0000
0000
0000
0000
0000
0000
0000
0000
0000
0000
1000
0000
0000
0000
0000
0000
0000
0000
0000
0000
0000
0000
0000
0000
0000
0000
0000
0000
0000
0000
0000
0000
0000
0000
0230
0000
0000
0000
0000
0000
0000
0000
0000
0000
0000
0000
0000
0000
0000
0000
0000
0000
0000
0000
0000
0000
0000
0000
0320
0000
0000
0000
0230
0000
0000
0000
2300
0000
0000
0000
3002
0000
0000
0023
0000
0000
0230
0000
0000
2300
0000
0000
3000
0000
0000
0000
0000
0000
0000
0000
0000
0000
0000
0000
0000
0000
0000
0000
0000
0000
0000
0000
0000
0000
0000
0000
1001
0000
0000
0000
0000
0000
0000
0000
0000
0000
0000
0000
0000
0000
0000
0000
0000
0000
0000
0000
0000
0000
0000
0000
0100
0000
0000
0000
0000
0000
0000
0000
0000
0000
0000
0000
0010
0000
0000
0000
0000
0000
0000
0000
0000
0000
0000
0000
,
1000
0000
0000
0000
0000
0000
0001
0000
0000
0200
0000
0000
0000
0300
0020
0000
0230
0000
0302
0000
0000
0000
0000
0000
1000
0000
0000
0203
0000
0000
0000
0000
0000
1000
0000
0000
0320
0000
0000
0000
0000
0000
0230
0000
0000
0000
0000
0000
,
0302
0000
0023
0000
0030
0200
0000
0000
0001
0000
0310
0000
0000
0000
0001
0000
1100
0000
0000
0000
0002
0000
0000
0000
0010
0000
1000
0003
0200
0000
0300
0000
,
0002
0000
0000
0000
0023
0000
0000
0230
0000
2300
0000
3000
0000
0000
0000
0000
0210
0000
0000
0000
0302
0000
0023
0000
0230
0000
0300
0000
0000
0000
0000
0000
0020
0000
0000
0030
0002
0000
0023
0000
0230
0000
0300
0000
0000
0000
0000
0000
1002
0000
0000
0000
0203
0000
0000
0320
0000
2030
0000
3000
0000
0000
0000
0000
,
0002
0000
0000
0000
0203
0000
0000
0320
0000
0000
2030
0000
3000
0000
0000
0000
0021
0000
0000
0000
0230
0000
0000
0000
2300
0000
0000
0000
3002
0000
0000
0000
0023
0000
0000
0000
0230
0000
0000
0000
0320
0000
0000
0000
2030
0000
0000
0000
3102
0000
0000
0000
0023
0000
0000
0000
0230
0000
0000
0000
2300
0000
0000
0000
,
3020
0230
0302
0000
1000
0000
0000
1000
0010
0000
0203
0000
0001
0320
0000
0000
,
2030
0000
0000
0100
0000
0000
0010
0000
0000
0000
0000
0000
0001
0000
0000
0010
0000
0000
3000
0000
0000
0001
0000
0000
0110
0000
0000
0000
0000
0000
0010
0000
0000
1000
0000
0000
0101
0000
0000
2000
0000
0000
3000
0000
0200
0000
2300
0000
,
3002
0000
0203
0000
0320
0000
0001
0000
0000
0100
0000
0000
1001
0000
0000
0100
0000
0000
0001
0000
0000
0100
0000
0000
1001
0000
0000
0100
0000
0000
0001
0000
0000
0100
0000
0000
1001
0000
0000
0100
0000
0000
0001
0000
0000
0100
0030
0000
,
1002
0000
0000
0000
0000
0000
0000
0000
0000
0000
0000
0000
0000
0000
0000
0023
0000
0000
0000
0000
0000
0000
0000
0000
0230
0000
0000
0000
2300
0000
0000
0000
0000
3002
0000
0000
0000
0000
0000
0023
0000
0000
0000
0000
0000
0230
0000
0000
2000
0000
0000
0300
0000
0000
3000
0000
0010
0000
0000
0000
0000
0000
0000
0000
0100
0000
0000
0000
0000
0000
0000
0000
1000
0000
0000
0000
0000
0000
0000
0000
0001
0000
0000
0000
0000
0000
0000
0000
0010
0000
0000
0000
0000
0000
0000
0000
0100
0000
0000
0000
0000
0000
0000
0000
0001
0000
0000
0000
0000
0000
0000
0000
0100
0000
0000
0000
0000
0000
0000
0000
1000
0000
0000
0000
0000
0000
0000
0000
0001
0000
0000
0000
0000
0000
0000
0000
0010
0000
0000
0000
0000
0000
0000
0000
0100
0000
0000
0000
0000
0000
0000
0000
0001
0000
0000
0000
0000
0000
0000
0000
0010
0000
0000
0000
0000
0000
0000
0000
1000
0000
0000
0000
0000
0000
0000
0000
0010
0000
0000
0000
0000
0000
0000
0000
0100
0000
0000
0000
0000
0000
0000
0000
,
1001
0100
0100
0100
0101
0100
0100
0100
1001
0100
0100
0100
1100
0100
0100
0100
,
0101
0100
0100
0100
1100
0100
0100
0100
1001
0100
0100
0100
0101
0100
0100
0100
,
1100
0001
0001
0001
1001
0001
0001
0001
0101
0001
0001
0001
1001
0001
0001
0001
,
0101
0000
0001
0000
0001
0000
0001
0000
1001
0000
0001
0000
0001
0000
0001
0000
1001
0010
0001
0010
0001
0010
0001
0010
1001
0000
1001
0000
0001
0000
0001
0000
,
0110
1001
0110
0101
1010
0101
1100
0011
1100
0011
0110
0011
1010
1000
1000
1000
,
1010
0101
1010
0011
1100
0011
1010
0101
1010
0011
1100
0011
1110
1100
1100
1100
,
0011
1100
0011
1010
0101
0110
1001
0011
1100
0011
1100
0101
1010
1010
1010
1010
,
1100
0101
0011
1100
0011
1010
0101
1010
0101
0110
1001
0110
0011
0010
0010
0010
,
0110
1100
0011
1100
0101
1010
0101
0110
1001
0110
0011
1000
1010
1000
1000
1000
,
1010
0000
1000
0000
1000
0000
1000
0000
1010
0000
1000
0000
1000
0000
1000
0000
1010
0001
1000
0001
1000
0001
1000
0001
1010
0000
1010
0000
1000
0000
1000
0000
,
1010
0101
1010
0101
1100
0011
1100
0101
0011
1100
0101
0110
0101
0000
0000
0000
,
1100
0000
0101
0000
0110
0000
0011
0000
1100
0000
0011
0000
1100
0000
0101
0000
1100
0000
1001
0010
0101
0010
1001
0010
1100
0000
1100
0000
0000
0000
0000
0000
,
1010
1001
0110
0011
1100
0011
1010
0101
0011
1100
0011
0110
0011
0000
0000
0000
,
0101
1010
0101
0110
1001
0110
1010
0011
1010
0110
1010
0101
0011
0000
0000
0000
,
1100
0000
0011
0000
1100
0000
0101
0000
1100
0000
0011
0000
1100
0000
0101
0000
1010
0000
0101
0010
1100
0010
0101
0010
0101
0000
0101
0000
0000
0000
0000
0000
,
1010
1100
0101
1100
1010
1100
0101
1100
1010
1100
0101
1100
1010
1100
0101
1100
,
1001
0110
0101
1010
0110
1001
0110
0101
1010
0101
1010
1100
0101
1010
0101
1010
,
1100
0011
0101
0110
0011
1100
0011
0110
0011
1100
0011
1010
0101
1010
0011
1100
,
1001
0100
0101
1001
0100
0101
1001
0100
1001
0010
1010
1001
0010
1010
1001
0010
,
1100
0001
0101
1100
0001
0101
1100
0001
1010
0100
1100
1010
0100
1100
1010
0100
,
0011
1000
1001
0011
1000
1001
0011
1000
0011
0100
0101
0011
0100
0101
0011
1000
,
0110
0000
0001
0000
0101
0000
0110
0000
1001
0000
1000
0000
0110
0000
0001
0000
0101
0000
1000
0000
1010
0000
0101
0000
1010
0000
1000
0010
0101
1000
0100
0010
,
1001
0000
0000
0000
1001
0001
0001
0001
1001
0001
0010
0001
1001
0001
0001
0001
,
1001
0001
0010
0001
1001
0001
0001
0001
1001
0001
0010
0001
1001
0001
0001
0001
,
1001
0001
0010
0001
1001
0001
0001
0001
1001
0001
0010
0001
1100
0011
0110
0011
,
1100
0101
1010
0101
1110
0010
0010
0010
1010
0010
0101
0010
1110
0010
0010
0010
,
1010
0010
0101
0010
1110
0010
0010
0010
1010
0010
1100
0010
1001
0110
1010
0110
,
1001
0110
1100
0011
1001
1000
1000
1000
1001
1000
0110
1000
1101
1000
1000
1000
,
1001
1000
0110
1000
0101
1010
1100
0011
0101
0110
1100
0101
0110
0010
0010
0010
,
0110
0010
1100
0010
0111
0010
0010
0010
0110
0010
0101
0010
0101
1010
1100
0011
,
0101
0000
0110
0000
1101
0000
0110
0000
0011
0000
0010
0000
0010
0000
0010
0000
0110
0000
0010
0000
0001
0000
0010
0000
0110
0001
1000
0001
1000
0001
1000
0001
,
0110
0110
0001
0010
1011
0011
0011
0011
0111
0011
1001
0011
0111
0011
0011
0011
,
0111
0011
0110
1010
1110
1010
1010
1010
1110
1010
1001
1010
1110
1010
1010
1010
,
1110
1010
1100
1010
0111
0110
0110
0110
0111
0110
1010
0110
0111
0110
0110
0110
,
0111
0000
0110
0000
1100
0000
0110
0000
1101
0000
0101
0000
0101
0000
0101
0000
1101
0000
0101
0000
0110
0000
0101
0000
1101
0010
0101
0010
0101
0010
0100
0010
,
1101
1100
0101
0011
1101
1100
1100
1100
1101
1100
1010
1100
1101
1100
1100
1100
,
1101
1100
0110
1100
1101
0000
0000
0000
0110
0000
0100
0000
0011
0100
0010
0001
,
1010
0100
1000
0001
0110
0100
0100
0100
0101
0100
0100
0100
0110
0001
0010
0001
,
1100
0010
1000
0001
0110
0001
0001
0001
1001
0001
0001
0001
1010
0100
0010
1000
,
0011
0100
0001
0100
1010
0000
0000
0000
0110
0000
0001
0000
1010
0000
0000
0000
,
0011
0000
0100
0000
1011
1010
1010
1010
1011
1010
1100
1010
1011
1010
1010
1010
,
1011
1010
1001
1010
1110
1010
1010
1010
1110
1010
0011
1010
1110
1010
1010
1010
,
1110
0000
1010
0000
0011
0000
1010
0000
1011
0000
1001
0000
1001
0000
1001
0000
1011
0000
1001
0000
1100
0000
1001
0000
1011
0100
1001
0100
1001
0100
1001
0100
,
0011
0011
1001
0011
1100
1000
1000
1000
1101
1000
1000
1000
1011
1000
1000
1000
,
1101
1000
1000
1000
1011
1000
1000
1000
1110
1000
1000
1000
1101
1000
1000
1000
,
1011
1000
1000
1000
1101
1000
1000
1000
1011
1000
1000
1000
1110
1000
1000
1000
,
1011
1000
1000
1000
1101
1010
1100
1001
1010
1100
1010
1100
1001
1100
1010
1001
,
1010
1100
1001
1010
1001
1100
1010
1100
1001
1010
1001
1100
1010
1100
1001
1010
,
1100
0101
0110
0011
1110
0000
0000
0000
0000
0000
0000
0000
0000
0000
0000
0000
,
0000
0000
0000
0000
0100
0010
0100
0010
1101
0000
0000
0000
0000
0000
0000
0000
0000
0000
0000
0000
0000
0000
0000
0000
0000
0000
0000
0000
0000
0000
0000
0000
;
