#TITLE:Nin Mint;
#SUBTITLE:;
#ARTIST:Kobaryo;
#TITLETRANSLIT:;
#SUBTITLETRANSLIT:;
#ARTISTTRANSLIT:;
#CREDIT:;
#BANNER:nin mint bn.png;
#BACKGROUND:nin mint bg.png;
#LYRICSPATH:;
#CDTITLE:;
#MUSIC:isthisbetter.ogg;
#OFFSET:0.009;
#SAMPLESTART:58.486;
#SAMPLELENGTH:12.000;
#SELECTABLE:YES;
#DISPLAYBPM:320.000;
#BPMS:0.000=320.000;
#STOPS:;
#BGCHANGES:;
// cache tags:
#FIRSTBEAT:0.000;
#LASTBEAT:588.000;
#SONGFILENAME:Songs/Speedcore Rejects/Nin Mint - [Tyler]/Nin Mint.sm;
#HASMUSIC:1;
#HASBANNER:1;
#MUSICLENGTH:114.156;
// end cache tags

//---------------dance-single - T. Moore----------------
#NOTES:
     dance-single:
     T. Moore:
     Challenge:
     13:
     1.000,1.000,0.307,0.018,0.245,912.000,35.000,2.000,11.000,0.000:
1001
0000
0001
0000
0010
0100
0000
1000
,
0000
1000
0010
0000
0100
0000
0001
0000
,
0010
0000
0100
0000
1000
0001
0000
0100
,
0000
0100
0010
0000
1000
0000
0001
0000
,
1000
0000
0100
0000
0010
0001
0000
1000
,
0000
1000
0010
0000
0100
0000
0001
0000
,
0010
0000
0100
0000
1000
0001
0000
0100
,
0000
0100
0010
0000
1000
0000
0001
0000
,
1001
0000
1000
0000
0100
0010
0000
0001
,
0000
0001
0100
0000
0010
0000
1000
0000
,
0100
0000
0010
0000
0001
1000
0000
0010
,
0000
0010
0100
0000
0001
0000
1000
0000
,
1100
0000
0100
0000
0010
0100
0000
1000
,
0000
1000
0001
0000
0100
0000
0010
0000
,
1010
0000
1000
0000
0001
0010
0000
0100
,
0000
0100
1000
0000
0001
0000
0100
0000
,
0110
0000
0010
0000
1000
0010
0000
0100
,
0000
0100
0001
0000
1000
0000
0100
0000
,
0010
0000
0100
0000
1000
0001
0000
0100
,
0000
0100
0010
0000
1000
0000
0001
0000
,
0010
0000
0100
0000
1000
0001
0000
0100
,
0000
0100
0010
0000
1000
0000
0100
0000
,
0010
0000
0100
0000
1000
0001
0000
0100
,
0000
0100
0010
0000
1000
0000
0001
0000
,
1001
1000
0010
0100
,
0001
1000
0100
0010
,
0001
0010
0100
1000
,
0001
0100
0010
1000
,
1100
0000
0100
0000
0010
0001
0000
0100
,
0000
0100
0010
0000
1000
0000
0100
0000
,
M010
M001
M010
M001
M010
M001
M010
M100
,
M000
0000
0000
0100
0000
0000
0000
0000
0000
1000
0000
0000
0001
0000
1000
0000
0001
0000
1000
0000
0000
0000
0000
0000
,
1001
0000
1000
0000
0010
0000
1000
0100
,
0000
0100
0010
0000
0001
0000
1000
0000
,
1000
0000
0010
0000
1000
0001
0000
0010
,
0000
0010
0100
0000
1000
0000
0001
0000
,
0001
0000
0100
0000
0001
0000
1000
0100
,
0000
0100
0010
0000
0001
0000
0100
0000
,
0100
0000
0001
0000
0100
0010
0000
1000
,
0000
1000
0001
0000
1000
0000
0100
0010
,
0001
0000
0100
0000
0001
0000
0100
0010
,
0000
0010
1000
0000
0001
0000
1000
0000
,
1000
0000
0100
0000
1000
0001
0000
0100
,
0000
0100
0010
0000
1000
0000
0001
0000
,
0001
0000
0010
0000
0001
0000
1000
0010
,
0000
0010
0100
0000
0001
0000
0010
0000
,
0001
0000
0001
0000
0010
0100
0000
1000
,
0000
0000
1000
0000
0001
0000
1000
0000
0010
0000
0100
0001
1000
0000
0001
0000
,
0010
0000
0001
0000
1000
0000
0001
0010
,
0000
0010
0100
0000
1000
0000
0001
0000
,
0001
0000
0100
0000
0001
1000
0000
0100
,
0000
0100
0010
0000
0001
0000
1000
0000
,
1000
0000
0010
0000
1000
0000
0001
0010
,
0000
0010
0100
0000
1000
0000
0010
0000
,
0010
0000
1000
0000
0010
0100
0000
0001
,
0000
0001
1000
0000
0001
0000
0010
0100
,
1000
0000
0010
0000
1000
0000
0010
0100
,
0000
0100
0001
0000
1000
0000
0001
0000
,
0001
0000
0010
0000
0001
1000
0000
0010
,
0000
0010
0100
0000
0001
0000
1000
0000
,
1000
0000
0100
0000
1000
0000
0001
0100
,
0000
0100
0010
0000
1000
0000
0100
0000
,
1000
0000
1000
0000
0100
0010
0000
0001
,
0000
0000
0001
0000
1000
0000
0001
0000
0100
0000
0010
1000
0001
0000
1000
0000
,
0100
0010
0011
0000
,
1000
0100
1000
0000
0011
0000
0000
0000
,
1000
0010
0101
0000
,
1000
0010
0100
0000
0001
0100
0010
0000
,
1000
0001
0011
0000
,
0010
0100
1000
0000
0011
0000
0000
0000
,
1000
0010
0101
0000
,
1000
0001
0010
0000
0100
1000
0001
0000
,
0100
0010
1001
0000
,
0001
0100
0010
0000
1001
0000
0000
0000
,
1000
0100
0011
0000
,
1000
0010
0100
0000
0001
0010
0100
0000
,
1100
1000
0100
1000
,
1001
0001
1000
0001
,
0101
0000
0110
0000
,
1010
1000
1MM1
0001
,
1000
0100
0010
0001
0100
0001
0010
0100
,
1000
0000
0010
0000
0100
0000
0001
0000
0010
0000
0100
0000
1000
0000
0001
1000
,
0010
0100
0001
1000
0100
1000
0010
0100
,
0001
0000
0010
0000
0100
0000
1000
0000
0010
0000
0100
0000
0001
1000
0001
1000
,
0001
0010
0100
1000
0001
0100
0001
0010
,
0100
0000
1000
0000
0010
0000
0100
0000
0001
0000
0010
0000
0100
0000
1000
0001
,
0100
0000
0010
0000
1000
0000
0100
0000
1000
0000
0010
0000
0100
0000
0001
1000
,
0001
0000
1000
0100
1000
0000
0001
0100
0001
0000
1000
0100
0040
0000
0000
0000
,
0031
1000
0100
1000
0010
0100
0010
1000
,
0100
0000
0010
0000
0001
0000
0100
0000
0001
0000
1000
0000
0100
0000
0010
0001
,
1000
0001
0100
0010
1000
0010
1000
0100
,
0010
0000
0100
0000
1000
0000
0010
0000
0100
0000
0001
0000
1000
0001
1000
0001
,
1000
0100
0010
0001
1000
0010
1000
0100
,
0010
0001
0100
0010
1000
0100
0010
0001
,
0400
0310
1000
0400
0310
0001
0400
0310
,
1000
0000
0400
0000
0310
0000
0001
0000
1000
0010
1000
0010
0400
0000
0000
0000
,
0301
0010
0100
1000
0010
1000
0100
0010
,
0001
0000
0100
0000
0010
0000
1000
0000
0100
0000
0010
0000
0001
0000
1000
0001
,
0100
0010
1000
0001
0010
0001
0100
0010
,
1000
0000
0100
0000
0010
0000
0001
0000
0100
0000
0010
0000
1000
0001
1000
0001
,
1000
0100
0010
0001
1000
0010
1000
0100
,
0010
0000
0001
0000
0100
0000
0010
0000
1000
0000
0100
0000
0010
0000
0001
1000
,
0010
0000
0100
0000
0001
0000
0010
0000
0001
0000
0100
0000
0010
0000
1000
0001
,
1000
0000
0001
0100
0001
0000
1000
0010
1000
0000
0001
0010
0400
0000
0000
0000
,
1300
0001
0010
0001
0100
0010
0100
0001
,
0010
0000
0100
0000
1000
0000
0010
0000
1000
0000
0001
0000
0010
0000
0100
1000
,
0001
1000
0010
0100
0001
0100
0001
0010
,
0100
0000
0010
0000
0001
0000
0100
0000
0010
0000
1000
0000
0001
1000
0001
1000
,
0001
0010
0100
1000
0001
0100
0001
0010
,
0100
1000
0010
0100
0001
0010
0100
1000
,
0040
0130
0001
0040
0130
1000
0040
0130
,
0001
0000
0040
0000
0130
0000
1000
0000
0001
0100
0001
0100
0040
0000
0000
0000
,
1030
0100
0010
0100
1000
0001
0100
0010
,
1000
0000
0100
0000
0010
0000
0100
0000
1000
0000
0010
0000
0100
0000
0001
1000
,
0100
0010
0001
0010
0100
1000
0010
0100
,
0001
0000
0010
0000
0100
0000
1000
0000
0010
0000
0100
0000
0001
1000
0001
1000
,
0001
0010
0100
0010
0001
1000
0010
0100
,
0001
0000
0010
0000
0100
0000
1000
0000
0001
0000
1000
0000
0100
0000
0010
0001
,
1000
0010
0100
0010
1000
0100
0010
0001
,
0100
0000
0010
0000
1000
0000
0001
0000
0100
0000
0001
0000
1000
0001
1000
0001
,
1000
0100
0010
0001
0100
0001
0010
0100
,
1000
0000
0010
0000
0100
0000
0010
0000
1000
0000
0001
0000
0010
0000
0100
1000
,
0001
1000
0010
0100
0001
0100
0010
1000
,
0001
0000
0010
0000
0100
0000
1000
0000
0010
0000
0100
0000
0001
1000
0001
1000
,
0001
0010
0100
0010
0001
1000
0010
0100
,
0001
0000
1000
0000
0100
0000
0010
0000
0001
0000
1000
0000
0010
0000
0100
0001
,
1000
0100
0010
0001
0100
0001
1000
0100
,
0010
0000
0001
1000
0001
0000
1000
0100
1000
0000
0010
0100
0010
0000
0100
0001
,
1000
0001
0010
0001
1000
0010
0100
0001
,
1000
0000
0100
0000
0010
0000
0100
0000
1000
0000
0001
0000
0100
0000
0010
1000
,
0001
0010
0100
0010
0001
1000
0010
0100
,
0001
0000
0010
0000
0100
0000
1000
0000
0010
0000
0100
0000
0001
1000
0001
1000
,
0001
0010
0100
0010
0001
1000
0010
0100
,
0001
0000
0010
0000
0100
0000
1000
0000
0001
0000
1000
0000
0100
0000
0010
0001
,
1000
0010
0100
0010
1000
0100
0010
0001
,
0100
0000
0010
0000
1000
0000
0001
0000
0100
0000
0001
0000
1000
0001
1000
0001
,
1000
0100
0010
0001
0100
0001
0010
0100
,
1000
0000
0010
0000
0100
0000
0010
0000
1000
0000
0001
0000
0010
0000
0100
1000
,
0001
1000
0010
0100
0001
0100
0010
1000
,
0001
0000
0010
0000
0100
0000
1000
0000
0010
0000
0100
0000
0001
1000
0001
1000
,
0001
0010
0100
0010
0001
1000
0010
0100
,
0001
0000
1000
0000
0100
0000
0010
0000
0001
0000
1000
0000
0010
0000
0100
0001
,
1000
0100
0010
0001
0100
0010
1000
0001
,
1000
0000
0010
0000
0100
0000
0001
0000
0020
0000
0130
0000
1000
0001
1000
0001
,
0200
0000
0000
0000
,
0000
0000
0000
0000
,
0000
0000
0000
0000
,
0300
0000
0000
0000
;

//---------------dance-single - T. Moore----------------
#NOTES:
     dance-single:
     T. Moore:
     Hard:
     13:
     1.000,1.000,0.315,0.026,0.250,865.000,36.000,3.000,11.000,0.000:
1001
0000
1000
0000
0100
0010
0000
0001
,
0000
0001
0100
0000
0010
0000
1000
0000
,
0100
0000
0010
0000
0001
1000
0000
0010
,
0000
0010
0100
0000
0001
0000
1000
0000
,
0001
0000
0010
0000
0100
1000
0000
0001
,
0000
0001
0100
0000
0010
0000
1000
0000
,
0100
0000
0010
0000
0001
1000
0000
0010
,
0000
0010
0100
0000
0001
0000
1000
0000
,
1001
0000
0001
0000
0010
0100
0000
1000
,
0000
1000
0010
0000
0100
0000
0001
0000
,
0010
0000
0100
0000
1000
0001
0000
0100
,
0000
0100
0010
0000
1000
0000
0001
0000
,
0011
0000
0010
0000
0100
0010
0000
0001
,
0000
0001
1000
0000
0010
0000
0100
0000
,
0101
0000
0001
0000
1000
0100
0000
0010
,
0000
0010
0001
0000
1000
0000
0010
0000
,
0110
0000
0100
0000
0001
0100
0000
0010
,
0000
0010
1000
0000
0001
0000
0010
0000
,
0100
0000
0010
0000
0001
1000
0000
0010
,
0000
0010
0100
0000
0001
0000
1000
0000
,
0100
0000
0010
0000
0001
1000
0000
0010
,
0000
0010
0100
0000
0001
0000
0010
0000
,
0100
0000
0010
0000
0001
1000
0000
0010
,
0000
0010
0100
0000
0001
0000
1000
0000
,
1001
0001
0100
0010
,
1000
0001
0010
0100
,
1000
0100
0010
0001
,
1000
0010
0100
0001
,
0011
0000
0010
0000
0100
1000
0000
0010
,
0000
0010
0100
0000
0001
0000
0010
0000
,
010M
100M
010M
100M
010M
100M
010M
001M
,
000M
0010
0000
0001
2000
0000
0000
3000
,
1001
0000
0001
0000
0100
0000
0001
0010
,
0000
0010
0100
0000
1000
0000
0001
0000
,
0001
0000
0100
0000
0001
1000
0000
0100
,
0000
0100
0010
0000
0001
0000
1000
0000
,
1000
0000
0010
0000
1000
0000
0001
0010
,
0000
0010
0100
0000
1000
0000
0010
0000
,
0010
0000
1000
0000
0010
0100
0000
0001
,
0000
0001
1000
0000
0001
0000
0010
0100
,
1000
0000
0010
0000
1000
0000
0010
0100
,
0000
0100
0001
0000
1000
0000
0001
0000
,
0001
0000
0010
0000
0001
1000
0000
0010
,
0000
0010
0100
0000
0001
0000
1000
0000
,
1000
0000
0100
0000
1000
0000
0001
0100
,
0000
0100
0010
0000
1000
0000
0100
0000
,
1000
0000
1000
0000
0100
0010
0000
0001
,
0000
0000
0001
0000
1000
0000
0001
0000
0100
0000
0010
1000
0001
0000
1000
0000
,
0100
0000
1000
0000
0001
0000
1000
0100
,
0000
0100
0010
0000
0001
0000
1000
0000
,
1000
0000
0010
0000
1000
0001
0000
0010
,
0000
0010
0100
0000
1000
0000
0001
0000
,
0001
0000
0100
0000
0001
0000
1000
0100
,
0000
0100
0010
0000
0001
0000
0100
0000
,
0100
0000
0001
0000
0100
0010
0000
1000
,
0000
1000
0001
0000
1000
0000
0100
0010
,
0001
0000
0100
0000
0001
0000
0100
0010
,
0000
0010
1000
0000
0001
0000
1000
0000
,
1000
0000
0100
0000
1000
0001
0000
0100
,
0000
0100
0010
0000
1000
0000
0001
0000
,
0001
0000
0010
0000
0001
0000
1000
0010
,
0000
0010
0100
0000
0001
0000
0010
0000
,
0001
0000
0001
0000
0010
0100
0000
1000
,
0000
0000
0000
1000
0000
0000
0001
0000
0000
1000
0000
0000
0010
0000
0100
0000
0001
0000
1000
0000
0000
0001
0000
0000
,
0010
0100
1100
0000
,
0001
0010
0001
0000
1100
0000
0000
0000
,
0001
0100
1010
0000
,
0001
0100
0010
0000
1000
0010
0100
0000
,
0001
1000
1100
0000
,
0100
0010
0001
0000
1100
0000
0000
0000
,
0001
0100
1010
0000
,
0001
1000
0100
0000
0010
0001
1000
0000
,
0010
0100
1001
0000
,
1000
0010
0100
0000
1001
0000
0000
0000
,
0001
0010
1100
0000
,
0001
0100
0010
0000
1000
0100
0010
0000
,
0011
0001
0010
0001
,
1001
1000
0001
1000
,
1010
0000
0110
0000
,
0101
0001
1MM1
1000
,
0001
0010
0100
1000
0010
1000
0100
0010
,
0001
0000
0000
0100
0000
0000
0010
0000
0000
1000
0000
0000
0100
0000
0000
0010
0000
0000
0001
0000
1000
0000
0001
0000
,
0100
0010
1000
0001
0010
0001
0100
0010
,
1000
0000
0000
0100
0000
0000
0010
0000
0000
0001
0000
0000
0100
0000
0000
0010
0000
0000
1000
0000
0001
0000
1000
0000
,
0001
0010
0100
1000
0001
0100
0001
0010
,
0100
0000
0000
1000
0000
0000
0010
0000
0000
0100
0000
0000
0001
0000
0000
0010
0000
0000
0100
0000
1000
0000
0001
0000
,
0100
0010
1000
0100
1000
0010
0100
0004
,
0003
4000
3000
0400
0300
0010
0004
0000
,
1003
0100
1000
0010
0100
0001
0100
0010
,
1000
0000
0000
0100
0000
0000
1000
0000
0000
0010
0000
0000
1000
0000
0000
0001
0000
0000
0010
0000
0100
0000
1000
0000
,
0001
1000
0010
0100
0001
0100
0001
0010
,
0100
0000
0000
0010
0000
0000
0001
0000
0000
0100
0000
0000
0010
0000
0000
1000
0000
0000
0001
0000
1000
0000
0001
0000
,
1000
0100
0010
0001
1000
0010
1000
0100
,
0010
0001
0100
0010
1000
0100
0010
0001
,
0400
0310
1000
0400
0310
0001
0400
0310
,
1000
0000
0000
0400
0000
0000
0310
0000
0000
0001
0000
0000
1000
0000
0010
0000
1000
0000
0004
0000
0000
0000
0000
0000
,
1003
0100
0010
0001
0100
0001
0010
0100
,
1000
0000
0000
0010
0000
0000
0100
0000
0000
0001
0000
0000
0010
0000
0000
0100
0000
0000
1000
0000
0001
0000
1000
0000
,
0010
0100
0001
1000
0100
1000
0010
0100
,
0001
0000
0000
0010
0000
0000
0100
0000
0000
1000
0000
0000
0010
0000
0000
0100
0000
0000
0001
0000
1000
0000
0001
0000
,
1000
0100
0010
0001
1000
0010
1000
0100
,
0010
0000
0000
0001
0000
0000
0100
0000
0000
0010
0000
0000
1000
0000
0000
0100
0000
0000
0010
0000
0001
0000
1000
0000
,
0010
0100
0001
0010
0001
0100
0010
4000
,
3000
0400
0300
0040
0030
0001
4000
0000
,
3010
0100
0001
1000
0100
0010
0100
1000
,
0010
0000
0000
0100
0000
0000
0001
0000
0000
0010
0000
0000
0001
0000
0000
1000
0000
0000
0010
0000
0100
0000
0001
0000
,
1000
0001
0100
0010
1000
0010
1000
0100
,
0010
0000
0000
0100
0000
0000
1000
0000
0000
0010
0000
0000
0100
0000
0000
0001
0000
0000
1000
0000
0001
0000
1000
0000
,
0001
0010
0100
1000
0001
0100
0001
0010
,
0100
1000
0010
0100
0001
0010
0100
1000
,
0040
0130
0001
0040
0130
1000
0040
0130
,
0001
0000
0000
0040
0000
0000
0130
0000
0000
1000
0000
0000
0001
0000
1000
0000
0001
0000
4000
0000
0000
0000
0000
0000
,
3001
0010
0100
0010
0001
1000
0010
0100
,
0001
0000
0000
0010
0000
0000
0100
0000
0000
0010
0000
0000
0001
0000
0000
0100
0000
0000
0010
0000
1000
0000
0001
0000
,
0010
0100
1000
0100
0010
0001
0100
0010
,
1000
0000
0000
0100
0000
0000
0010
0000
0000
0001
0000
0000
0100
0000
0000
0010
0000
0000
1000
0000
0001
0000
1000
0000
,
0001
0010
0100
0010
0001
1000
0010
0100
,
0001
0000
0000
0010
0000
0000
0100
0000
0000
1000
0000
0000
0001
0000
0000
1000
0000
0000
0100
0000
0010
0000
0001
0000
,
1000
0010
0100
0010
1000
0100
0010
0001
,
0100
0000
0000
0010
0000
0000
1000
0000
0000
0001
0000
0000
0100
0000
0000
0001
0000
0000
1000
0000
0001
0000
1000
0000
,
0001
0010
0100
1000
0010
1000
0100
0010
,
0001
0000
0000
0100
0000
0000
0010
0000
0000
0100
0000
0000
0001
0000
0000
1000
0000
0000
0100
0000
0010
0000
0001
0000
,
1000
0001
0100
0010
1000
0010
0100
0001
,
1000
0000
0000
0100
0000
0000
0010
0000
0000
0001
0000
0000
0100
0000
0000
0010
0000
0000
1000
0000
0001
0000
1000
0000
,
0001
0010
0100
0010
0001
1000
0010
0100
,
0001
0000
0000
1000
0000
0000
0100
0000
0000
0010
0000
0000
0001
0000
0000
1000
0000
0000
0010
0000
1000
0000
0001
0000
,
1000
0100
0010
0001
0100
0001
1000
0100
,
0010
0004
0003
4000
3000
0040
0030
0400
,
0301
1000
0100
1000
0001
0100
0010
1000
,
0001
0000
0000
0010
0000
0000
0100
0000
0000
0010
0000
0000
0001
0000
0000
1000
0000
0000
0010
0000
0100
0000
0001
0000
,
1000
0100
0010
0100
1000
0001
0100
0010
,
1000
0000
0000
0100
0000
0000
0010
0000
0000
0001
0000
0000
0100
0000
0000
0010
0000
0000
1000
0000
0001
0000
1000
0000
,
0001
0010
0100
0010
0001
1000
0010
0100
,
0001
0000
0000
0010
0000
0000
0100
0000
0000
1000
0000
0000
0001
0000
0000
1000
0000
0000
0100
0000
0010
0000
0001
0000
,
1000
0010
0100
0010
1000
0100
0010
0001
,
0100
0000
0000
0010
0000
0000
1000
0000
0000
0001
0000
0000
0100
0000
0000
0001
0000
0000
1000
0000
0001
0000
1000
0000
,
0001
0010
0100
1000
0010
1000
0100
0010
,
0001
0000
0000
0100
0000
0000
0010
0000
0000
0100
0000
0000
0001
0000
0000
1000
0000
0000
0100
0000
0010
0000
0001
0000
,
1000
0001
0100
0010
1000
0010
0100
0001
,
1000
0000
0000
0100
0000
0000
0010
0000
0000
0001
0000
0000
0100
0000
0000
0010
0000
0000
1000
0000
0001
0000
1000
0000
,
0001
0010
0100
0010
0001
1000
0010
0100
,
0001
0000
0000
1000
0000
0000
0100
0000
0000
0010
0000
0000
0001
0000
0000
1000
0000
0000
0010
0000
0100
0000
0001
0000
,
1000
0100
0010
0001
0100
0010
1000
0001
,
1000
0000
0000
0010
0000
0000
0100
0000
0000
0001
0000
0000
0020
0000
0000
0130
0000
0000
1000
0000
0001
0000
1000
0000
,
0002
0000
0000
0000
,
0000
0000
0000
0000
,
0000
0000
0000
0000
,
0003
0000
0000
0000
;
