#TITLE:Parade of the Wooden Soldiers;
#SUBTITLE:;
#ARTIST:Leon Jessel;
#TITLETRANSLIT:;
#SUBTITLETRANSLIT:;
#ARTISTTRANSLIT:;
#CREDIT:;
#BANNER:Parade of the Wooden Soldiers-banner.png;
#BACKGROUND:Parade of the Wooden Soldiers-bg.png;
#LYRICSPATH:;
#CDTITLE:!star.png;
#MUSIC:Parade of the Wooden Soldiers.mp3;
#OFFSET:1.167;
#SAMPLESTART:4.343;
#SAMPLELENGTH:15.440;
#SELECTABLE:YES;
#BPMS:0.000=124.980;
#STOPS:;
#BGCHANGES:;
// cache tags:
#FIRSTBEAT:3.500;
#LASTBEAT:247.167;
#SONGFILENAME:Songs/KBU/Parade of the Wooden Soldiers (Stargroup)/wood.sm;
#HASMUSIC:1;
#HASBANNER:1;
#MUSICLENGTH:119.012;
// end cache tags

//---------------dance-single - ----------------
#NOTES:
     dance-single:
     :
     Hard:
     9:
     1.000,1.000,1.000,0.933,1.000,685.000,317.000,111.000,0.000,80.000:
0000
0000
0000
0000
0000
0000
0000
0000
0000
0000
0000
0000
0000
0000
0000
0000
0000
0000
0000
0000
0000
0001
0010
0001
,
0020
0000
0000
1000
0000
0000
0130
0000
0000
0001
0010
0001
0020
0000
0000
1000
0000
0000
0130
0000
0000
0001
0010
0001
,
0020
0030
0000
1001
0010
0001
0120
0030
0000
1020
0030
0000
0120
0000
0000
0000
0000
0000
0130
0000
0000
1001
0010
0001
,
1100
0000
0000
0110
0000
0000
0110
0000
0000
1001
0010
0001
1010
0000
0000
0101
0000
0000
0101
0000
0000
1001
0010
0001
,
1200
0000
0000
0000
0000
0000
0312
0000
0000
0000
0000
0000
1023
0000
0000
0000
0000
0000
0231
0000
0000
0000
0000
0000
1301
0000
0000
0010
0000
0000
0101
0000
0000
1000
0000
0000
0011
0000
0000
0000
0000
0000
1001
0000
0010
0000
0001
0000
,
1100
0000
0000
0110
0000
0000
0110
0000
0000
1001
0010
0001
1100
0000
0000
0011
0000
0000
0011
0000
0000
1001
0010
0001
,
1110
0000
0000
0000
0000
0000
0000
0000
0000
0000
0000
0000
0000
0000
0000
0000
0000
0000
0000
0000
0000
0000
0000
0000
0000
0000
0000
0000
0000
0000
0000
0000
0000
0000
0000
0000
0000
0000
0000
0000
0000
0000
0000
0000
0000
0000
0000
0000
1011
0000
0000
0000
0000
0000
0000
0000
0000
0000
0000
0000
0000
0000
0000
0000
0000
0000
0000
0000
0000
0000
0000
0000
0000
0000
0000
0000
0000
0000
0000
0000
0000
0000
0000
0000
0000
0000
0000
0000
0000
0000
0000
0000
0000
0000
0000
0000
1112
0000
0000
0000
0000
0000
0000
0000
0000
0000
0000
0000
0000
0000
0000
0000
0000
0000
0000
0000
0000
0000
0000
0000
1000
0000
0000
0000
0000
0000
0000
0000
0100
0000
0000
0000
0000
0000
0000
0000
0010
0000
0000
0000
0000
0003
0000
0000
0001
0000
0000
0000
0000
0000
0000
0000
0000
0000
0000
0000
0000
0000
0000
0000
0000
0000
0000
0000
0000
0000
0000
0000
1001
0000
0000
0000
0000
0000
0000
0000
0010
0000
0000
0000
0000
0000
0000
0000
0001
0000
0000
0000
0000
0000
0000
0000
,
1100
0000
0000
0110
0000
0000
0110
0000
0000
1001
0010
0001
1010
0000
0000
0101
0000
0000
0101
0000
0000
1001
0010
0001
,
1200
0000
0000
0000
0000
0000
0312
0000
0000
0000
0000
0000
1023
0000
0000
0000
0000
0000
0231
0000
0000
0000
0000
0000
1301
0000
0000
0010
0000
0000
0101
0000
0000
1000
0000
0000
0011
0000
0000
0000
0000
0000
1001
0000
0010
0000
0001
0000
,
1100
0000
0000
0110
0000
0000
0110
0000
0000
1001
0010
0001
1100
0000
0000
0011
0000
0000
0011
0000
0000
1001
0010
0001
,
1110
0000
0000
0000
0000
0000
1011
0000
0000
0000
0000
0000
1112
0000
0000
0000
0000
0000
0113
0000
0000
1000
0010
0100
,
0001
0000
0011
0000
0110
0000
1100
0000
0101
0010
0100
0010
1000
0100
0010
0100
,
1001
0000
0000
0000
0000
0000
0100
0000
0000
0001
0000
0000
0110
0000
0000
0000
0000
0000
1000
0000
0000
0010
0000
0001
0100
0000
0000
0000
0000
0000
0110
0000
0000
0000
0000
0000
1010
0000
0000
0000
0000
0000
1000
0000
0100
0000
0010
0000
,
0001
0000
0101
0000
0110
0000
1010
0000
1001
0010
0100
0010
1000
0100
0010
0100
,
1001
0000
0000
0000
0000
0000
0010
0000
0000
0001
0000
0000
1100
0000
0000
0000
0000
0000
1000
0000
0000
0100
0000
0001
0010
0000
0000
0000
0000
0000
0101
0000
0000
0000
0000
0000
0110
0000
0000
0000
0000
0000
0001
0000
0010
0000
0001
0000
,
1020
0000
0000
0031
0010
0001
1020
0000
0000
0031
0010
0001
1100
0000
0000
0110
0000
0000
0011
0000
0000
0001
0010
0001
,
0020
0000
0000
1000
0000
0000
0130
0000
0000
0001
0010
0001
0020
0000
0000
1000
0000
0000
0130
0000
0000
0001
0010
0001
,
0020
0030
0000
1001
0010
0001
0120
0030
0000
1020
0030
0000
0120
0000
0000
0000
0000
0000
0130
0000
0000
1001
0010
0001
,
1100
0000
0000
0110
0000
0000
0110
0000
0000
1001
0010
0001
1010
0000
0000
0101
0000
0000
0101
0000
0000
1001
0010
0001
,
1200
0000
0000
0000
0000
0000
0312
0000
0000
0000
0000
0000
1023
0000
0000
0000
0000
0000
0231
0000
0000
0000
0000
0000
1301
0000
0000
0010
0000
0000
0101
0000
0000
1000
0000
0000
0011
0000
0000
0000
0000
0000
1001
0000
0010
0000
0001
0000
,
1100
0000
0000
0110
0000
0000
0110
0000
0000
1001
0010
0001
1100
0000
0000
0011
0000
0000
0011
0000
0000
1001
0010
0001
,
1110
0000
0000
0000
0000
0000
0000
0000
0000
0000
0000
0000
0000
0000
0000
0000
0000
0000
0000
0000
0000
0000
0000
0000
0000
0000
0000
0000
0000
0000
0000
0000
0000
0000
0000
0000
0000
0000
0000
0000
0000
0000
0000
0000
0000
0000
0000
0000
1011
0000
0000
0000
0000
0000
0000
0000
0000
0000
0000
0000
0000
0000
0000
0000
0000
0000
0000
0000
0000
0000
0000
0000
0000
0000
0000
0000
0000
0000
0000
0000
0000
0000
0000
0000
0000
0000
0000
0000
0000
0000
0000
0000
0000
0000
0000
0000
1112
0000
0000
0000
0000
0000
0000
0000
0000
0000
0000
0000
0000
0000
0000
0000
0000
0000
0000
0000
0000
0000
0000
0000
1000
0000
0000
0000
0000
0000
0000
0000
0100
0000
0000
0000
0000
0000
0000
0000
0010
0000
0000
0000
0000
0003
0000
0000
0001
0000
0000
0000
0000
0000
0000
0000
0000
0000
0000
0000
0000
0000
0000
0000
0000
0000
0000
0000
0000
0000
0000
0000
1001
0000
0000
0000
0000
0000
0000
0000
0010
0000
0000
0000
0000
0000
0000
0000
0001
0000
0000
0000
0000
0000
0000
0000
,
1100
0000
0000
0001
0000
0000
0110
0000
0000
1000
0000
0000
0110
0000
0000
0000
0000
0000
1001
0000
0010
0000
0001
0000
1010
0000
0000
0100
0000
0000
0011
0000
0000
1000
0000
0000
0101
0000
0000
0000
0000
0000
1001
0000
0010
0000
0001
0000
,
1200
0000
0000
0010
0000
0000
1302
0000
0000
0100
0000
0000
1023
0000
0000
0001
0000
0000
1230
0000
0000
0000
0000
0000
1301
0000
0000
0010
0000
0000
0101
0000
0000
1001
0000
0000
0011
0000
0000
0000
0000
0000
1001
0000
0010
0000
0001
0000
,
1100
0000
0000
0001
0000
0000
0110
0000
0000
1000
0000
0000
0110
0000
0000
0000
0000
0000
1001
0000
0010
0000
0001
0000
1100
0000
0000
0001
0000
0000
1010
0000
0000
0100
0000
0000
0011
0000
0000
0000
0000
0000
1001
0000
0010
0000
0001
0000
,
1110
0000
0000
0000
0000
0000
0000
0000
0000
0000
0000
0000
0000
0000
0000
0000
0000
0000
0000
0000
0000
0000
0000
0000
0000
0000
0000
0000
0000
0000
0000
0000
0000
0000
0000
0000
0000
0000
0000
0000
0000
0000
0000
0000
0000
0000
0000
0000
1011
0000
0000
0000
0000
0000
0000
0000
0000
0000
0000
0000
0000
0000
0000
0000
0000
0000
0000
0000
0000
0000
0000
0000
0000
0000
0000
0000
0000
0000
0000
0000
0000
0000
0000
0000
0000
0000
0000
0000
0000
0000
0000
0000
0000
0000
0000
0000
1112
0000
0000
0000
0000
0000
0000
0000
0000
0000
0000
0000
0000
0000
0000
0000
0000
0000
0000
0000
0000
0000
0000
0000
1000
0000
0000
0000
0000
0000
0000
0000
0100
0000
0000
0000
0000
0000
0000
0000
0010
0000
0000
0000
0000
0003
0000
0000
0001
0000
0000
0000
0000
0000
0000
0000
0000
0000
0000
0000
0000
0000
0000
0000
0000
0000
0000
0000
0000
0000
0000
0000
0000
0000
0000
0000
0000
0000
0000
0000
0000
0000
0000
0000
0000
0000
0000
0000
0000
0000
0000
0000
0000
0000
0000
0000
,
0100
0000
1002
0000
2103
0010
0002
0010
3103
0000
1002
0000
2103
0010
0002
0010
,
3103
0000
0000
0000
0000
0000
0000
0000
1002
0000
0000
0000
0000
0000
0000
0000
2103
0000
0000
0000
0010
0000
0000
0000
0002
0000
0000
0000
0010
0000
0000
0000
3103
0000
0000
0000
0000
0000
0000
0000
1002
0000
0000
0000
0000
0000
0000
0000
2103
0000
0000
0000
0010
0000
0000
0000
0002
0000
0000
0000
0010
0000
0000
3000
,
1103
0011
0110
0000
0101
0000
1010
0000
1100
0011
0110
0000
0101
0000
1010
0000
,
2200
0000
3300
1100
1100
0000
0011
0000
0011
0000
0101
0000
0202
0000
0303
0000
,
1010
0101
0110
0000
0011
0000
1100
0000
1010
0101
0110
0000
0011
0000
1100
0000
,
2200
0000
3300
1100
1100
0000
0011
0000
0011
0000
1001
0000
2002
0000
3003
0000
,
1100
0011
0110
0000
0101
0000
1010
0000
1100
0011
0110
0000
0101
0000
1010
0000
,
2200
0000
3300
1100
1100
0000
0011
0000
0011
0000
0101
0000
0202
0000
0303
0000
,
2010
0001
3010
0000
2010
0001
3010
0000
1002
0100
1003
0000
1002
0100
1003
0000
,
0101
0000
0000
0000
0000
0000
0000
0000
0101
0000
0000
0000
0000
0000
0000
0000
1002
0000
0000
0000
0010
0000
0000
0000
0100
0000
0000
0000
0010
0000
0000
0003
1101
0000
0000
0000
0000
0000
0000
0000
1110
0000
0000
0000
0000
0000
0000
0000
1101
0000
0000
0000
0000
0000
0000
0000
1000
0000
0000
0000
0000
0000
0000
0000
,
0100
0000
0000
0000
0000
0000
1100
0000
0010
0000
0100
0000
0001
0000
0000
0000
0000
0000
1001
0000
0010
0000
0001
0000
0010
0000
0000
1000
0000
0000
0110
0000
0000
0001
0000
0000
0020
0000
0000
0000
0000
0000
0131
0000
0000
0000
0000
0000
,
1000
0000
0000
0000
0000
0000
0101
0000
0010
0000
0001
0000
0010
0000
0000
0000
0000
0000
0101
0000
0010
0000
0001
0000
0010
0000
0000
0100
0000
0000
1001
0000
0000
0100
0000
0000
0020
0000
0000
0000
0000
0000
1031
0000
0000
0000
0000
0000
,
0100
0000
0000
0000
0000
0000
1100
0000
0010
0000
0100
0000
0001
0000
0000
0000
0000
0000
1001
0000
0010
0000
0001
0000
0010
0000
0000
1000
0000
0000
0110
0000
0000
0001
0000
0000
0020
0000
0000
0000
0000
0000
1031
0000
0100
0000
0010
0000
,
1001
0000
0000
0001
0010
0001
0010
0000
0000
0111
0000
0000
1101
0000
0000
1011
0000
0000
1110
0000
0000
1000
0100
0010
,
1101
0000
0000
0000
0000
0000
1000
0000
0100
0000
0010
0000
1101
0000
0000
0000
0000
0000
1000
0000
0100
0000
0010
0000
1101
0000
0000
0000
0000
0000
0000
0000
0000
0000
0000
0000
1212
0000
0000
0000
0000
0000
0000
0000
0000
0303
0000
0000
,
0120
0001
1000
0000
0001
0000
0100
0000
0100
0001
1000
0000
0001
0000
0100
0000
,
0100
0000
2030
0100
3200
0000
0312
0000
0010
0000
1000
0000
2000
0000
3000
0000
,
0213
0001
1000
0000
0001
0000
0010
0000
0010
0001
1000
0000
0001
0000
0010
0000
,
0010
0000
0000
0000
0000
0000
0000
0000
2300
0000
0000
0000
0010
0000
0000
0000
3020
0000
0000
0000
0000
0000
0000
0000
1032
0000
0000
0000
0000
0000
0000
0000
0203
0000
0000
0000
0000
0000
0000
0000
0001
0000
0000
0000
0000
0000
0000
0000
0002
0000
0000
0000
0000
0000
0000
0000
0003
0000
0000
0000
0000
0000
0000
0300
,
0120
0001
1000
0000
0001
0000
0100
0000
0100
0001
1000
0000
0001
0000
0100
0000
,
0100
0000
2030
0100
3200
0000
0321
0000
0032
0000
0100
0000
0200
0000
0300
0000
,
2023
0000
3030
1010
1010
0000
0110
0000
0110
0110
0101
0000
0011
0011
1001
0000
,
1100
0000
0000
0000
0000
0000
0000
0000
0000
0000
0000
0000
0000
0000
0000
0000
0000
0000
0000
0000
0000
0000
0000
0000
0100
0000
0000
0000
0000
0000
1000
0000
0000
0000
0000
0000
0100
0000
0000
0000
0000
0000
0010
0000
0000
0000
0000
0000
0001
0000
0000
0000
0000
0000
0000
0000
0000
0000
0000
0000
0000
0000
0000
0000
0000
0000
0000
0000
0000
0000
0000
0000
1101
0000
0000
0000
0000
0000
0000
0000
0000
0000
0000
0000
0000
0000
0000
0000
0000
0000
0000
0000
0000
0000
0000
0000
2012
0000
0000
0000
0000
0000
0000
0000
0000
0000
0000
0000
0000
0000
0000
0000
0000
0000
0000
0000
0000
0000
0000
0000
0000
0000
0000
0000
0000
0000
0000
0000
0000
0000
0000
0000
3003
0000
0000
0000
0000
0000
0000
0000
0000
0000
0000
0000
1101
0000
0000
0000
0000
0000
0000
0000
0000
0000
0000
0000
0000
0000
0000
0000
0000
0000
0000
0000
0000
0000
0000
0000
0001
0000
0000
0000
0000
0000
0000
0000
0010
0000
0000
0000
0000
0000
0000
0000
0001
0000
0000
0000
0000
0000
0000
0000
,
0020
0000
0000
1000
0000
0000
0130
0000
0000
0001
0010
0001
0020
0000
0000
1000
0000
0000
0130
0000
0000
0001
0010
0001
,
0020
0030
0000
1001
0010
0001
0120
0030
0000
1020
0030
0000
0120
0000
0000
0000
0000
0000
0130
0000
0000
1001
0010
0001
,
1100
0000
0000
0110
0000
0000
0110
0000
0000
1001
0010
0001
1010
0000
0000
0101
0000
0000
0101
0000
0000
1001
0010
0001
,
1200
0000
0000
0000
0000
0000
0312
0000
0000
0000
0000
0000
1023
0000
0000
0000
0000
0000
0231
0000
0000
0000
0000
0000
1301
0000
0000
0010
0000
0000
0101
0000
0000
1000
0000
0000
0011
0000
0000
0000
0000
0000
1001
0000
0010
0000
0001
0000
,
1100
0000
0000
0110
0000
0000
0110
0000
0000
1001
0010
0001
1100
0000
0000
0011
0000
0000
0011
0000
0000
1001
0010
0001
,
1110
0000
0000
0000
0000
0000
0000
0000
0000
0000
0000
0000
0000
0000
0000
0000
0000
0000
0000
0000
0000
0000
0000
0000
0000
0000
0000
0000
0000
0000
0000
0000
0000
0000
0000
0000
0000
0000
0000
0000
0000
0000
0000
0000
0000
0000
0000
0000
1011
0000
0000
0000
0000
0000
0000
0000
0000
0000
0000
0000
0000
0000
0000
0000
0000
0000
0000
0000
0000
0000
0000
0000
0000
0000
0000
0000
0000
0000
0000
0000
0000
0000
0000
0000
0000
0000
0000
0000
0000
0000
0000
0000
0000
0000
0000
0000
1112
0000
0000
0000
0000
0000
0000
0000
0000
0000
0000
0000
0000
0000
0000
0000
0000
0000
0000
0000
0000
0000
0000
0000
1000
0000
0000
0000
0000
0000
0000
0000
0100
0000
0000
0000
0000
0000
0000
0000
0010
0000
0000
0000
0000
0003
0000
0000
0001
0000
0000
0000
0000
0000
0000
0000
0000
0000
0000
0000
0000
0000
0000
0000
0000
0000
0000
0000
0000
0000
0000
0000
1001
0000
0000
0000
0000
0000
0000
0000
0010
0000
0000
0000
0000
0000
0000
0000
0001
0000
0000
0000
0000
0000
0000
0000
,
1100
0000
0000
0001
0000
0000
0110
0000
0000
1000
0000
0000
0110
0000
0000
0000
0000
0000
1001
0000
0010
0000
0001
0000
1010
0000
0000
0100
0000
0000
0011
0000
0000
1000
0000
0000
0101
0000
0000
0000
0000
0000
1001
0000
0010
0000
0001
0000
,
1200
0000
0000
0010
0000
0000
1302
0000
0000
0100
0000
0000
1023
0000
0000
0001
0000
0000
1230
0000
0000
0000
0000
0000
1301
0000
0000
0010
0000
0000
0101
0000
0000
1001
0000
0000
0011
0000
0000
0000
0000
0000
1001
0000
0010
0000
0001
0000
,
1100
0000
0000
0001
0000
0000
0110
0000
0000
1000
0000
0000
0110
0000
0000
0000
0000
0000
1001
0000
0010
0000
0001
0000
1100
0000
0000
0001
0000
0000
1010
0000
0000
0100
0000
0000
0011
0000
0000
0000
0000
0000
0000
0000
0000
0000
0000
0000
,
1110
0000
0000
0000
0000
0000
0000
0000
1001
0100
0010
0001
0010
0100
1000
0100
,
0010
0001
0010
0100
1000
0100
0010
0001
0010
0100
1000
0100
0010
0001
0010
0100
,
1000
0000
0000
0000
0000
0000
2111
3000
0000
0000
0000
0000
1211
0300
0000
0000
0000
0000
1121
0030
0000
0000
0000
0000
,
0000
0000
0000
0000
0000
0000
1221
0330
0000
0000
0000
0000
0000
0000
0000
0000
0000
0000
2112
3003
0000
0000
0000
0000
;

//---------------dance-single - ----------------
#NOTES:
     dance-single:
     :
     Challenge:
     11:
     1.000,1.000,1.000,0.907,1.000,700.000,318.000,108.000,0.000,93.000:
0000
0000
0000
0000
0000
0000
0000
0000
0000
0000
0000
0000
0000
0000
0000
0000
0000
0000
0000
0000
0000
0001
0001
0001
,
0002
0000
0000
0100
0000
0000
0013
0000
0000
0001
0001
0001
0002
0000
0000
1000
0000
0000
0103
0000
0000
0001
0001
0001
,
0002
0003
0000
1001
0001
0001
0102
0003
0000
1002
0003
0000
0012
0000
0000
0000
0000
0000
0103
0000
0000
1001
0001
0001
,
1100
0000
0000
0110
0000
0000
0110
0000
0000
1001
0001
0001
1010
0000
0000
0101
0000
0000
0101
0000
0000
1001
0001
0001
,
1200
0000
0000
0000
0000
0000
0312
0000
0000
0000
0000
0000
1023
0000
0000
0000
0000
0000
0231
0000
0000
0000
0000
0000
1301
0000
0000
0010
0000
0000
0101
0000
0000
1000
0000
0000
0011
0000
0000
0000
0000
0000
1001
0000
0001
0000
0001
0000
,
1100
0000
0000
0110
0000
0000
0110
0000
0000
1001
0001
0001
1100
0000
0000
0011
0000
0000
0011
0000
0000
1010
0010
0010
,
1101
0000
0000
0000
0000
0000
0000
0000
0000
0000
0000
0000
0000
0000
0000
0000
0000
0000
0000
0000
0000
0000
0000
0000
0000
0000
0000
0000
0000
0000
0000
0000
0000
0000
0000
0000
0000
0000
0000
0000
0000
0000
0000
0000
0000
0000
0000
0000
1011
0000
0000
0000
0000
0000
0000
0000
0000
0000
0000
0000
0000
0000
0000
0000
0000
0000
0000
0000
0000
0000
0000
0000
0000
0000
0000
0000
0000
0000
0000
0000
0000
0000
0000
0000
0000
0000
0000
0000
0000
0000
0000
0000
0000
0000
0000
0000
1112
0000
0000
0000
0000
0000
0000
0000
0000
0000
0000
0000
0000
0000
0000
0000
0000
0000
0000
0000
0000
0000
0000
0000
1000
0000
0000
0000
0000
0000
0000
0000
0100
0000
0000
0000
0000
0000
0000
0000
0010
0000
0000
0000
0000
0003
0000
0000
0001
0000
0000
0000
0000
0000
0000
0000
0000
0000
0000
0000
0000
0000
0000
0000
0000
0000
0000
0000
0000
0000
0000
0000
1001
0000
0000
0000
0000
0000
0000
0000
0001
0000
0000
0000
0000
0000
0000
0000
0001
0000
0000
0000
0000
0000
0000
0000
,
1100
0000
0000
0110
0000
0000
0110
0000
0000
1001
0001
0001
1010
0000
0000
0101
0000
0000
0101
0000
0000
1001
0001
0001
,
1200
0000
0000
0000
0000
0000
0312
0000
0000
0000
0000
0000
1023
0000
0000
0000
0000
0000
0231
0000
0000
0000
0000
0000
1301
0000
0000
0010
0000
0000
0101
0000
0000
1000
0000
0000
0011
0000
0000
0000
0000
0000
1001
0000
0001
0000
0001
0000
,
1100
0000
0000
0110
0000
0000
0110
0000
0000
1001
0001
0001
1100
0000
0000
0011
0000
0000
0011
0000
0000
1010
0010
0010
,
1101
0000
0000
0000
0000
0000
1011
0000
0000
0000
0000
0000
1112
0000
0000
0000
0000
0000
0113
0000
0000
1000
0010
0100
,
0001
0000
0011
0000
0110
0000
1100
0000
0101
0010
0100
0010
1000
0100
0010
0100
,
1011
0000
0000
0000
0000
0000
0100
0000
0000
0001
0000
0000
1110
0000
0000
0000
0000
0000
1000
0000
0000
0010
0000
0001
1100
0000
0000
0000
0000
0000
0111
0000
0000
0000
0000
0000
1110
0000
0000
0000
0000
0000
1000
0000
0100
0000
0010
0000
,
0001
0000
0101
0000
0110
0000
1010
0000
1001
0010
0100
0010
1000
0100
0010
0100
,
1011
0000
0000
0000
0000
0000
0010
0000
0000
0001
0000
0000
1110
0000
0000
0000
0000
0000
1000
0000
0000
0100
0000
0001
1010
0000
0000
0000
0000
0000
1101
0000
0000
0000
0000
0000
1110
0000
0000
0000
0000
0000
0001
0000
0001
0000
0001
0000
,
1201
0000
0000
0301
0001
0001
1201
0000
0000
0301
0001
0001
1110
0000
0000
0111
0000
0000
1101
0000
0000
0001
0001
0001
,
0002
0000
0000
0100
0000
0000
0013
0000
0000
0001
0001
0001
0002
0000
0000
1000
0000
0000
0103
0000
0000
0001
0001
0001
,
0002
0003
0000
1001
0001
0001
0102
0003
0000
1002
0003
0000
0012
0000
0000
0000
0000
0000
0103
0000
0000
1001
0001
0001
,
1100
0000
0000
0110
0000
0000
0110
0000
0000
1001
0001
0001
1010
0000
0000
0101
0000
0000
0101
0000
0000
1001
0001
0001
,
1200
0000
0000
0000
0000
0000
0312
0000
0000
0000
0000
0000
1023
0000
0000
0000
0000
0000
0231
0000
0000
0000
0000
0000
1301
0000
0000
0010
0000
0000
0101
0000
0000
1000
0000
0000
0011
0000
0000
0000
0000
0000
1001
0000
0001
0000
0001
0000
,
1100
0000
0000
0110
0000
0000
0110
0000
0000
1001
0001
0001
1100
0000
0000
0011
0000
0000
0011
0000
0000
1010
0010
0010
,
1101
0000
0000
0000
0000
0000
0000
0000
0000
0000
0000
0000
0000
0000
0000
0000
0000
0000
0000
0000
0000
0000
0000
0000
0000
0000
0000
0000
0000
0000
0000
0000
0000
0000
0000
0000
0000
0000
0000
0000
0000
0000
0000
0000
0000
0000
0000
0000
1011
0000
0000
0000
0000
0000
0000
0000
0000
0000
0000
0000
0000
0000
0000
0000
0000
0000
0000
0000
0000
0000
0000
0000
0000
0000
0000
0000
0000
0000
0000
0000
0000
0000
0000
0000
0000
0000
0000
0000
0000
0000
0000
0000
0000
0000
0000
0000
1112
0000
0000
0000
0000
0000
0000
0000
0000
0000
0000
0000
0000
0000
0000
0000
0000
0000
0000
0000
0000
0000
0000
0000
1000
0000
0000
0000
0000
0000
0000
0000
0100
0000
0000
0000
0000
0000
0000
0000
0010
0000
0000
0000
0000
0003
0000
0000
0001
0000
0000
0000
0000
0000
0000
0000
0000
0000
0000
0000
0000
0000
0000
0000
0000
0000
0000
0000
0000
0000
0000
0000
1001
0000
0000
0000
0000
0000
0000
0000
0001
0000
0000
0000
0000
0000
0000
0000
0001
0000
0000
0000
0000
0000
0000
0000
,
1100
0000
0000
0001
0000
0000
0110
0000
0000
1000
0000
0000
0110
0000
0000
0000
0000
0000
1001
0000
0001
0000
0001
0000
1010
0000
0000
0100
0000
0000
0011
0000
0000
1000
0000
0000
0101
0000
0000
0000
0000
0000
1001
0000
0001
0000
0001
0000
,
1200
0000
0000
0010
0000
0000
1302
0000
0000
0100
0000
0000
1023
0000
0000
0001
0000
0000
1230
0000
0000
0000
0000
0000
1301
0000
0000
0010
0000
0000
0101
0000
0000
1001
0000
0000
0011
0000
0000
0000
0000
0000
1001
0000
0001
0000
0001
0000
,
1100
0000
0000
0001
0000
0000
0110
0000
0000
1000
0000
0000
0110
0000
0000
0000
0000
0000
1001
0000
0001
0000
0001
0000
1100
0000
0000
0001
0000
0000
1010
0000
0000
0100
0000
0000
0011
0000
0000
0000
0000
0000
0010
0000
0010
0000
0010
0000
,
1101
0000
0000
0000
0000
0000
0000
0000
0000
0000
0000
0000
0000
0000
0000
0000
0000
0000
0000
0000
0000
0000
0000
0000
0000
0000
0000
0000
0000
0000
0000
0000
0000
0000
0000
0000
0000
0000
0000
0000
0000
0000
0000
0000
0000
0000
0000
0000
1011
0000
0000
0000
0000
0000
0000
0000
0000
0000
0000
0000
0000
0000
0000
0000
0000
0000
0000
0000
0000
0000
0000
0000
0000
0000
0000
0000
0000
0000
0000
0000
0000
0000
0000
0000
0000
0000
0000
0000
0000
0000
0000
0000
0000
0000
0000
0000
1112
0000
0000
0000
0000
0000
0000
0000
0000
0000
0000
0000
0000
0000
0000
0000
0000
0000
0000
0000
0000
0000
0000
0000
1000
0000
0000
0000
0000
0000
0000
0000
0100
0000
0000
0000
0000
0000
0000
0000
0010
0000
0000
0000
0000
0003
0000
0000
0001
0000
0000
0000
0000
0000
0000
0000
0000
0000
0000
0000
0000
0000
0000
0000
0000
0000
0000
0000
0000
0000
0000
0000
0000
0000
0000
0000
0000
0000
0000
0000
0000
0000
0000
0000
0000
0000
0000
0000
0000
0000
0000
0000
0000
0000
0000
0000
,
0100
0000
1002
0000
2103
0010
0002
0010
3103
0000
1002
0000
2103
0010
0002
0010
,
3103
0000
0000
0000
0000
0000
0000
0000
1002
0000
0000
0000
0000
0000
0000
0000
2103
0000
0000
0000
0010
0000
0000
0000
0002
0000
0000
0000
0010
0000
0000
0000
3103
0000
0000
0000
0000
0000
0000
0000
1002
0000
0000
0000
0000
0000
0000
0000
2103
0000
0000
0000
0010
0000
0000
0000
0002
0000
0000
0000
0010
0000
0000
3000
,
1103
0011
0110
0000
0101
0000
1010
0000
1100
0011
0110
0000
0101
0000
1010
0000
,
2200
0000
3300
1100
1100
0000
0011
0000
0011
0000
0101
0000
0202
0000
0303
0000
,
1010
0101
0110
0000
0011
0000
1100
0000
1010
0101
0110
0000
0011
0000
1100
0000
,
2200
0000
3300
1100
1100
0000
0011
0000
0011
0000
1001
0000
2002
0000
3003
0000
,
1100
0011
0110
0000
0101
0000
1010
0000
1100
0011
0110
0000
0101
0000
1010
0000
,
2200
0000
3300
1100
1100
0000
0011
0000
0011
0000
0101
0000
0202
0000
0303
0000
,
2010
0001
3010
0000
2010
0001
3010
0000
1002
0100
1003
0000
1002
0100
1003
0000
,
0101
0000
0000
0000
0000
0000
0000
0000
0101
0000
0000
0000
0000
0000
0000
0000
1002
0000
0000
0000
0010
0000
0000
0000
0100
0000
0000
0000
0010
0000
0000
0003
1101
0000
0000
0000
0000
0000
0000
0000
1110
0000
0000
0000
0000
0000
0000
0000
1101
0000
0000
0000
0000
0000
0000
0000
1000
0000
0000
0000
0000
0000
0000
0000
,
0100
0000
0000
0000
0000
0000
1100
0000
0010
0000
0100
0000
0001
0000
0000
0000
0000
0000
1010
0000
0010
0000
0010
0000
0010
0000
0000
1000
0000
0000
0110
0000
0000
0001
0000
0000
0020
0000
0000
0000
0000
0000
0131
0000
0000
0000
0000
0000
,
1000
0000
0000
0000
0000
0000
0110
0000
0010
0000
0010
0000
0010
0000
0000
0000
0000
0000
0110
0000
0010
0000
0010
0000
0010
0000
0000
0100
0000
0000
1001
0000
0000
0100
0000
0000
0020
0000
0000
0000
0000
0000
1031
0000
0000
0000
0000
0000
,
0100
0000
0000
0000
0000
0000
1100
0000
0010
0000
0100
0000
0001
0000
0000
0000
0000
0000
1010
0000
0010
0000
0010
0000
0010
0000
0000
1000
0000
0000
0110
0000
0000
0001
0000
0000
0020
0000
0000
0000
0000
0000
1031
0000
0100
0000
0010
0000
,
1001
0000
0000
0010
0010
0010
0010
0000
0000
0111
0000
0000
1101
0000
0000
1011
0000
0000
1110
0000
0000
1000
0100
0010
,
1101
0000
0000
0000
0000
0000
1000
0000
0100
0000
0010
0000
1101
0000
0000
0000
0000
0000
1000
0000
0100
0000
0010
0000
1101
0000
0000
0000
0000
0000
0000
0000
0000
0000
0000
0000
1212
0000
0000
0000
0000
0000
0000
0000
0000
0303
0000
0000
,
0120
0001
1000
0000
0001
0000
0100
0000
0100
0001
1000
0000
0001
0000
0100
0000
,
0100
0000
0000
0000
0000
0000
0000
0000
0000
0000
0000
0000
0000
0000
0000
0000
0000
0000
0000
0000
0000
0000
0000
0000
2030
0000
0000
0000
0000
0000
0000
0000
0000
0000
0000
0000
0100
0000
0000
0000
0000
0000
0000
0000
0000
0000
0000
0000
3200
0000
0000
0000
0000
0000
0000
0000
0000
0000
0000
0000
0000
0000
0000
0000
0000
0000
0000
0000
0000
0000
0000
0000
0312
0000
0000
0000
0000
0000
0000
0000
0000
0000
0000
0000
0000
0000
0000
0000
0000
0000
0000
0000
0000
0000
0000
0000
0010
0000
0000
0000
0000
0000
0000
0000
0000
0000
0000
0000
0000
0000
0000
0000
0000
0000
0000
0000
0000
0000
0000
0000
1000
0000
0000
0000
0000
0000
0000
0000
0000
0000
0000
0000
0000
0000
0000
0000
0000
0000
0000
0000
0000
0000
0000
0000
1000
0000
0000
0000
0100
0000
0000
0000
1000
0000
0000
0000
0100
0000
0000
0000
0000
0000
1000
0000
0000
0000
0000
0000
0100
0000
0000
0000
0000
0000
0000
0000
0000
0000
0000
0000
0000
0000
0000
0000
0000
0000
0000
0000
0000
0000
0000
0000
,
0213
0001
1000
0000
0001
0000
0010
0000
0010
0001
1000
0000
0001
0000
0010
0000
,
0010
0000
0000
0000
0000
0000
0000
0000
0000
0000
0000
0000
0000
0000
0000
0000
0000
0000
0000
0000
0000
0000
0000
0000
2300
0000
0000
0000
0000
0000
0000
0000
0000
0000
0000
0000
0010
0000
0000
0000
0000
0000
0000
0000
0000
0000
0000
0000
3020
0000
0000
0000
0000
0000
0000
0000
0000
0000
0000
0000
0000
0000
0000
0000
0000
0000
0000
0000
0000
0000
0000
0000
1032
0000
0000
0000
0000
0000
0000
0000
0000
0000
0000
0000
0000
0000
0000
0000
0000
0000
0000
0000
0000
0000
0000
0000
0203
0000
0000
0000
0000
0000
0000
0000
0000
0000
0000
0000
0000
0000
0000
0000
0000
0000
0000
0000
0000
0000
0000
0000
0001
0000
0000
0000
0000
0000
0000
0000
0000
0000
0000
0000
0000
0000
0000
0000
0000
0000
0000
0000
0000
0000
0000
0000
0001
0000
0000
0000
0010
0000
0000
0000
0001
0000
0000
0000
0010
0000
0000
0000
0000
0000
0001
0000
0000
0000
0000
0000
0010
0000
0000
0000
0000
0000
0000
0000
0000
0000
0000
0000
0000
0000
0000
0000
0000
0000
0000
0000
0000
0300
0000
0000
,
0120
0001
1000
0000
0001
0000
0100
0000
0100
0001
1000
0000
0001
0000
0100
0000
,
0100
0000
0000
0000
0000
0000
0000
0000
0000
0000
0000
0000
0000
0000
0000
0000
0000
0000
0000
0000
0000
0000
0000
0000
2030
0000
0000
0000
0000
0000
0000
0000
0000
0000
0000
0000
0100
0000
0000
0000
0000
0000
0000
0000
0000
0000
0000
0000
3200
0000
0000
0000
0000
0000
0000
0000
0000
0000
0000
0000
0000
0000
0000
0000
0000
0000
0000
0000
0000
0000
0000
0000
0321
0000
0000
0000
0000
0000
0000
0000
0000
0000
0000
0000
0000
0000
0000
0000
0000
0000
0000
0000
0000
0000
0000
0000
0032
0000
0000
0000
0000
0000
0000
0000
0000
0000
0000
0000
0000
0000
0000
0000
0000
0000
0000
0000
0000
0000
0000
0000
0100
0000
0000
0000
0000
0000
0000
0000
0000
0000
0000
0000
0000
0000
0000
0000
0000
0000
0000
0000
0000
0000
0000
0000
0100
0000
0000
0000
1000
0000
0000
0000
0100
0000
0000
0000
1000
0000
0000
0000
0000
0000
0100
0000
0000
0000
0000
0000
1000
0000
0000
0000
0000
0000
0000
0000
0000
0000
0000
0000
0000
0000
0000
0000
0000
0000
0000
0000
0000
0000
0000
0000
,
2023
0000
3030
1010
1010
0000
0110
0000
0110
0110
0101
0000
0011
0011
1001
0000
,
1100
0000
0000
0000
0000
0000
0000
0000
0000
0000
0000
0000
0000
0000
0000
0000
0000
0000
0000
0000
0000
0000
0000
0000
0100
0000
0000
0000
0000
0000
1000
0000
0000
0000
0000
0000
0100
0000
0000
0000
0000
0000
0010
0000
0000
0000
0000
0000
0001
0000
0000
0000
0000
0000
0000
0000
0000
0000
0000
0000
0000
0000
0000
0000
0000
0000
0000
0000
0000
0000
0000
0000
1101
0000
0000
0000
0000
0000
0000
0000
0000
0000
0000
0000
0000
0000
0000
0000
0000
0000
0000
0000
0000
0000
0000
0000
2012
0000
0000
0000
0000
0000
0000
0000
0000
0000
0000
0000
0000
0000
0000
0000
0000
0000
0000
0000
0000
0000
0000
0000
0000
0000
0000
0000
0000
0000
0000
0000
0000
0000
0000
0000
3003
0000
0000
0000
0000
0000
0000
0000
0000
0000
0000
0000
1101
0000
0000
0000
0000
0000
0000
0000
0000
0000
0000
0000
0000
0000
0000
0000
0000
0000
0000
0000
0000
0000
0000
0000
0001
0000
0000
0000
0000
0000
0000
0000
0001
0000
0000
0000
0000
0000
0000
0000
0001
0000
0000
0000
0000
0000
0000
0000
,
0002
0000
0000
0100
0000
0000
0013
0000
0000
0001
0001
0001
0002
0000
0000
1000
0000
0000
0103
0000
0000
0001
0001
0001
,
0002
0003
0000
1001
0001
0001
0102
0003
0000
1002
0003
0000
0012
0000
0000
0000
0000
0000
0103
0000
0000
1001
0001
0001
,
1100
0000
0000
0110
0000
0000
0110
0000
0000
1001
0001
0001
1010
0000
0000
0101
0000
0000
0101
0000
0000
1001
0001
0001
,
1200
0000
0000
0000
0000
0000
0312
0000
0000
0000
0000
0000
1023
0000
0000
0000
0000
0000
0231
0000
0000
0000
0000
0000
1301
0000
0000
0010
0000
0000
0101
0000
0000
1000
0000
0000
0011
0000
0000
0000
0000
0000
1001
0000
0001
0000
0001
0000
,
1100
0000
0000
0110
0000
0000
0110
0000
0000
1001
0001
0001
1100
0000
0000
0011
0000
0000
0011
0000
0000
1010
0010
0010
,
1101
0000
0000
0000
0000
0000
0000
0000
0000
0000
0000
0000
0000
0000
0000
0000
0000
0000
0000
0000
0000
0000
0000
0000
0000
0000
0000
0000
0000
0000
0000
0000
0000
0000
0000
0000
0000
0000
0000
0000
0000
0000
0000
0000
0000
0000
0000
0000
1011
0000
0000
0000
0000
0000
0000
0000
0000
0000
0000
0000
0000
0000
0000
0000
0000
0000
0000
0000
0000
0000
0000
0000
0000
0000
0000
0000
0000
0000
0000
0000
0000
0000
0000
0000
0000
0000
0000
0000
0000
0000
0000
0000
0000
0000
0000
0000
1112
0000
0000
0000
0000
0000
0000
0000
0000
0000
0000
0000
0000
0000
0000
0000
0000
0000
0000
0000
0000
0000
0000
0000
1000
0000
0000
0000
0000
0000
0000
0000
0100
0000
0000
0000
0000
0000
0000
0000
0010
0000
0000
0000
0000
0003
0000
0000
0001
0000
0000
0000
0000
0000
0000
0000
0000
0000
0000
0000
0000
0000
0000
0000
0000
0000
0000
0000
0000
0000
0000
0000
1001
0000
0000
0000
0000
0000
0000
0000
0001
0000
0000
0000
0000
0000
0000
0000
0001
0000
0000
0000
0000
0000
0000
0000
,
1100
0000
0000
0001
0000
0000
0110
0000
0000
1000
0000
0000
0110
0000
0000
0000
0000
0000
1001
0000
0001
0000
0001
0000
1010
0000
0000
0100
0000
0000
0011
0000
0000
1000
0000
0000
0101
0000
0000
0000
0000
0000
1001
0000
0001
0000
0001
0000
,
1200
0000
0000
0010
0000
0000
1302
0000
0000
0100
0000
0000
1023
0000
0000
0001
0000
0000
1230
0000
0000
0000
0000
0000
1301
0000
0000
0010
0000
0000
0101
0000
0000
1001
0000
0000
0011
0000
0000
0000
0000
0000
1001
0000
0001
0000
0001
0000
,
1100
0000
0000
0001
0000
0000
0110
0000
0000
1000
0000
0000
0110
0000
0000
0000
0000
0000
1001
0000
0001
0000
0001
0000
1100
0000
0000
0001
0000
0000
1010
0000
0000
0100
0000
0000
0011
0000
0000
0000
0000
0000
0000
0000
0000
0000
0000
0000
,
1110
0000
0000
0000
0000
0000
0000
0000
1001
0100
0010
0001
0010
0100
1000
0100
,
0010
0001
0010
0100
1000
0100
0010
0001
0010
0100
1000
0100
0010
0001
0010
0100
,
1000
0000
0000
0000
0000
0000
2111
3000
0000
0000
0000
0000
1211
0300
0000
0000
0000
0000
1121
0030
0000
0000
0000
0000
,
0000
0000
0000
0000
0000
0000
1221
0330
0000
0000
0000
0000
0000
0000
0000
0000
0000
0000
2112
3003
0000
0000
0000
0000
;
