#TITLE:Attitude;
#SUBTITLE:;
#ARTIST:Y&Co.;
#TITLETRANSLIT:;
#SUBTITLETRANSLIT:;
#ARTISTTRANSLIT:;
#CREDIT:;
#BANNER:Cattitude-BN.png;
#BACKGROUND:Cattitude-BG.png;
#LYRICSPATH:;
#CDTITLE:!cattitle.png;
#MUSIC:Y&Co. - Attitude.mp3;
#OFFSET:1.140;
#SAMPLESTART:38.200;
#SAMPLELENGTH:12.000;
#SELECTABLE:YES;
#DISPLAYBPM:145.000;
#BPMS:0.000=145.000,192.000=36.250,198.000=145.000;
#STOPS:;
#BGCHANGES:;
// cache tags:
#FIRSTBEAT:5.250;
#LASTBEAT:274.000;
#SONGFILENAME:Songs/Fresh Flock of Fantastic Files F4/(cat) Attitude/Attitude.sm;
#HASMUSIC:1;
#HASBANNER:1;
#MUSICLENGTH:126.876;
// end cache tags

//---------------dance-single - cat*----------------
#NOTES:
     dance-single:
     cat*:
     Challenge:
     12:
     0.995,1.000,1.000,0.363,0.654,594.000,244.000,46.000,0.000,4.000:
0000
0000
0000
0000
,
0000
0000
0000
0000
0000
2000
0000
0000
0000
3000
0000
0000
0000
0000
0000
0000
,
1010
0000
0000
0010
0000
0000
0010
0000
0010
0000
0000
0010
0000
0000
0010
0000
,
0001
0100
0000
0010
0000
0000
0010
0000
0010
0000
0000
0010
0000
0000
0010
0000
,
0010
0000
0000
1000
0000
0000
0010
0000
0010
0000
0000
1000
0000
0000
0010
0000
,
0100
0001
0000
0010
0000
0000
0010
0000
0010
0000
0000
0010
0000
0000
0100
0000
,
0010
0000
0000
0010
0000
0000
0010
0000
0010
0000
0000
0010
0000
0000
0010
0000
,
0001
1000
0000
0100
0000
0000
0100
0000
0100
0000
0000
0100
0000
0000
0100
0000
,
0010
0000
0000
0010
0000
0000
0010
0000
0010
0000
0000
0010
0000
0000
0010
0000
,
0001
0100
0000
0001
0000
0000
0001
0000
0102
0000
0000
0100
0003
0000
0100
0000
,
0010
0000
0000
0010
0000
0000
0010
0000
0010
0000
0000
0010
0000
0000
0010
0000
,
0001
1000
0000
0100
0000
0000
0100
0000
0100
0000
0000
0100
0000
0000
0100
0000
,
0010
0000
0000
1000
0000
0000
0010
0000
0010
0000
0000
1000
0000
0000
0010
0000
,
0001
0100
0000
0001
0000
0000
0001
0000
0001
0000
0000
0001
0000
0000
0100
0000
,
0010
0000
0000
0010
0000
0000
0010
0000
0010
0000
0000
0010
0000
0000
0010
0000
,
0001
1000
0000
0100
0000
0000
0100
0000
0100
0000
0000
0100
0000
0000
1000
0000
,
0010
0000
0000
0010
0000
0000
0010
0000
0010
0000
0000
0010
0000
0000
0010
0000
,
0012
0100
0000
0010
0003
0000
0010
0000
0010
0000
0000
0010
0000
0000
0010
0000
,
1002
0100
0000
0010
0003
0000
0010
0000
0012
0000
0000
0010
0003
0000
0010
0000
,
0102
1000
0000
0010
0003
0000
0010
0000
0102
1000
0000
0010
0003
0000
0010
0000
,
0101
1000
0000
1000
0101
1000
0000
1000
0102
1000
0003
1000
0101
1000
0000
1000
,
0102
1003
0101
1000
0102
1003
0101
1000
0102
0003
0001
0000
0002
0003
0001
0000
,
0102
0000
0003
0000
0000
0000
0000
0000
0000
0000
0000
0000
0002
0000
0000
0003
,
1000
0000
0010
1000
0001
0000
0000
0010
0000
0012
0103
1000
0002
0003
0002
0003
,
1002
0000
0103
0010
1100
0000
0011
0000
1010
0000
0001
0010
1100
0000
0011
0000
,
1001
0010
0100
0010
1100
0000
0011
0000
1010
0000
0001
0100
1010
0000
0011
0000
,
1010
0000
0001
0010
1100
0000
0101
0000
1010
0000
0001
0010
1100
0000
0011
0000
,
1010
0001
0100
0001
1010
0000
0011
0000
1001
0000
0010
0001
1100
0000
0011
0000
,
1010
0000
0001
0010
1100
0000
0011
0000
1010
0000
0001
0010
1100
0000
0011
0000
,
1001
0010
0100
0010
1100
0000
0011
0000
1010
0000
0001
0010
1100
0000
0011
0000
,
1010
0000
0001
0010
1100
0000
0011
0000
1010
0000
0001
0010
1100
0000
0101
0000
,
1001
0100
0010
0001
1010
0000
0011
0000
1010
0000
0001
0100
1010
0000
0011
0000
,
0102
0000
0103
0010
1001
0000
0110
0000
0011
0000
0100
0010
1001
0000
0110
0000
,
0011
0100
1000
0010
1001
0000
0101
0000
0011
0000
0100
0010
1001
0000
0110
0000
,
0101
0000
1000
0010
1001
0000
0110
0000
0101
0000
0100
0010
1001
0000
0110
0000
,
0101
0010
1000
0010
1001
0000
1010
0000
0011
0000
0100
0010
1001
0000
0110
0000
,
0101
0000
0100
0010
1001
0000
0110
0000
0011
0000
0100
0010
1001
0000
0110
0000
,
0101
0010
1000
0010
1001
0000
1010
0000
0011
0000
0100
0010
1001
0000
0110
0000
,
0102
0000
1003
0100
1001
0000
0110
0000
0102
0000
0103
0010
1001
0000
0110
0000
,
0102
0010
1003
0100
1002
0000
0113
0000
0102
0000
1003
0100
1002
0000
0113
0000
,
1002
0013
1100
0010
1000
0101
1100
0010
,
1001
0010
1100
0010
1001
0010
1100
0110
,
1000
0010
1100
0010
1000
0011
1100
0110
,
1000
0010
1100
0010
1000
0110
1010
0011
,
1000
0010
1100
0010
1001
0010
1001
0011
,
1000
0010
1100
0010
1000
0101
1100
0110
,
1000
0010
1100
0010
1000
0110
1100
0011
,
1000
0010
1100
0010
1000
0011
1001
0110
,
0102
0000
0003
0000
0000
0001
0000
0000
0010
0000
0000
0000
0100
0000
0000
1000
0000
0000
0000
0000
0000
0001
0000
0100
0000
0000
0000
0000
0000
0010
1000
0001
,
0000
0000
0000
0000
0100
0000
0010
1000
0000
0000
0000
0001
0000
0010
0002
0100
1003
0000
0000
0000
0001
0000
0000
0000
0100
0000
0000
0000
0000
0000
0010
0000
,
0000
0100
1000
0000
0001
1000
0000
1000
0100
0000
0001
0100
0010
0000
0000
0001
,
0000
0010
0100
1000
0002
0003
0002
0003
0102
0000
1003
0010
0101
0000
1010
0000
,
0011
0000
0100
0010
0101
0000
0110
0000
1100
0010
0100
0010
1001
0000
0110
0000
,
1010
0000
0100
0010
1001
0000
0110
0000
0101
0000
0100
0010
0101
0000
1010
0000
,
0110
0000
0100
0010
0101
0000
1010
0000
0110
1000
0010
1000
0011
0000
1100
0000
,
1010
0000
0100
1000
0011
0000
0110
0000
1001
0000
0010
0100
0011
0000
1100
0000
,
0101
0000
0010
1000
0101
0000
0110
0000
1010
0001
0100
0001
1100
0000
0101
0000
,
1001
0000
0010
0001
1100
0000
0101
0000
0110
0000
0100
0010
0101
0000
1010
0000
,
0110
0000
0100
0010
0101
0000
1010
0000
0101
0010
1000
0010
1001
0000
0110
0000
,
0011
0000
0100
0010
1001
0000
0110
0000
1002
0000
0103
1000
0011
0000
1010
0000
,
1001
0000
0100
1000
0011
0000
0010
1000
0101
1000
0001
1000
0011
0000
1010
0000
,
1001
0000
0010
0100
0011
0000
1010
0000
0102
0000
0103
1000
0101
0000
0110
0000
,
1010
0000
0100
1000
0011
0000
0110
0000
0102
0010
1003
0010
0101
0000
0110
0000
,
0101
0000
0010
1000
0101
0000
0110
0000
1002
0000
0103
0010
1100
0000
0110
0000
,
1002
0000
0103
0010
1100
0000
0110
0000
1002
0010
0103
0010
1100
0000
0110
0000
,
1002
0000
0103
0010
1100
0000
0110
0000
1002
0000
0103
0010
1100
0000
0110
0000
,
1002
0000
0103
0010
1100
0000
0110
0000
1002
0010
0103
0010
1002
0000
0113
0000
,
1002
0000
0103
0010
1002
0000
0113
0000
2002
0000
0000
0000
0000
0000
0000
0000
,
0000
0000
3003
0000
;

//---------------dance-single - cat*----------------
#NOTES:
     dance-single:
     cat*:
     Hard:
     10:
     0.893,0.999,1.000,0.355,0.654,594.000,154.000,45.000,0.000,4.000:
0000
0000
0000
0000
,
0000
0000
0000
0000
0000
2000
0000
0000
0000
3000
0000
0000
0000
0000
0000
0000
,
1010
0000
0000
0010
0000
0000
0010
0000
0010
0000
0000
0010
0000
0000
0010
0000
,
0001
0100
0000
0010
0000
0000
0010
0000
0010
0000
0000
0010
0000
0000
0010
0000
,
0010
0000
0000
1000
0000
0000
0010
0000
0010
0000
0000
1000
0000
0000
0010
0000
,
0100
0001
0000
0010
0000
0000
0010
0000
0010
0000
0000
0010
0000
0000
0100
0000
,
0010
0000
0000
0010
0000
0000
0010
0000
0010
0000
0000
0010
0000
0000
0010
0000
,
0001
1000
0000
0100
0000
0000
0100
0000
0100
0000
0000
0100
0000
0000
0100
0000
,
0010
0000
0000
0010
0000
0000
0010
0000
0010
0000
0000
0010
0000
0000
0010
0000
,
0001
0100
0000
0001
0000
0000
0001
0000
0102
0000
0000
0100
0003
0000
0100
0000
,
0010
0000
0000
0010
0000
0000
0010
0000
0010
0000
0000
0010
0000
0000
0010
0000
,
0001
1000
0000
0100
0000
0000
0100
0000
0100
0000
0000
0100
0000
0000
0100
0000
,
0010
0000
0000
1000
0000
0000
0010
0000
0010
0000
0000
1000
0000
0000
0010
0000
,
0001
0100
0000
0001
0000
0000
0001
0000
0001
0000
0000
0001
0000
0000
0100
0000
,
0010
0000
0000
0010
0000
0000
0010
0000
0010
0000
0000
0010
0000
0000
0010
0000
,
0001
1000
0000
0100
0000
0000
0100
0000
0100
0000
0000
0100
0000
0000
1000
0000
,
0010
0000
0000
0010
0000
0000
0010
0000
0010
0000
0000
0010
0000
0000
0010
0000
,
0012
0100
0000
0010
0003
0000
0010
0000
0010
0000
0000
0010
0000
0000
0010
0000
,
1002
0100
0000
0010
0003
0000
0010
0000
0012
0000
0000
0010
0003
0000
0010
0000
,
0102
1000
0000
0010
0003
0000
0010
0000
0102
1000
0000
0010
0003
0000
0010
0000
,
0001
1000
0000
1000
0001
1000
0000
1000
0002
1000
0003
1000
0001
1000
0000
1000
,
0002
1003
0001
1000
0002
1003
0001
1000
0002
0003
0001
0000
0002
0003
0001
0000
,
0102
0000
0003
0000
0000
0000
0000
0000
0000
0000
0000
0000
0002
0000
0000
0003
,
1000
0000
0010
1000
0001
0000
0000
0010
0000
0002
0103
1000
0002
0003
0002
0003
,
1002
0000
0103
0010
1000
0000
0011
0000
1010
0000
0001
0010
0100
0000
0011
0000
,
0001
0100
0010
1000
0001
0000
0011
0000
1010
0000
0001
0100
0010
0000
0011
0000
,
1010
0000
0001
0010
0100
0000
0101
0000
1010
0000
0001
0010
0100
0000
0011
0000
,
0001
0010
0100
0010
0001
0000
0011
0000
1001
0000
0010
0001
0100
0000
0011
0000
,
1010
0000
0001
0010
0100
0000
0011
0000
1010
0000
0001
0010
0100
0000
0011
0000
,
1000
0010
0100
0001
1000
0000
0011
0000
1010
0000
0001
0010
0100
0000
0011
0000
,
1010
0000
0001
0010
0100
0000
0011
0000
1010
0000
0001
0010
0100
0000
0101
0000
,
1000
0100
0010
0001
1000
0000
0011
0000
1010
0000
0001
0100
0010
0000
0011
0000
,
0102
0000
0103
0010
0001
0000
0110
0000
0011
0000
0100
0010
0001
0000
0110
0000
,
0001
0100
0010
1000
0001
0000
0101
0000
0011
0000
0100
0010
0001
0000
0110
0000
,
0101
0000
0100
0010
0001
0000
0110
0000
0101
0000
0100
0010
0001
0000
0110
0000
,
0001
0010
1000
0010
0001
0000
1010
0000
0011
0000
0100
0010
0001
0000
0110
0000
,
0101
0000
0100
0010
0001
0000
0110
0000
0011
0000
0100
0010
0001
0000
0110
0000
,
0001
0010
1000
0010
0001
0000
1010
0000
0011
0000
0100
0010
0001
0000
0110
0000
,
0102
0000
1003
0100
1000
0000
0110
0000
0102
0000
1003
0100
1000
0000
0110
0000
,
0102
1000
0103
0010
0002
0000
0113
0000
0102
0000
0013
0100
0002
0000
0113
0000
,
1002
0013
1100
0010
1000
0101
1100
0010
,
1001
0010
1100
0010
1001
0010
1100
0110
,
1000
0010
1100
0010
1000
0011
1100
0110
,
1000
0010
1100
0010
1000
0110
1010
0011
,
1000
0010
1100
0010
1001
0010
1001
0011
,
1000
0010
1100
0010
1000
0101
1100
0110
,
1000
0010
1100
0010
1000
0110
1100
0011
,
1000
0010
1100
0010
1000
0011
1001
0110
,
0102
0000
0003
0000
0000
0001
0000
0000
0010
0000
0000
0000
0100
0000
0000
1000
0000
0000
0000
0000
0000
0001
0000
0100
0000
0000
0000
0000
0000
0010
1000
0001
,
0000
0000
0000
0000
0100
0000
0010
1000
0000
0000
0000
0001
0000
0010
0002
0100
1003
0000
0000
0000
0001
0000
0000
0000
0100
0000
0000
0000
0000
0000
0010
0000
,
0000
0100
1000
0000
0001
1000
0000
1000
0100
0000
0001
0100
0010
0000
0000
0001
,
0000
0010
0100
1000
0002
0003
0002
0003
0102
0000
1003
0010
0100
0000
1010
0000
,
0011
0000
0100
0010
0100
0000
0110
0000
0001
0010
0100
0010
0001
0000
0110
0000
,
1010
0000
0100
0010
0001
0000
0110
0000
0101
0000
0100
0010
0100
0000
1010
0000
,
0110
0000
0100
0010
0100
0000
1010
0000
1000
0100
0010
0100
1000
0000
1100
0000
,
1010
0000
0100
1000
0010
0000
0110
0000
1001
0000
0010
0100
0010
0000
1100
0000
,
0101
0000
0010
1000
0100
0000
0110
0000
1000
0100
0001
0100
1000
0000
0101
0000
,
1001
0000
0010
0001
0100
0000
0101
0000
0110
0000
0100
0010
0100
0000
1010
0000
,
0110
0000
0100
0010
0100
0000
1010
0000
0001
0010
1000
0010
0001
0000
0110
0000
,
0011
0000
0100
0010
0001
0000
0110
0000
1002
0000
0103
1000
0010
0000
1010
0000
,
1001
0000
0100
1000
0010
0000
0001
0100
0010
1000
0100
0010
0001
0000
1010
0000
,
1001
0000
0010
0100
0010
0000
1010
0000
0102
0000
0103
1000
0100
0000
0110
0000
,
1010
0000
0100
1000
0010
0000
0110
0000
0002
0010
1003
0010
0001
0000
0110
0000
,
0101
0000
0010
1000
0100
0000
0110
0000
1002
0000
0103
0010
0100
0000
0110
0000
,
1002
0000
0103
0010
0100
0000
0110
0000
0002
0100
0013
1000
0001
0000
0110
0000
,
1002
0000
0103
0010
0100
0000
0110
0000
1002
0000
0103
0010
0100
0000
0110
0000
,
1002
0000
0103
0010
0100
0000
0110
0000
0002
0100
0013
1000
0002
0000
0113
0000
,
1002
0000
0103
0010
0002
0000
0113
0000
2000
0000
0000
0000
0000
0000
0000
0000
,
0000
0000
3000
0000
;
