#TITLE:Lovely Lovely Lovely;
#SUBTITLE:;
#ARTIST:Thanatos;
#TITLETRANSLIT:;
#SUBTITLETRANSLIT:;
#ARTISTTRANSLIT:;
#CREDIT:;
#BANNER:LovelyLovelyLovely-bn.png;
#BACKGROUND:LovelyLovelyLovely-bg.png;
#LYRICSPATH:;
#CDTITLE:!joeCDtitle.png;
#MUSIC:Thanatos - Lovely Lovely Lovely.mp3;
#OFFSET:0.000;
#SAMPLESTART:20.635;
#SAMPLELENGTH:20.139;
#SELECTABLE:YES;
#BPMS:0.000=192.000;
#STOPS:;
#BGCHANGES:;
// cache tags:
#FIRSTBEAT:1.500;
#LASTBEAT:294.500;
#SONGFILENAME:Songs/Keyboard Collaboration II/-joe- - Lovely Lovely Lovely/LovelyLovelyLovely.sm;
#HASMUSIC:1;
#HASBANNER:1;
#MUSICLENGTH:95.720;
// end cache tags

//---------------dance-single - ----------------
#NOTES:
     dance-single:
     :
     Hard:
     11:
     1.000,1.000,1.000,0.010,0.512,493.000,187.000,1.000,0.000,0.000:  // measure 1
0000
0000
0000
1000
0011
0000
0011
0000
,  // measure 2
0011
0011
1001
1001
,  // measure 3
1001
1001
1010
1010
,  // measure 4
1010
1010
0110
0110
,  // measure 5
0110
0000
0110
0001
1100
0000
1100
0000
,  // measure 6
1100
1100
0101
0101
,  // measure 7
0101
0000
0001
0000
1000
0010
1000
0001
1000
0001
0100
0010
0100
0001
0010
0001
,  // measure 8
1000
0010
0100
0001
1000
0001
1000
0010
0100
0001
0010
0001
0100
0010
1000
0010
,  // measure 9
1000
0100
1000
0010
0100
0001
0010
0100
1001
0000
0000
0001
0000
0000
1001
0000
,  // measure 10
0000
1000
0000
0000
1001
0000
1000
0000
0101
0000
0000
0001
0000
0000
0101
0000
,  // measure 11
0000
0100
0000
0000
0101
0000
0001
0000
1100
0000
0000
1000
0000
0000
1100
0000
,  // measure 12
0000
0100
0000
0000
1100
0000
0100
0000
0110
0000
0000
0100
0000
0000
0110
0000
,  // measure 13
0000
0010
0000
0000
0110
0000
0010
0000
1010
0000
0000
0100
0000
0000
1010
0000
,  // measure 14
0000
1000
0000
0000
1010
0000
1000
0000
0101
0000
0000
0100
0000
0000
0101
0000
,  // measure 15
0000
0001
0000
0000
0101
0000
0001
0000
1010
0000
0000
0010
0000
0000
1010
0000
,  // measure 16
0000
1000
0000
0000
1010
0000
1001
0000
0101
0000
0000
0001
0000
0000
0101
0000
,  // measure 17
0000
0100
0000
0000
1010
0000
1000
0000
0011
0000
0000
0001
0000
0000
0011
0000
,  // measure 18
0000
0010
0000
0000
0011
0000
0010
0000
0110
0000
0000
0010
0000
0000
0110
0000
,  // measure 19
0000
0100
0000
0000
0110
0000
0100
0000
0101
0000
0000
0100
0000
0000
0101
0000
,  // measure 20
0000
0001
0000
0000
0101
0000
0001
0000
1010
0000
0000
0010
0000
0000
1010
0000
,  // measure 21
0000
1000
0000
0000
1010
0000
1000
0000
0101
0000
0000
0001
0000
0000
0101
0000
,  // measure 22
0000
0100
0000
0000
1001
0000
0010
0000
1001
0000
0000
0010
0000
0000
0110
0000
,  // measure 23
0000
1000
0000
0000
0001
0000
1000
0000
1010
0000
1100
0000
1000
0000
0001
0000
,  // measure 24
0000
1000
0001
1000
0101
0011
0001
1000
,  // measure 25
0000
0001
1000
0001
1100
1000
0110
0001
,  // measure 26
0000
0001
0101
0010
1010
1000
0011
0100
,  // measure 27
0000
0001
1100
0001
0110
1000
1010
0001
,  // measure 28
0000
1000
1010
0100
0101
0010
0011
0001
,  // measure 29
0000
0100
0110
0010
1010
0100
0101
0001
,  // measure 30
0000
0010
0101
1000
1001
0010
1001
1000
,  // measure 31
0000
0001
0011
0001
1100
0001
0101
0001
,  // measure 32
0000
1000
1100
0100
1010
0100
1010
0010
,  // measure 33
0000
1000
0011
1000
0110
0001
0101
1000
,  // measure 34
0000
0001
0101
0010
1010
0100
1100
1000
,  // measure 35
0000
0010
0110
0100
0101
0010
1010
1000
,  // measure 36
0000
0100
1010
0001
1001
0100
1001
0100
,  // measure 37
0000
1000
1100
1000
0011
1000
1010
1000
,  // measure 38
0000
0001
0011
0010
0101
0010
1001
1000
,  // measure 39
0000
0100
1010
0100
1001
0010
0011
0100
,  // measure 40
0000
0000
0010
0000
0011
0000
1000
0000
1100
0000
1000
0000
0001
0100
0010
1000
,  // measure 41
0001
0010
0100
1000
0001
1000
0100
0010
1001
0000
0000
1000
0000
0000
1001
0000
,  // measure 42
0000
0001
0000
0000
0000
0000
1001
0000
1010
0000
0000
0010
0000
0000
1010
0000
,  // measure 43
0000
1000
0000
0000
0000
0000
0110
0000
1010
0000
0000
1000
0000
0000
1010
0000
,  // measure 44
0000
0010
0000
0000
0000
0000
1010
0000
0101
0000
0000
0001
0000
0000
0101
0000
,  // measure 45
0000
0100
0000
0000
0000
0000
0101
0000
0110
0000
0000
0010
0000
0000
0110
0000
,  // measure 46
0000
0100
0000
0000
0000
0000
0110
0000
1001
0000
0000
1000
0000
0000
1001
0000
,  // measure 47
0000
0001
0000
0000
0000
0000
0011
0000
0101
0000
0000
0100
0000
0000
0101
0000
,  // measure 48
0000
0001
0000
0000
0000
0000
1010
0000
0101
0000
0000
0001
0000
0000
0101
0000
,  // measure 49
0000
0100
0000
0000
0000
0000
1001
0000
0101
0000
0000
0100
0000
0000
0101
0000
,  // measure 50
0000
0001
0000
0000
0000
0000
0101
0000
1010
0000
0000
1000
0000
0000
1010
0000
,  // measure 51
0000
0010
0000
0000
0000
0000
1010
0000
0110
0000
0000
0100
0000
0000
0110
0000
,  // measure 52
0000
0010
0000
0000
0000
0000
0110
0000
1001
0000
0000
0001
0000
0000
1001
0000
,  // measure 53
0000
1000
0000
0000
0000
0000
1100
0000
1010
0000
0000
0010
0000
0000
1010
0000
,  // measure 54
0000
1000
0000
0000
0000
0000
0101
0000
0110
0000
0000
0010
0000
0000
0110
0000
,  // measure 55
0000
0100
0000
0000
0000
0000
0011
0000
1001
0000
0000
1000
0000
0000
1001
0000
,  // measure 56
0000
0001
0010
0100
1001
0100
0010
0001
,  // measure 57
0000
1000
1001
1000
0001
0001
0101
0100
,  // measure 58
0000
0000
0100
0000
1000
0000
0010
0000
1000
0001
0100
0010
1000
0001
0100
0010
,  // measure 59
1000
0000
0000
0001
0000
0000
0100
0000
0010
0000
1000
0000
0001
0000
0100
0000
0010
0000
0000
0000
0000
0000
0000
0000
1000
0000
0000
0000
0000
0000
1000
0000
0000
0000
0000
0000
0100
0000
0000
0000
0000
0000
0010
0000
0000
0000
0000
0000
,  // measure 60
0000
0001
1000
0001
0110
1000
1001
1000
,  // measure 61
0000
0010
1000
0010
1010
0100
0101
1000
,  // measure 62
0000
0001
0010
0001
0101
1000
1010
0100
,  // measure 63
0000
0001
1000
0001
1010
1000
0101
0100
,  // measure 64
0000
0010
0100
0010
1001
0100
0110
0100
,  // measure 65
0000
0010
0100
0010
0110
1000
1001
0100
,  // measure 66
0000
0001
0010
0001
0101
0100
1010
0001
,  // measure 67
0000
0100
0001
0100
1010
0010
0101
0001
,  // measure 68
0000
1000
0100
1000
1001
0001
0110
0010
,  // measure 69
0000
1000
0001
1000
0101
0001
1001
0010
,  // measure 70
0000
0100
0010
0100
1010
0010
0101
0010
,  // measure 71
0000
0100
0010
0100
0011
1000
1100
0001
,  // measure 72
0000
0000
0001
0000
1001
0000
1000
0000
0001
0010
0100
1000
0001
0010
0100
1000
,  // measure 73
0100
0010
0001
0010
0100
1000
0100
0010
0002
0000
0000
0000
0000
0000
0000
0000
,  // measure 74
0000
0000
0000
0000
0000
0003
0000
0000
;
