#TITLE:I Need You On The Floor;
#SUBTITLE:(Repetitive Edit);
#ARTIST:Scooter (Edited By Oasis);
#TITLETRANSLIT:;
#SUBTITLETRANSLIT:;
#ARTISTTRANSLIT:;
#CREDIT:;
#BANNER:I Need You On The Floor (Repetitive Edit)-banner.PNG;
#BACKGROUND:I Need You On The Floor (Repetitive Edit)-bg.PNG;
#LYRICSPATH:;
#CDTITLE:;
#MUSIC:I Need You On The Floor (Repetitive Edit).mp3;
#OFFSET:0.000;
#SAMPLESTART:43.050;
#SAMPLELENGTH:12.000;
#SELECTABLE:YES;
#BPMS:0.000=139.300,64.000=139.500,144.000=139.400;
#STOPS:;
#BGCHANGES:;
// cache tags:
#FIRSTBEAT:15.000;
#LASTBEAT:192.000;
#SONGFILENAME:Songs/other/I Need You On The Floor (Repetitive Edit)/I Need You On The Floor (Repetitive Edit).sm;
#HASMUSIC:1;
#HASBANNER:1;
#MUSICLENGTH:86.359;
// end cache tags

//---------------dance-single - ----------------
#NOTES:
     dance-single:
     :
     Easy:
     4:
     0.357,0.723,0.301,0.787,0.000,122.000,26.000,68.000,0.000,0.000:
0000
0000
0000
0000
,
0000
0000
0000
0000
,
0000
0000
0000
0000
,
0000
0000
0000
0000
,
0000
0000
0000
2000
,
3000
0002
0003
2000
,
3000
0002
0003
0000
,
0000
0000
2002
3003
,
0000
0000
0000
0200
,
0300
0020
0030
0200
,
0300
0020
0030
0000
,
0000
0000
0000
0220
,
0330
0000
0000
2000
,
3000
0002
0003
0200
,
0300
0020
0030
0000
,
2002
3003
0220
0330
,
1000
1000
1000
0000
,
0001
0001
0001
0000
,
0100
0100
0100
0000
,
0010
0010
0010
0000
,
2000
3001
0002
1003
,
2000
3001
0002
1003
,
2000
0001
3001
1001
,
0002
1000
1003
1001
,
0200
0310
0020
0130
,
0200
0310
0020
0130
,
0200
0010
0310
0110
,
0020
0100
0130
0110
,
1000
0100
0010
0001
,
0001
0010
0100
1000
,
1000
0001
0100
0010
,
0001
1000
0010
0100
,
2000
3100
0002
0103
,
2000
3010
0002
0013
,
0200
1300
0020
1030
,
0200
0301
0020
0031
,
2200
3300
1100
0000
0202
0303
0101
0000
,
0022
0033
0011
0000
2020
3030
1010
0000
,
2002
3003
1001
0000
0220
0330
0110
0000
,
2002
3003
0220
0330
0000
0000
2000
0002
,
0000
0000
0000
0000
3003
0000
0200
0020
,
0000
0330
0002
2000
0000
3003
0020
0200
,
0000
0000
0330
0000
,
1001
0110
1001
0110
,
2000
0000
0000
0000
,
3002
0000
0000
0000
,
0203
0000
0000
0000
,
0320
0000
0000
0000
,
0030
0000
0000
0000
;

//---------------dance-single - ----------------
#NOTES:
     dance-single:
     :
     Medium:
     5:
     0.450,0.500,0.208,0.556,0.000,206.000,18.000,48.000,0.000,0.000:
0000
0000
0000
0000
,
0000
0000
0000
0000
,
0000
0000
0000
0000
,
0000
0000
0000
0000
0000
0000
2000
0002
,
0000
0000
0000
0000
3000
0003
0200
0020
,
0300
0030
0002
2000
0003
3000
0020
0200
,
0000
0000
0000
0030
0300
0000
0000
0000
,
1000
0001
0100
0010
0001
1000
0010
0200
,
0002
0000
0000
0000
0300
0003
0020
2000
,
0030
3000
0200
2000
0300
3000
0020
0002
,
0000
0000
0000
0030
0003
0000
0000
0000
,
0001
1000
0010
0100
1000
0001
0100
0020
,
2000
0000
0000
0000
0030
3000
0200
0002
,
0300
0003
0020
0002
0030
0003
0200
2000
,
0000
0000
0000
0300
3000
0000
0000
0000
,
1000
0001
2002
3003
0100
0010
0220
0330
,
1000
0100
1000
0000
0001
0100
0001
0000
,
1000
0010
1000
0000
0001
0010
0001
0000
,
0100
1000
0100
0000
0010
0001
0010
0000
,
0100
0001
0100
0000
0010
1000
0010
0000
,
2000
0100
0010
3001
,
0002
0010
0100
1003
,
0200
0001
1000
0310
,
0020
1000
0001
0130
,
1000
0100
0010
0000
0001
0010
0100
0000
,
1000
0100
0010
0000
0001
0010
0100
0000
,
0010
0100
1000
0000
0100
0010
0001
0000
,
0010
0100
1000
0000
0100
0010
0001
0000
,
1000
0100
1000
0010
1000
0100
1000
0000
,
0001
0010
0001
0100
0001
0010
0001
0000
,
1000
0001
0100
0010
1000
0001
0100
0010
,
0001
1000
0010
0100
0001
1000
0010
0100
,
1000
0100
0010
0001
1000
0100
0020
0002
,
0030
0003
0010
0100
1000
0001
0010
0100
,
1000
0001
0010
0200
2000
0000
0000
0000
,
0000
0000
0000
0000
0000
0300
3000
0000
,
1000
0100
1100
0000
0001
0100
0101
0000
,
1000
0010
1010
0000
0001
0010
0011
0000
,
0100
1000
1100
0000
0010
0001
0011
0000
,
0100
0001
0101
0000
0010
1000
2020
3030
,
0000
0101
0000
1001
0000
1100
0000
1001
,
0000
1010
0000
0110
0000
0011
0000
0210
,
0001
0000
1000
0000
0001
0000
1000
0320
,
0001
0000
1000
0000
0001
0000
1000
0030
,
0200
0000
0302
0000
,
2003
0000
3020
0000
,
0230
0000
0302
0000
,
2003
0000
3020
0000
,
0030
0000
0000
0000
;

//---------------dance-single - ----------------
#NOTES:
     dance-single:
     :
     Hard:
     10:
     0.730,0.917,0.544,0.486,0.440,348.000,47.000,42.000,23.000,20.000:
0000
0000
0000
0000
,
0000
0000
0000
0000
,
0000
0000
0000
0000
,
0000
0000
0000
0000
,
1000
0000
0100
0000
0010
0000
0001
0010
0000
0010
0200
0000
0000
0000
1300
0000
,
0001
0000
0010
0000
0100
0000
1000
0100
0000
0100
0020
0000
0002
0000
0033
0000
,
1000
0000
0001
0000
0100
0000
0010
1000
0000
2000
0002
0000
0000
0000
3003
0000
,
0001
0000
1000
0000
0010
0000
0100
0001
0000
0002
2000
0000
0000
0000
3003
0000
,
1000
0100
1000
0001
1000
0010
1000
1001
,
0001
0010
0001
1000
0001
0100
0001
1001
,
0100
1000
0100
0010
0100
0001
0100
0110
,
0010
0001
0010
0100
0010
1000
0010
0110
,
1000
0100
0010
0001
0001
0010
0100
1000
,
1000
0100
0010
0001
0001
0010
0100
1000
,
0001
0100
0010
1000
0001
0100
0010
0001
,
1000
0010
0100
0001
1000
0020
0200
0330
,
1000
0100
0000
0000
0010
0100
0000
0000
0001
0100
0000
0000
0010
1000
0000
0000
,
0100
1000
0000
0000
0001
1000
0000
0000
0100
0010
0000
0000
1000
0010
0000
0000
,
0001
0010
0000
0000
1000
0001
0000
0000
0100
0001
0000
0000
0010
0001
0000
0000
,
1100
0010
0101
1000
0011
0100
2020
0202
,
3333
MMMM
0000
2000
0000
0200
0000
3002
,
M000
0320
0M00
2003
000M
0230
00M0
3020
,
M000
0302
0M00
0230
00M0
2003
000M
0320
,
0M00
3000
M000
0030
00M0
0000
0000
0000
,
1000
0100
0010
0000
0110
0000
0010
0001
0010
0100
1000
0000
1100
0000
1000
0100
,
0010
0001
0010
0000
0022
0000
0000
0000
0000
0000
0000
0000
1133
0000
0000
0000
,
0001
0010
0100
0000
0110
0000
0100
1000
0100
0010
0001
0000
0011
0000
0001
0010
,
0100
1000
0100
0000
2200
0000
0000
0000
0000
0000
0000
0000
3311
0000
0000
0000
,
1000
0000
0100
0000
1000
0000
0010
1000
0000
0100
1000
0000
0010
0000
1000
0000
,
0001
0000
0100
0000
0001
0000
0010
0001
0000
0100
0001
0000
0010
0000
0001
0000
,
0100
0000
1000
0000
0100
0000
0001
0100
0000
1000
0100
0000
0001
0000
0100
0000
,
0010
0000
1000
0000
0010
0000
0001
0010
0000
1000
0010
0000
0001
0000
0010
0000
,
1000
0000
0100
0000
0001
0000
0010
1000
0000
0100
0001
0000
0010
0000
1000
0000
,
0001
0000
0100
0000
1000
0000
0010
0001
0000
0100
1000
0000
0010
0000
0001
0000
,
0100
0000
1000
0000
0010
0000
0001
0100
0000
1000
0010
0000
0001
0000
0100
0000
,
0010
0000
1000
0000
0100
0000
0001
0010
0000
1000
0100
0000
0001
0000
0010
0000
,
1100
0010
0101
1000
0011
0100
1010
0001
,
1100
0010
1001
0100
0011
1000
0101
0010
,
1100
0001
0110
1000
0011
0100
1010
0001
,
1100
0010
0101
1000
0110
0001
1100
0010
,
2002
3113
0220
1331
,
2200
3311
0202
1313
,
0022
1133
2020
3131
,
MMMM
1111
MMMM
1111
,
1000
0001
1000
0001
0100
0010
0100
0010
1000
0010
1000
0010
1000
0100
1000
0100
,
0010
0100
0010
0100
0010
1000
0010
1000
0100
1000
0100
1000
0100
0010
0100
0010
,
1000
0010
1000
0010
1000
0001
1000
0001
0010
0001
0010
0001
0010
0100
0010
0100
,
0001
0100
0001
0100
0001
0010
0001
0010
0100
0010
0200
0020
0000
0000
0000
0000
,
0330
0000
0000
0000
;
