#TITLE:Sidology Episode 3;
#SUBTITLE:Keyboard ONLY!;
#ARTIST:Machinae Supremacy;
#TITLETRANSLIT:;
#SUBTITLETRANSLIT:;
#ARTISTTRANSLIT:;
#CREDIT:This DWI is made by ObliVioN;
#BANNER:apex.jpg;
#BACKGROUND:apex-bg.jpg;
#LYRICSPATH:;
#CDTITLE:;
#MUSIC:apex.mp3;
#OFFSET:-1.429;
#SAMPLESTART:36.697;
#SAMPLELENGTH:12.000;
#SELECTABLE:YES;
#BPMS:0.000=170.030;
#STOPS:;
#BGCHANGES:;
// cache tags:
#FIRSTBEAT:0.000;
#LASTBEAT:285.000;
#SONGFILENAME:Songs/IzzySM Keyboard Mega Pack/Sidology_Episode_3/steps.sm;
#HASMUSIC:1;
#HASBANNER:1;
#MUSICLENGTH:105.064;
// end cache tags

//---------------dance-single - TGB Maniac!----------------
#NOTES:
     dance-single:
     TGB Maniac!:
     Hard:
     11:
     1.000,1.000,1.000,0.495,0.609,585.000,127.000,52.000,0.000,2.000:
1001
1000
0000
0000
0000
0000
0000
0001
,
1000
0010
0000
0000
0000
1000
0000
1100
,
1100
0000
0000
0000
,
1010
0000
0011
0000
,
1001
0110
0000
0001
0000
0001
0000
1100
,
0000
1000
0000
0100
0000
0220
0000
0330
,
1001
0000
0000
0001
0100
0000
0000
0000
,
0011
0000
0001
0000
1000
0001
0100
0000
,
0011
0100
1000
0001
0010
0100
0010
1100
,
1001
0010
1000
0100
0011
1000
0100
1000
,
0011
0110
1100
0001
0010
0100
0010
2000
,
0010
0100
3010
0010
1000
0001
0100
1000
,
0002
0000
0010
0000
1000
0000
0100
0000
1003
0000
0010
0000
0100
1000
0100
0010
,
0001
0010
0100
1000
1000
0000
0000
0000
0010
0000
0100
0000
0010
0000
0000
0000
,
0101
0011
1001
1100
0110
1010
1100
1001
,
0110
1000
0001
1000
0001
1000
0001
1000
0001
0000
0001
0000
0100
0000
0000
0000
,
0110
0001
0100
1000
0001
0100
1000
0001
0100
1000
0001
0100
1000
0000
0000
0000
,
0001
0100
1000
0001
0100
1000
0001
0100
1000
0000
1000
0000
0100
0000
0000
0000
,
0100
0001
1000
0100
0001
1000
0100
0001
1000
0000
0100
0000
0100
0000
0000
0000
,
1010
1001
0110
0101
0011
1100
0110
0000
,
0110
1000
0100
0010
0001
1000
0100
0010
0001
1000
0100
0010
0001
0000
0000
0000
,
0001
0010
0100
1000
0001
0010
0100
1000
0001
0010
0100
1000
0001
0010
0100
1000
,
0011
0000
1000
0000
0010
0100
0010
0000
,
0001
0100
0010
0000
0100
0000
0100
0000
,
1002
0000
0010
0000
0100
0000
0010
0000
0100
0000
0100
0000
0010
0000
0000
0100
,
1003
0010
0100
0010
1000
0010
0100
0010
0100
1000
0000
0000
0100
0000
0000
0000
,
2001
0100
0001
0010
0100
0001
0100
0010
,
3100
0001
0100
0010
1000
0001
1000
0100
1000
0001
0100
0000
0000
0100
0000
0000
,
0011
0000
1000
0000
0010
0100
0010
0000
,
1100
0011
1100
0011
0110
0101
1010
0000
,
1010
0000
0001
0000
0010
0100
0010
1001
,
1000
0001
1000
0001
1000
0001
1000
0001
0010
0000
0100
0000
0010
0000
0000
0000
,
0200
0320
2030
3020
0230
0302
2003
3020
,
0032
2003
3020
0230
2300
3020
0230
0300
,
0002
2003
3200
0320
2030
3002
0203
0320
0230
0320
2030
3002
0023
2030
3002
0003
,
0202
0303
2200
3300
0220
0330
2002
3003
,
0110
1000
0001
0100
0010
1000
0001
0100
0010
0001
1000
0100
0010
1000
0010
0001
,
1000
0010
0100
0001
0100
0001
1000
0100
0010
0100
1000
0100
0001
0000
0000
0000
,
2002
0000
0000
3223
0000
0000
2332
0000
,
3003
0000
1000
0001
1000
0000
0100
0000
0000
0000
1000
0000
1000
0000
0000
0000
,
0000
1000
0001
0001
0100
0000
0010
1100
,
1010
0000
0000
0000
0001
0010
0001
0010
0001
0010
0001
0010
0001
0010
0001
0010
,
0001
0010
1000
0100
1000
0100
1000
0100
1000
0100
1000
0100
1000
0100
1000
0010
,
0100
0010
0100
0010
0100
0010
0100
0010
0100
0010
0100
0010
0100
0010
0100
0010
,
1000
0001
1000
0001
1000
0001
1000
0001
0100
1000
0100
1000
0010
0001
0010
0001
,
0110
1001
1100
0011
0110
0101
1010
0011
,
1100
0101
1001
1010
0011
0110
1001
0011
,
1100
0000
0000
0000
0001
1000
0001
0000
0000
0000
0001
1000
0001
0000
0000
0000
,
0011
0000
0000
0000
0001
1000
0001
1000
0001
1000
0001
1000
0100
0000
0000
0000
,
0011
0000
0000
0000
1000
0000
0100
0000
0010
0000
0000
0100
0010
0000
0001
0000
,
1010
0000
0001
0000
0001
0000
0100
0000
0001
0100
0000
0000
0100
0000
0000
0000
,
1010
0000
0001
0010
1001
0000
0001
0000
0010
0000
1000
0000
0011
0000
0010
1100
,
1100
0000
0001
0000
0001
0000
0001
0000
1000
1000
0000
0000
0100
0000
0100
0000
,
0011
0000
0110
0000
1100
0000
1001
0000
0010
0001
0100
0000
0010
0001
1000
0000
,
0100
0001
1000
0000
0001
0100
0001
0000
1000
0010
0100
0000
2002
0000
0000
0000
,
3003
0000
0001
0100
1000
0000
0010
0000
0001
0000
1000
0100
0010
0000
1001
0000
,
0101
0000
0000
0000
0001
0000
0000
0000
1000
0000
0000
0010
0010
0000
0000
0000
,
1001
1000
0010
0001
0100
0100
0100
0100
,
0001
0010
1000
0100
0100
0100
0100
0100
,
1001
1010
0011
0110
0110
0110
0110
0110
,
1001
0011
1100
0110
0110
0110
0110
0110
,
1010
1010
0011
1100
0000
0011
0000
0110
,
1100
0011
1000
0000
0010
0000
0010
0000
,
0011
0000
1000
0000
0110
1001
0000
0001
,
0010
0100
1001
0000
1000
0001
1000
1001
,
1010
0000
0000
0000
0001
0000
0100
1000
0100
0000
0001
0000
0001
0000
0001
0000
,
1010
0000
0000
0000
1000
0000
1000
0010
0100
0000
0001
0000
0001
0000
0001
0000
,
0011
0000
0000
0000
1000
0000
0001
0100
0010
0000
0100
0000
0010
0000
1000
0000
,
1100
0000
0000
0000
0001
0000
1000
0010
0100
0000
1000
0000
1000
0000
1000
0000
,
1010
0000
0001
0100
0001
0010
0010
1000
,
1010
0000
0000
0000
1000
0000
0010
1000
0010
0000
0001
0000
0000
0000
1000
0000
,
1000
1000
0000
0000
;
