#TITLE:Maze the Mega Burst Space;
#SUBTITLE:- Junk Boy;
#ARTIST:Kaoro II Luv;
#TITLETRANSLIT:;
#SUBTITLETRANSLIT:;
#ARTISTTRANSLIT:;
#CREDIT:;
#BANNER:junkboy.png;
#BACKGROUND:junkboy-bg.png;
#LYRICSPATH:;
#CDTITLE:;
#MUSIC:JunkBoy.mp3;
#OFFSET:0.860;
#SAMPLESTART:41.631;
#SAMPLELENGTH:12.000;
#SELECTABLE:YES;
#BPMS:0.000=131.500;
#STOPS:90.000=0.200
;
#BGCHANGES:;
// cache tags:
#FIRSTBEAT:11.000;
#LASTBEAT:249.500;
#SONGFILENAME:Songs/Anime Songs/JunkBoy/junkboy.sm;
#HASMUSIC:1;
#HASBANNER:1;
#MUSICLENGTH:115.005;
// end cache tags

//---------------dance-single - BASIC----------------
#NOTES:
     dance-single:
     BASIC:
     Easy:
     3:
     0.265,0.244,0.104,0.087,0.017,191.000,12.000,10.000,0.000,0.000:

0000
0000
0000
0000
,
0000
0000
0000
0000
,
0000
0000
0000
0010
,
0010
1000
1000
0100
,
0100
0001
0001
0100
,
0100
1000
1000
0001
,
1000
0000
0000
0002
0000
0003
0100
0000
,
1000
0100
0010
1000
,
0100
0110
0000
0001
,
0001
0001
0100
0100
,
0000
0000
1001
0001
,
1000
0100
0010
0001
,
1000
0001
0000
0010
,
1000
0100
0100
0010
,
0001
0100
0000
0100
,
0001
1000
0010
0010
,
0010
0010
0000
1100
,
0000
0110
0000
0101
,
0001
0010
1000
0010
,
0010
1000
1000
0100
,
0100
0001
0000
0020
,
0000
0000
0030
0001
,
0001
0000
1001
0000
0000
0010
0000
0010
,
0000
1000
0000
0001
0000
0010
0000
0010
,
0000
0001
0000
1000
0000
0010
0000
1000
,
0000
0020
0000
0030
0000
0010
0000
0001
,
0000
1000
0000
1001
0000
0100
0000
0100
,
0000
0001
0000
1000
0000
0100
0000
0100
,
0000
1000
0000
0001
0000
0010
0000
0010
,
0000
0100
0000
0100
0000
0001
0000
1000
,
0000
0001
0000
1001
0000
0001
0000
0001
,
0000
0010
0000
0100
0000
1000
0000
1000
,
0000
0100
0000
0010
0000
0020
0000
0000
,
0000
0000
0030
0000
0020
0000
0030
0001
,
0000
1000
0000
0110
0000
0001
0000
0010
,
0000
0100
0000
0001
0000
1000
0000
0010
,
0000
0100
0000
1000
0000
0010
0000
0100
,
0000
0100
0000
1000
0000
0001
0000
1000
,
0000
1001
0000
0000
0000
0100
0000
0010
,
0000
1000
0000
0001
0000
0010
0000
0100
,
0000
0001
0000
1000
0000
0100
0000
0100
,
0000
0100
0000
0000
0000
0010
0000
0100
,
0000
0001
0000
1000
0000
1000
0000
1000
,
0000
0100
0000
1000
0000
0001
0000
0001
,
0000
0100
0000
0001
0000
0010
0000
1000
,
0000
0010
0000
1000
0000
0001
0000
0010
,
0000
0001
0000
0000
0000
0010
0000
0010
,
0000
1000
0000
1000
0000
0010
0000
0010
,
0000
0001
0000
0001
0000
1000
0000
0010
,
0000
0101
0000
0000
0020
0000
0030
1000
,
0000
0001
0000
1000
0000
0001
0000
0001
,
0000
1000
0000
0001
0000
1000
0000
1000
,
0000
0001
0000
1000
0000
0010
0000
0010
,
0000
0100
0000
0100
0000
0001
0000
0010
,
0000
0000
1000
0000
0000
0000
0001
0000
0000
0200
0000
0000
0000
0000
0000
0000
,
0000
0000
0000
0000
,
0000
0000
0000
0000
0000
0000
0000
0000
0300
0002
0000
0000
0000
0000
0000
0000
,
0000
0000
0000
0000
,
0000
0000
0000
0000
0000
0000
0000
0003
0000
2000
0000
0000
0000
0000
0000
0000
,
0000
0000
0000
0000
,
0000
0000
0000
0000
0000
0000
0000
3000
0000
0020
0000
0000
0000
0000
0000
0000
,
0000
0000
0000
0000
,
0030
0000
0000
1001
0000
0000
0000
0000;

//---------------dance-single - ANOTHER----------------
#NOTES:
     dance-single:
     ANOTHER:
     Medium:
     6:
     0.394,0.407,0.522,0.148,0.035,240.000,60.000,17.000,0.000,0.000:

0000
0000
0000
0000
,
0000
0000
0000
0000
,
0000
0000
0000
1010
,
0110
0000
1000
0001
0100
0000
0011
0000
,
0110
0000
1000
0001
0100
0000
1001
0000
,
0110
0000
1000
0001
0010
0000
1000
0100
,
1000
0100
1000
2000
0000
3000
0010
0000
,
0001
0000
0100
0100
0000
0000
1000
0000
,
0010
0010
0000
0000
0000
0000
0001
0000
,
0110
0000
1000
0000
0100
0010
0001
0000
,
1000
0100
0010
0000
0001
0000
1000
0000
,
1000
0000
0001
0001
0000
0000
0100
0000
,
1000
1000
0000
0000
0000
0000
0010
0000
,
1000
1000
0100
1000
0000
0010
0001
0010
,
0001
0010
0010
0000
0000
0000
1100
0000
,
0010
1000
0010
0100
0000
0000
0001
1000
,
0001
1000
0000
0000
0000
0000
0110
0000
,
0101
1100
0110
1001
,
1000
0001
0010
0000
1000
0001
0010
0000
,
0010
0100
1000
0100
0000
0000
0100
0001
,
0100
0001
0000
0000
0000
0000
2000
0000
,
3200
0000
0301
0001
0000
1000
0001
1000
,
0001
1000
0001
0000
0100
0010
0000
1001
,
0000
0010
0000
1001
0000
0110
0000
0110
,
0000
1000
0000
1001
0000
0010
0000
1000
,
0000
0002
0000
0003
0000
0010
0000
0100
,
1000
0100
0010
0001
0000
1100
0000
1001
,
0000
0010
0000
1001
0000
0110
0000
0110
,
0000
0001
0000
0101
0000
1100
0000
1100
,
0000
0101
0000
0101
0000
1001
0000
0110
,
0000
1001
0000
0010
0000
0110
0000
1000
,
0000
0010
0000
0101
0000
0010
0000
0010
,
0000
0101
0000
1100
0000
0020
0000
0000
,
0030
2200
0000
3300
0002
0000
0003
0001
,
0001
1000
0100
1000
0000
0001
0000
0010
,
0000
0100
0000
0110
0000
0001
0001
0001
,
0001
0001
0001
0001
0000
0001
0000
0100
,
0000
0100
0000
1000
0000
0001
0000
0001
,
0000
0110
0000
0010
0000
1001
0000
0110
,
0000
1000
0000
0010
0000
0110
0000
0110
,
0000
0001
0000
1000
0000
1100
0000
0101
,
0000
1100
0000
0000
1000
0010
0000
0100
,
0001
0000
0100
0010
0000
0001
0000
0001
,
0000
0110
0000
1001
0000
1000
0000
1000
,
0000
0110
0000
1001
0000
0010
1000
0010
,
0000
0010
0001
0010
0000
0100
0010
0100
,
0000
0010
0000
0101
0000
0100
0000
0100
,
0000
1100
0000
1001
0000
0001
0000
0001
,
0000
0011
0000
0101
0000
0110
0000
1100
,
0000
2000
0000
3000
0020
0000
0030
1000
,
0010
0001
0100
1000
0000
0001
0000
0001
,
0000
0001
0000
0101
0000
1000
0000
1000
,
0000
1000
0000
1100
0000
0001
0000
0010
,
0000
1000
0000
0100
0000
0001
0000
0010
,
0000
0000
1000
0000
0000
0110
0000
0000
0000
0200
0000
0000
0000
0000
0000
0000
,
0000
0000
0000
0000
0000
0000
0000
0300
0000
0020
0000
0000
0000
0000
0000
0000
,
0000
0000
0000
0000
0000
0000
0000
0000
0030
0200
0000
0000
0000
0000
0000
0000
,
0000
0000
0000
0000
0000
0000
0000
0300
0000
0020
0000
0000
0000
0000
0000
0000
,
0000
0000
0000
0000
0000
0000
0000
0030
0000
2000
0000
0000
0000
0000
0000
0000
,
0000
0000
0000
0000
0000
0000
0000
0000
3000
0002
0000
0000
0000
0000
0000
0000
,
0000
0000
0000
0000
0000
0000
0000
0003
0000
2000
0000
0000
0000
0000
0000
0000
,
0000
0000
3000
0000
,
0000
0000
0000
1001
0000
0000
0000
0000;

//---------------dance-single - MANIAC----------------
#NOTES:
     dance-single:
     MANIAC:
     Hard:
     7:
     0.434,0.461,0.252,0.183,0.152,299.000,29.000,21.000,0.000,0.000:

0000
0000
0000
0000
,
0000
0000
0000
0000
,
0000
0000
0000
0000
0000
0000
0010
0100
,
0010
0001
1000
0001
0100
0000
0100
0010
,
0100
0001
1000
0100
0100
0000
0010
0100
,
0100
0001
1000
0010
0010
0000
1000
0100
,
0000
0100
0010
0002
0000
0003
0100
0000
,
0001
0000
0010
0100
0000
0000
1000
0000
,
0100
0010
0000
0000
0110
0000
0001
0000
,
0110
0000
1000
0000
0100
0010
0001
0000
,
0100
0100
0100
0001
,
1000
0000
0100
0010
0000
0000
0001
0000
,
1000
1000
0000
0000
0100
0000
0010
0000
,
1000
0000
0000
1000
0100
0000
1000
0000
0000
0000
0010
0000
0010
0000
0100
0000
,
0100
0001
1000
0000
0010
0000
0100
0000
,
0010
0000
0000
0001
0010
0000
0001
0000
0000
0000
0100
0000
0010
0000
0100
0000
,
0010
0000
0100
0000
0000
0000
0000
0000
0000
0000
0000
0001
0100
0000
0000
1000
,
0100
0000
0000
0100
0010
0000
0000
0000
0100
0000
0000
0000
0101
0000
0000
0000
,
1000
0100
0010
0001
1000
0000
0010
0000
,
0010
0000
0000
0001
1000
0000
0100
0000
0000
0000
0010
0000
0100
0000
0010
0000
,
0100
1001
0000
0000
0100
0000
0020
0000
,
0230
0000
0301
0001
0000
1000
0001
1000
,
0001
1000
0110
0000
0010
0010
0000
0101
,
0000
0000
1000
0000
0001
1000
0000
0000
0000
0000
0110
0000
0000
0000
0110
0000
,
0000
0000
1000
0000
0001
1000
0000
0000
0000
0000
0010
0000
0001
0000
1000
0000
,
0100
0020
0000
0030
0000
0010
0001
0100
,
1000
0000
1000
0000
0010
0001
0000
0000
0000
0000
1100
0000
0000
0000
1100
0000
,
0000
0000
0010
0000
0100
0001
0000
0000
0000
0000
0010
0000
0100
0000
1000
0000
,
0100
0000
0010
0000
0001
0001
0000
0000
0000
0000
1100
0000
0000
0000
1100
0000
,
0000
0110
0000
0101
0000
0011
0000
1010
,
0000
1001
0000
0001
0000
0110
0000
1000
,
0000
0000
0010
0000
0100
0100
0000
0000
0000
0000
0010
0000
0100
0000
0010
0000
,
0100
0000
0001
0000
0100
0100
0000
0000
0000
0000
0020
0000
0030
0000
0200
0000
,
0300
2002
3003
0000
0020
0000
0030
0001
,
0001
0000
1000
0000
0100
1000
0000
0000
0000
0000
0001
0000
0000
0000
0010
0000
,
0000
0000
0100
0000
0010
0100
0000
0000
0000
0000
0001
0000
0001
0000
0001
0000
,
0001
0000
1000
0000
0100
0100
0000
0000
0000
0000
0001
0000
0010
0000
0100
0000
,
1000
0100
0100
1000
0010
0001
1000
0001
,
1000
0200
0000
0300
0000
1001
0000
0110
,
0000
0000
1000
0000
0100
0001
0000
0000
0000
0000
0010
0000
0010
0000
0100
0000
,
0100
0000
0001
0000
0010
0001
0000
0000
0000
0000
1100
0000
0000
0000
0110
0000
,
0000
0101
0000
0000
1000
0010
0010
0100
,
0100
0000
0001
0000
0100
0010
0000
0000
0000
0000
1000
0000
0000
0000
0001
0000
,
0000
0000
0100
0000
0010
0100
0000
0000
0000
0000
0010
0000
0100
0000
0010
0000
,
0100
0000
0001
0000
1000
0010
0000
0000
0000
0000
0010
0000
0100
0000
1000
0000
,
0100
0010
0001
0100
1000
0100
0010
0100
,
0001
0010
0000
0001
0000
0100
0000
0010
,
0000
0000
0100
0000
1000
1000
0000
0000
0000
0000
0001
0000
0100
0000
0001
0000
,
0100
0000
0010
0000
0001
0001
0000
0000
0010
0000
0110
0000
0000
0000
1100
0000
,
0000
0202
0303
0000
0020
0000
0030
1000
,
0010
0000
0001
0000
0100
0010
0000
0000
0000
0000
0001
0000
0000
0000
0001
0000
,
0000
0000
0001
0000
0001
0001
0000
0000
0000
0000
1000
0000
0100
0000
1000
0000
,
0100
0000
1000
0000
1000
1000
0000
0000
0000
0000
0001
0000
0000
0000
0010
0000
,
0000
0000
0010
0000
0100
1000
0000
0000
0000
0000
0010
0000
0100
0000
0010
0000
,
0100
0000
1000
0000
0100
0010
0000
0000
0000
0200
0000
0000
0000
0000
0000
0000
,
0000
0000
0000
0000
0000
0000
0000
0300
0000
0020
0000
0000
0000
0000
0000
0000
,
0000
0000
0000
0000
0000
0000
0000
0000
0030
0002
0000
0000
0000
0000
0000
0000
,
0000
0000
0000
0000
0000
0000
0000
0000
0003
0220
0000
0000
0000
0000
0000
0000
,
0000
0000
0000
0000
0000
0000
0000
0330
0000
2000
0000
0000
0000
0000
0000
0000
,
0000
0000
0000
0000
0000
0000
0000
0000
3000
0002
0000
0000
0000
0000
0000
0000
,
0000
0000
0000
0000
0000
0000
0000
0003
0000
0020
0000
0000
0000
0000
0000
0000
,
0000
0000
0030
0000
,
0000
0000
0000
1001
0000
0000
0000
0000;
