#TITLE:Wannabe;
#SUBTITLE:Sexuality Violation;
#ARTIST:Spice Girls;
#TITLETRANSLIT:;
#SUBTITLETRANSLIT:;
#ARTISTTRANSLIT:;
#CREDIT:;
#BANNER:wannabe bn.png;
#BACKGROUND:wannabe bg.png;
#LYRICSPATH:;
#CDTITLE:;
#MUSIC:01 Spice Girls - Wannabe.ogg;
#OFFSET:-2.296;
#SAMPLESTART:44.860;
#SAMPLELENGTH:12.000;
#SELECTABLE:YES;
#BPMS:0.000=220.095;
#STOPS:;
#BGCHANGES:;
// cache tags:
#FIRSTBEAT:10.000;
#LASTBEAT:610.000;
#SONGFILENAME:Songs/Sexuality Violation 2/Wannabe - [Valex]/Wannabe.sm;
#HASMUSIC:1;
#HASBANNER:1;
#MUSICLENGTH:174.210;
// end cache tags

//---------------dance-single - J. Twerkowitz----------------
#NOTES:
     dance-single:
     J. Twerkowitz:
     Challenge:
     16:
     1.000,1.000,0.321,0.517,1.000,1436.000,56.000,90.000,12.000,0.000:






0000
0000
0000
0000
,
0000
0000
0000
0000
,
0000
0000
0000
0000
2000
0000
0000
3001
,
0010
0100
1000
0001
1000
0100
0010
0001
1000
0000
0000
0000
0010
0100
0001
1000
,
0100
0010
0100
1000
0001
0100
0010
1000
0100
0000
0000
0000
0010
0100
1000
0001
,
0100
0010
0100
0001
0010
0100
1000
0001
0100
0000
0000
0000
0010
0100
0001
1000
,
0100
0010
0001
1000
0010
0100
0010
1000
0100
0000
0000
0000
0010
0000
0001
0000
,
1000
0010
0100
0010
1000
0001
0010
0100
1000
0000
0000
0000
0001
1000
0010
0100
,
0001
1000
0100
0010
0100
1000
0001
0100
0010
0000
0000
0000
0100
0001
1000
0100
,
0010
0100
1000
0001
0100
0010
1000
0010
0100
0000
0000
0000
0010
0100
0001
1000
,
0100
0010
0100
1000
0010
0100
0001
1000
0100
0010
0100
1000
0001
0100
0010
1000
,
0010
0100
0010
1000
0100
0010
0100
1000
0010
0100
0010
1000
0100
0010
0100
1000
,
0010
0100
0010
1000
0100
0010
0100
1000
0010
0100
0010
1000
0100
0010
0100
1000
,
0001
0100
0010
0100
0001
1000
0100
0010
0001
0100
0010
0100
0001
1000
0100
0010
,
0001
0100
1000
0000
0220
0000
0000
0330
,
1000
0000
0010
0100
0001
0000
0010
0000
,
0100
0000
0000
0100
0000
0000
1100
0000
0000
1000
0000
0001
,
0100
0010
0100
0001
,
0010
0000
0000
0100
0000
0000
1100
0000
0000
1000
0000
0001
,
0100
0000
0010
0100
0001
0000
0010
0000
,
0110
0000
0000
1100
0000
0000
1001
0000
0000
0001
0000
0100
,
0010
0000
1000
0010
0100
0000
0001
0000
,
0010
0000
0000
0100
0000
0000
0010
0000
0000
0000
0000
0000
0011
0000
0000
0000
0000
0000
0001
0000
0000
0000
1000
0000
,
0010
0100
0001
0010
,
0110
0000
0000
1100
0000
0000
1010
0000
0000
0010
0000
0100
,
0001
1000
1100
0110
,
0011
0000
0000
1000
0000
0000
1001
0000
0000
0001
0000
0100
,
0010
0000
1000
0000
0100
0000
0010
0001
,
0000
0000
0000
0001
0000
0000
1000
0000
0000
0000
0000
0000
1010
0000
0000
0000
0000
0000
0010
0000
0000
0000
0100
0000
,
0002
0000
0000
2003
0000
0000
3200
0000
,
0000
0000
0310
0000
0011
0000
0001
1000
,
0010
0100
0010
1000
0001
0010
0100
1000
0001
0000
0000
0000
1000
0010
0100
0001
,
1000
0001
0100
0010
1000
0001
0010
0100
1000
0000
0000
0000
0010
0100
0001
0100
,
0010
1000
0001
1000
0100
0010
0100
1000
0001
0000
0000
0000
1000
0010
0100
0001
,
1000
0100
0010
0001
0010
0100
1000
0001
0100
0010
0100
0001
1000
0100
0010
0001
,
0100
0010
0100
0001
0010
0100
0010
0001
0100
0010
0100
0001
0010
0100
0010
0001
,
0100
0010
0100
0001
0010
0100
0010
0001
0100
0010
0100
0001
0010
0100
0010
0001
,
1000
0010
0100
0001
1000
0100
0010
0001
1000
0010
0100
0001
1000
0100
0010
0001
,
1000
0010
0001
0000
0220
0000
0000
0330
,
1000
0010
0100
0010
1000
0001
0010
0001
0100
0010
1000
0001
0010
0100
0010
0001
,
0200
0000
0320
0000
2030
0000
3001
0010
,
0100
0010
0001
1000
0010
0100
0001
0010
0100
1000
0001
0100
0010
0100
0001
1000
,
0200
0320
0032
0000
0203
0000
0320
0000
,
1030
0001
0010
0100
0010
0001
1000
0010
0100
0001
0100
0010
1000
0100
0010
0100
,
2000
0000
0000
0000
3002
0000
0000
0000
0103
0000
0000
0000
0010
0100
0001
1000
,
0100
0010
0100
1000
0010
0100
0001
1000
0100
0010
0001
1000
0001
0100
0010
1000
,
0001
0010
0100
0010
0001
0100
0010
0100
0001
1000
0100
0010
0100
0000
0000
0000
,
1000
0100
0010
0001
0010
0100
1000
0001
0100
0010
1000
0100
0010
0001
1000
0010
,
0200
0302
0013
0100
,
1000
0001
0100
0010
0100
0001
0010
0100
1000
0010
0100
0001
1000
0100
0010
0100
,
2000
3010
0100
0001
,
0010
0100
0010
0001
1000
0010
0100
0001
1000
0100
0010
0100
1000
0001
0100
0010
,
2000
0000
0000
0000
3020
0000
0000
0000
0230
0000
0000
0000
0301
0100
0010
0100
,
0001
0010
0100
1000
0001
1000
0010
0100
0001
1000
0100
0010
0100
1000
0001
0100
,
0010
1000
0100
0010
0001
1000
0010
0100
0001
0010
0100
1000
0001
0000
0000
0000
,
1000
0100
0010
0001
0100
0010
1000
0000
,
0001
0010
0210
2300
,
3020
0230
0302
2003
,
3200
0000
0000
0310
0000
0000
0011
0000
0000
0001
0000
1000
,
0010
0100
0010
1000
,
1100
0000
0000
0110
0000
0000
0011
0000
0000
1001
0000
1000
,
0010
0100
0001
0010
,
0100
2000
3002
0203
,
0320
1030
0100
0010
,
0001
0000
0000
1000
0000
0000
0010
0000
0000
0000
0000
0000
0110
0000
0000
0000
0000
0000
0100
0000
0000
0000
0001
0000
,
0010
0100
0010
0000
0001
0000
1000
0000
,
0010
0000
0000
0100
0000
0000
0101
0000
0000
0001
0000
1000
,
0100
0000
0010
0001
0000
0001
0100
0000
,
0110
1010
1100
0110
,
0020
0000
0000
0032
0000
0000
0203
0000
,
0000
0000
0310
0000
2010
0000
0000
3001
,
0010
0100
1000
0001
1000
0010
0100
0001
1000
0000
0000
0000
0100
0010
0001
1000
,
0010
0100
0010
1000
0100
0010
0001
1000
0010
0000
0000
0000
0100
0001
1000
0100
,
0010
0100
1000
0001
0100
0010
1000
0001
0010
0000
0000
0000
0100
0010
0001
1000
,
0010
0100
0001
0010
0100
1000
0001
1000
0100
0010
0100
1000
0001
0100
0010
1000
,
0100
0010
0100
1000
0010
0100
0010
1000
0100
0010
0100
1000
0010
0100
0010
1000
,
0100
0010
0100
1000
0010
0100
0010
1000
0100
0010
0100
1000
0010
0100
0010
1000
,
0001
0010
0100
0010
0001
1000
0010
1000
0001
0010
0100
0010
0001
1000
0010
1000
,
0001
0010
1000
0000
0220
0000
0000
0330
,
2000
3200
0320
0230
2300
0000
3002
0000
,
0203
0000
0000
0000
0320
0000
0000
0030
1010
0000
0000
0000
0000
0000
1000
0000
,
0001
0010
0100
0010
0001
0100
0010
1000
0001
1000
0100
0010
0001
1000
0001
0010
,
0200
2300
3020
0000
0230
0000
0302
0000
,
1003
0100
0010
0100
1000
0001
0100
0010
1000
0001
0010
0100
0010
0001
1000
0010
,
0200
0000
0000
0000
0302
0000
0000
0000
0013
0000
0000
0000
0100
0010
0001
1000
,
0010
0100
0010
1000
0001
1000
0100
0010
0100
1000
0001
1000
0010
0100
0001
1000
,
0100
0010
0001
0100
0010
1000
0001
0010
0100
1000
0001
1000
0010
0000
0000
0000
,
0100
0010
0100
0001
1000
0100
0010
0100
1000
0001
1000
0010
0100
0001
1000
0100
,
0020
0031
0100
0010
,
1000
0010
0100
0010
1000
0001
1000
0100
0010
0100
1000
0001
1000
0010
0100
0001
,
1000
0020
0230
0320
,
1030
0001
0010
0100
0010
0001
1000
0001
0100
0010
1000
0010
0100
0001
1000
0001
,
0020
0000
0000
0000
0230
0000
0000
0000
2300
0000
0000
0000
3001
0100
0010
0100
,
0001
1000
0100
0010
0100
1000
0010
0100
0001
1000
0100
0010
0001
0100
0010
1000
,
0001
0010
0100
0010
0001
1000
0010
0100
0002
0000
0000
0000
0000
0000
0000
0000
,
1003
0100
0010
0100
1000
0001
0100
0000
0000
0000
0010
0000
1000
0000
0000
0000
,
0001
0010
0100
0010
0001
1000
0010
0000
0000
0000
0100
0000
0001
0000
1000
0000
,
0100
0010
0100
1000
0001
1000
0010
0000
0000
0000
0100
0000
0001
0000
0010
0000
,
0100
0010
0001
1000
0010
0100
0010
1000
0100
0000
0010
0000
0001
0000
0000
0000
,
1000
0001
0100
0010
0100
0001
1000
0100
0010
0000
0000
0000
0001
0000
1000
0000
,
0000
0010
0100
0001
0010
0100
1000
0000
,
0001
0100
0010
0100
0001
0010
0100
1000
0001
0000
0000
0000
1000
0000
0010
0000
,
0000
0000
0100
0000
0010
0000
1000
0000
0100
0010
0001
0010
0100
1000
0001
1000
,
0010
0100
0001
1000
0100
0010
0100
1000
0001
0000
0000
0000
0100
0000
0020
0000
,
0000
0000
1030
0001
0010
0000
0100
1000
,
0001
0100
0010
0100
0001
1000
0100
0010
0100
1000
0001
1000
0010
0100
0001
1000
,
0100
0010
0001
1000
,
0010
0100
0010
1000
0001
0010
0100
1000
0001
1000
0010
0100
0001
1000
0100
0010
,
0100
1000
0001
0100
0010
0100
0001
0010
0100
1000
0010
0100
0001
0000
0000
0000
,
0100
0010
0100
0001
1000
0100
0010
0001
1000
0001
0100
0010
1000
0001
0010
0100
,
0010
0001
1000
0010
0100
0010
1000
0100
0010
0001
0100
0010
1000
0000
0000
0000
,
0001
0010
0100
1000
0001
1000
0010
0100
0001
0100
0010
1000
0100
0010
0001
1000
,
0020
0000
0230
0000
0301
0000
1000
0100
,
0010
0100
1000
0001
1000
0010
0100
0001
0010
0100
0010
0001
1000
0100
1000
0001
,
0100
0010
2000
0000
3200
0000
0320
0000
,
0031
0010
0100
1000
0100
0010
0001
1000
0010
0100
0001
0010
0100
1000
0100
0010
,
0002
0000
0000
0000
2003
0000
0000
0000
3010
0000
0000
0000
0100
0001
0100
0010
,
1000
0001
0010
0100
1000
0100
0010
0001
1000
0001
0100
0010
1000
0001
0010
0100
,
0010
0001
0100
0010
0100
0001
0010
0100
1000
0001
0100
0010
1000
0000
0000
0000
,
0001
0010
0100
1000
0001
1000
0010
0100
0001
0010
0100
1000
0001
1000
0010
0100
,
0002
0023
0130
1000
,
0001
0100
0010
1000
0001
1000
0010
0100
0001
1000
0100
0010
0001
0100
0010
1000
,
0100
0020
0032
2003
,
3010
0100
0010
1000
0001
0010
0100
0010
0001
1000
0001
0100
0010
1000
0001
0010
,
0200
0000
0000
0000
2300
0000
0000
0000
3020
0000
0000
0000
0130
0001
1000
0010
,
1000
0001
1000
0100
0010
0100
1000
0001
0100
0010
1000
0001
0010
0001
0100
0010
,
1000
0001
0010
0001
1000
0010
0100
0010
1000
0100
0010
0001
0100
0000
0000
0000
,
0010
1000
0001
1000
0100
0010
0001
1000
0010
0100
0010
1000
0001
0010
0100
0010
,
0001
1000
0010
0100
0001
1000
0100
0010
0100
0000
1000
0000
0001
0000
0100
0000
,
M0MM
0100
1000
0010
MM0M
0010
0001
0100
,
M0MM
0100
1000
0010
MM0M
0010
0001
0100
,
0010
0100
0001
0100
0010
1000
0001
1000
0100
0010
0001
0010
0100
1000
0001
1000
,
0010
0100
0001
0100
0010
1000
0001
1000
0100
0010
0001
0010
0100
1000
0001
1000
,
0100
0010
0001
0100
0010
0000
0100
0001
,
0000
0010
0100
1000
0001
0000
1001
0000
,
1000
0010
0100
0001
1000
0100
0010
0001
0100
0010
1000
0100
0010
0001
1000
0001
,
0010
0100
1000
0001
1000
0010
0100
0001
0010
0100
1000
0001
0100
0000
0001
0000
,
1000
0100
0110
0010
0001
1000
1010
0010
,
0100
0001
1001
1000
0010
0100
0001
0010
,
0100
1000
0010
0100
0001
0000
0010
0001
,
0000
1000
0010
0100
0001
0000
0011
0000
,
0010
0100
1000
0100
0010
0001
1000
0010
0100
0010
1000
0001
0010
0100
1000
0001
,
1000
0010
0001
0000
0220
0000
0000
0330
,
1010
1000
0100
0110
,
0011
0001
1000
1010
,
0101
0001
0010
0110
,
1100
0000
0000
1001
0000
0000
0101
0000
,
0110
0010
1000
1100
,
0011
0001
1000
1010
,
0101
0001
0010
0110
,
1100
0000
0000
1010
0000
0000
0101
0000
,
0002
0023
0230
2300
3020
0000
0230
0000
,
0302
0023
0030
0000
;

//---------------dance-single - J. Berkowitz----------------
#NOTES:
     dance-single:
     J. Berkowitz:
     Hard:
     12:
     1.000,1.000,0.350,0.672,0.654,1058.000,61.000,117.000,12.000,0.000:

0000
0000
0000
0000
,
0000
0000
0000
0000
,
0000
0000
0000
0000
0002
0000
0000
1003
,
0100
0000
0010
0000
0001
0010
0100
1000
0001
0000
0000
0000
0100
0000
0001
0000
,
0010
0000
0100
0000
1000
0100
0010
0001
0010
0000
0000
0000
0100
0000
0000
0000
,
1000
0000
0001
0000
0010
0100
1000
0001
0100
0000
0000
0000
0010
0000
0100
0000
,
0001
0000
1000
0000
0010
0100
0010
1000
0001
0000
0000
0000
0010
0000
0001
0000
,
1000
0000
0010
0000
1000
0001
0010
0100
1000
0000
0000
0000
0001
0000
1000
0000
,
0010
0000
0100
0000
0001
1000
0001
0100
0010
0000
0000
0000
0100
0000
0001
0000
,
1000
0000
0100
0000
0010
0100
0010
0001
1000
0000
0000
0000
0010
0000
0100
0000
,
0001
0000
1000
0000
0100
0010
0001
1000
0100
0000
0010
0000
0001
0000
1000
0100
,
1000
0000
0001
0100
0001
0000
1000
0100
1000
0000
0001
0100
0001
0000
1000
0100
,
1000
0000
0001
0100
0001
0000
1000
0100
1000
0000
0001
0100
0001
0000
1000
0100
,
1000
0001
0100
0000
0010
1000
0001
0000
0010
0100
1000
0000
0100
0010
0001
0000
,
1000
0010
0001
0000
0220
0000
0000
0330
,
0001
0000
0100
0010
1000
0000
0100
0000
,
0010
0000
0000
0010
0000
0000
0011
0000
0000
0001
0000
1000
,
0010
0100
0010
1000
,
0100
0000
0000
0010
0000
0000
0011
0000
0000
0001
0000
1000
,
0010
0000
0100
0010
1000
0000
0100
0000
,
0110
0000
0000
0011
0000
0000
1001
0000
0000
1000
0000
0010
,
0100
0000
0001
0100
0010
0000
1000
0000
,
0100
0000
0000
0010
0000
0000
0100
0000
0000
0000
0000
0000
1100
0000
0000
0000
0000
0000
1000
0000
0000
0000
0001
0000
,
0100
0010
1000
0100
,
0110
0000
0000
0011
0000
0000
0101
0000
0000
0100
0000
0010
,
1000
0001
0011
0110
,
1100
0000
0000
0001
0000
0000
1001
0000
0000
1000
0000
0010
,
0100
0000
0001
0000
0010
0000
0100
1000
,
0000
0000
0000
1000
0000
0000
0001
0000
0000
0000
0000
0000
0101
0000
0000
0000
0000
0000
0100
0000
0000
0000
0010
0000
,
2000
0000
0000
3002
0000
0000
0023
0000
,
0000
0000
0130
0000
1100
0000
1000
0001
,
0100
0000
0010
0000
1000
0100
0010
0001
1000
0000
0000
0000
0001
0000
0100
0000
,
0010
0000
1000
0000
0001
1000
0100
0010
0001
0000
0000
0000
0100
0000
0010
0000
,
1000
0000
0010
0000
0100
0001
1000
0001
0010
0000
0000
0000
0001
0000
0010
0000
,
0100
0000
1000
0000
0100
0010
0001
1000
0010
0000
0100
0000
0010
0000
1000
0100
,
1000
0000
0001
0100
0001
0000
1000
0100
1000
0000
0001
0100
0001
0000
1000
0100
,
1000
0000
0001
0100
0001
0000
1000
0100
1000
0000
0001
0100
0001
0000
1000
0100
,
1000
0001
0100
0000
0010
0100
0001
0000
1000
0100
0010
0000
0001
0010
0100
0000
,
1000
0100
0001
0000
0220
0000
0000
0330
,
0001
0100
0010
0100
0001
1000
0100
1000
0010
0100
0001
1000
0100
0010
0100
1000
,
0020
0000
0230
0000
0302
0000
1003
0100
,
0010
0100
1000
0000
0001
0000
0100
0000
,
0020
0230
0302
0000
0023
0000
0032
0000
,
1003
0001
0010
0100
0010
0001
1000
0010
0100
0001
0100
0010
1000
0100
0010
0100
,
2000
3002
0103
0020
,
1030
0100
0000
0100
0020
0000
0032
0000
,
2003
0000
3010
0100
0002
0000
1003
0000
,
0001
0010
0100
1000
0100
0010
0001
1000
0010
0100
0001
0010
0100
1000
0001
0100
,
0020
2030
3100
0010
,
0001
0101
1000
1100
,
0002
0103
0010
1000
,
0100
0010
0100
1000
0001
0100
0010
1000
0001
0010
0100
0010
0001
1000
0010
0100
,
0002
0203
0320
2030
,
3100
0010
0000
0010
0001
0000
1000
0000
,
0020
0000
0130
0001
0020
0000
0130
0000
,
1000
0100
0010
0001
0100
0010
1000
0000
,
0001
0010
0210
2300
,
3020
0230
0302
2003
,
3200
0000
0000
0310
0000
0000
0011
0000
0000
0001
0000
1000
,
0010
0100
0010
1000
,
1100
0000
0000
0110
0000
0000
0011
0000
0000
1001
0000
1000
,
0010
0100
0001
0010
,
0100
2000
3002
0203
,
0320
1030
0100
0010
,
0001
0000
0000
1000
0000
0000
0010
0000
0000
0000
0000
0000
0110
0000
0000
0000
0000
0000
0100
0000
0000
0000
0001
0000
,
0010
0100
0010
0000
0001
0000
1000
0000
,
0010
0000
0000
0100
0000
0000
0101
0000
0000
0001
0000
1000
,
0100
0000
0010
0001
0000
0001
0100
0000
,
0110
1010
1100
0110
,
0020
0000
0000
0032
0000
0000
0203
0000
,
0000
0000
0310
0000
2010
0000
0000
3001
,
0010
0000
0100
0000
1000
0001
0100
0010
1000
0000
0000
0000
0001
0000
0010
0000
,
0100
0000
0010
0000
0001
1000
0010
0100
0001
0000
0000
0000
1000
0000
0100
0000
,
1000
0000
0001
0000
0100
0010
0100
0001
1000
0000
0000
0000
0010
0000
0100
0000
,
0001
0000
1000
0000
0100
0010
0001
0010
0100
0000
1000
0000
0001
0000
1000
0100
,
1000
0000
0001
0100
0001
0000
1000
0100
1000
0000
0001
0100
0001
0000
1000
0100
,
1000
0000
0001
0100
0001
0000
1000
0100
1000
0000
0001
0100
0001
0000
1000
0100
,
0010
0001
1000
0000
0010
1000
0001
0000
0010
0100
1000
0000
0100
0010
0001
0000
,
1000
0010
0001
0000
0220
0000
0000
0330
,
2000
3200
0320
0230
2300
0000
3002
0000
,
0203
0000
0000
0000
0320
0000
0000
0030
1010
0000
0000
0000
0000
0000
1000
0000
,
0010
0100
0001
0000
0010
0000
0100
0000
,
0020
0032
0203
0000
0320
0000
2030
0000
,
3001
0010
0100
0010
0001
1000
0010
0100
0001
1000
0100
0010
0100
1000
0001
0100
,
0020
2030
3100
0020
,
0031
1000
0000
1000
0010
0000
0100
0000
,
0002
0000
1003
0100
0020
0000
0031
0000
,
0100
0010
0100
0001
1000
0100
0010
0100
1000
0001
1000
0010
0100
0001
1000
0100
,
0020
0031
0100
0010
,
1000
1100
0001
0101
,
2000
3020
0230
0320
,
1030
0001
0010
0100
0010
0001
1000
0001
0100
0010
1000
0010
0100
0001
1000
0001
,
0020
0230
2300
3020
,
0130
0001
0000
0001
1000
0000
0200
0000
,
0320
0000
0031
1000
0020
0000
0130
0001
,
1000
0100
0010
0100
1000
0001
0100
0000
0000
0000
0010
0000
1000
0000
0000
0000
,
0001
0010
0100
0010
0001
1000
0010
0000
0000
0000
0100
0000
0001
0000
1000
0000
,
0100
0010
0100
1000
0001
1000
0010
0000
0000
0000
0100
0000
0001
0000
0010
0000
,
0100
0010
0001
1000
0010
0100
0010
1000
0100
0000
0010
0000
0001
0000
0000
0000
,
1000
0001
0100
0010
0100
0001
1000
0100
0010
0000
0000
0000
0001
0000
1000
0000
,
0000
0010
0100
0001
0010
0100
1000
0000
,
0001
0100
0010
0100
0001
0010
0100
1000
0001
0000
0000
0000
1000
0000
0010
0000
,
0000
0000
0100
0000
0010
0000
1000
0000
0100
0010
0001
0010
0100
1000
0001
1000
,
0020
0000
0130
0001
1000
0000
0100
0020
,
0000
0000
0031
1000
0100
0000
0010
0001
,
1000
0010
0100
0010
1000
0001
0010
0100
0010
0001
1000
0001
0100
0000
0000
0100
,
0010
0100
0001
1000
,
0100
0010
0001
0100
0020
0000
1030
0002
,
0000
0013
1000
0010
0001
0000
1001
0000
,
1000
0100
1000
0010
0200
0000
0301
2000
,
0000
3100
0001
0100
1000
0000
1001
0000
,
0001
0010
0100
1000
0001
1000
0010
0100
0001
0100
0010
1000
0100
0010
0001
1000
,
0020
0000
0230
0000
0301
0000
1000
0100
,
0010
0100
1000
0000
0001
0000
0100
0000
,
0010
1000
0002
0000
0023
0000
0230
0000
,
1300
0100
0010
0001
0010
0100
1000
0001
0100
0010
1000
0100
0010
0001
0010
0100
,
2000
3002
0103
0010
,
0100
0001
0000
0001
1000
0000
0100
0000
,
0020
0000
0031
0010
0200
0000
1300
0000
,
0001
0010
0100
1000
0001
1000
0010
0100
0001
0010
0100
1000
0001
1000
0010
0100
,
0002
0023
0130
1000
,
0010
0110
1000
1001
,
0100
0020
0032
2003
,
3010
0100
0010
1000
0001
0010
0100
0010
0001
1000
0001
0100
0010
1000
0001
0010
,
0200
2300
3020
0130
,
0001
1000
0000
1000
0100
0000
0010
0000
,
0002
0000
0103
0010
2000
0000
3001
0000
,
0100
0001
1000
0001
0010
0100
1000
0001
0100
0010
0100
0001
1000
0100
0010
0100
,
2000
0000
3001
0000
0010
0001
1000
0010
,
MM0M
0010
0001
0100
M0MM
0100
1000
0010
,
MM0M
0010
0001
0100
M0MM
0100
1000
0010
,
1000
0100
1000
0100
1000
0000
0000
0000
0001
0100
0001
0100
0001
0000
0000
0000
,
1000
0100
1000
0100
1000
0000
0000
0000
0001
0100
0001
0100
0001
0000
0000
0000
,
0010
0100
1000
0010
0100
0000
0010
1000
,
0000
0100
0001
0100
1000
0000
1001
0000
,
0001
0010
0001
0100
0010
0000
0100
0001
,
0000
0000
0010
0000
1000
0000
0010
0000
0001
0000
0000
0000
1000
0001
1000
0001
,
1000
0000
0000
0000
0010
0100
0010
0100
0010
0000
0000
0000
1000
0001
1000
0001
,
1000
0000
0000
0000
0100
0010
0100
0010
0100
0000
0000
0000
1000
0001
1000
0001
,
1000
0010
0100
0001
0020
0000
0130
2000
,
0000
3001
0100
1000
0100
0000
0110
0000
,
1000
0010
0100
0010
1000
0000
0001
0000
,
1000
0010
0001
0000
0220
0000
0000
0330
,
1010
1000
0100
0110
,
0011
0001
1000
1010
,
0101
0001
0010
0110
,
1100
0000
0000
1001
0000
0000
0101
0000
,
0110
0010
1000
1100
,
0011
0001
1000
1010
,
0101
0001
0010
0110
,
1100
0000
0000
1010
0000
0000
0101
0000
,
0002
0023
0230
2300
3020
0000
0230
0000
,
0302
0023
0030
0000
;
