#TITLE:Wake Up;
#SUBTITLE:;
#ARTIST:Kid Whatever;
#TITLETRANSLIT:;
#SUBTITLETRANSLIT:;
#ARTISTTRANSLIT:;
#CREDIT:;
#BANNER:Wake Up-Banner.png;
#BACKGROUND:Wake Up-BG.png;
#LYRICSPATH:;
#CDTITLE:;
#MUSIC:Wake Up.mp3;
#OFFSET:-0.015;
#SAMPLESTART:45.100;
#SAMPLELENGTH:11.960;
#SELECTABLE:YES;
#BPMS:0.000=135.036;
#STOPS:;
#BGCHANGES:;
// cache tags:
#FIRSTBEAT:8.000;
#LASTBEAT:232.000;
#SONGFILENAME:Songs/other/Wake Up/Wake Up.sm;
#HASMUSIC:1;
#HASBANNER:1;
#MUSICLENGTH:104.620;
// end cache tags

//---------------dance-single - ----------------
#NOTES:
     dance-single:
     :
     Hard:
     8:
     0.569,0.499,0.096,0.325,0.344,373.000,10.000,34.000,0.000,0.000:
0000
0000
0000
0000
,
0000
0000
0000
0000
,
1000
0100
0010
0100
0010
0100
0010
0100
,
0001
1000
0010
1000
0010
0100
0001
0100
,
0010
1000
0010
0100
0001
0100
0010
1000
,
0010
1000
0100
0010
0001
0010
0100
0010
,
0100
0010
1000
0010
0100
0010
0100
0001
,
0100
0010
1000
0010
0100
0010
0100
0001
,
0100
0010
0100
0010
1000
0010
0100
0010
,
2002
0000
0000
0000
0000
3000
0103
0000
,
0010
1000
0010
0100
0001
0100
0010
0100
,
0010
0100
0010
1000
0001
0100
0010
0100
,
0010
1000
0100
0010
0001
0010
0100
1000
,
0020
0000
0000
0130
,
0010
1000
0001
0100
0010
0000
0001
0000
,
0001
0100
0010
1000
0010
0100
0010
0100
,
0010
0100
0010
1000
0010
0100
0010
0100
,
1002
0000
0000
0003
0100
0000
1100
0000
,
0010
1000
0010
0100
0001
0000
0000
0000
,
0010
1000
0000
1000
0100
0000
0110
0000
,
1001
0000
0000
0010
1010
0000
0000
0001
,
0101
2000
3200
0310
,
0001
0000
0000
1000
1000
0000
0000
0001
,
0001
0000
0000
1000
1000
0000
0000
0010
,
0010
0000
0000
0100
0100
0000
1000
0000
,
1000
0000
0000
1000
0100
0000
0010
0000
0200
0000
0000
0000
0310
0000
0000
0000
,
0000
0000
0010
1000
0000
0000
0010
0100
0000
0000
0001
0100
0000
0000
0010
1000
,
0000
0000
0010
0100
0000
0000
0010
0100
0000
0000
0010
1000
0010
1000
0010
0000
,
0000
0000
1000
0100
0000
0000
0010
0100
0000
0000
0010
0100
0000
0000
0010
0100
,
2000
0000
0000
0000
3200
0000
0000
0000
0320
0000
0000
0000
0230
0000
0000
0300
,
0000
0000
0010
1000
0000
0000
0001
0100
0000
0000
0010
0100
0000
0000
0010
1000
,
0000
0000
0001
0100
0000
0000
0010
0100
0000
0000
1000
0100
1000
0100
0010
0000
,
0000
0000
0100
0010
0000
0000
0010
0100
0000
0000
0010
0100
0000
0000
0010
1000
,
0020
0000
0000
0000
2030
0000
0000
0000
3002
0000
0000
0003
0200
0000
0000
0300
,
0000
0000
1000
0010
0000
0000
0100
0010
0000
0000
0010
1000
0000
0000
0001
0100
,
0000
0000
0010
1000
0000
0000
0010
1000
0000
0000
0010
1000
0010
1000
0010
1000
,
0000
0000
0001
0100
0000
0000
0010
0100
0000
0000
0010
0100
0000
0000
0010
0100
,
0020
0000
0000
0000
2030
0000
0000
0000
3002
0000
0000
0003
0200
0000
0000
0300
,
0000
0000
0010
1000
0000
0000
0010
0100
0000
0000
0001
0100
0000
0000
0010
0100
,
0000
0000
0010
1000
0000
0000
0100
1000
0000
0000
0010
0100
0010
0100
0010
0000
,
0000
0000
0010
1000
0000
0000
0010
0100
0000
0000
0001
0100
0000
0000
0010
0100
,
0020
0000
0000
0000
2030
0000
0000
0000
3002
0000
0000
0000
0203
0000
0000
0300
,
0010
0000
1000
0100
0000
0000
0010
0100
0000
0000
0000
0000
1001
0000
0000
0000
,
0000
0000
0000
0000
0010
1000
0000
0000
0000
0000
0001
0100
0001
0100
0001
0000
,
0000
0000
0010
1000
0000
0000
0010
1000
0000
0000
0010
1000
0000
0000
0010
1000
,
0020
0000
0000
0000
2030
0000
0000
0000
3002
0000
0000
0003
0200
0000
0000
0300
,
0000
0000
0010
1000
0000
0000
0010
1000
0000
0000
0010
1000
0000
0000
0010
1000
,
0000
0000
0010
1000
0000
0000
0010
1000
0000
0000
0010
1000
0010
1000
0010
1000
,
0000
0000
0010
1000
0000
0000
0010
1000
0000
0000
0010
1000
0000
0000
0010
1000
,
0020
0000
0000
0030
2000
0000
0000
0000
3002
0000
0000
0000
0203
0000
0000
0000
,
0310
0010
1000
0010
0100
0001
0100
0010
,
0100
0010
1000
0010
0100
0001
0100
0010
,
1000
0100
0010
0001
1000
0100
0010
0001
,
0002
0000
0000
0013
,
0010
1000
0010
0100
0001
0100
0010
1000
,
0010
0100
0001
0100
0010
1000
0010
0100
,
0001
0100
0010
1000
0010
0100
0010
0100
,
0001
1000
0010
0100
1001
0000
2002
0000
,
3003
0000
0000
0000
;

//---------------dance-single - ----------------
#NOTES:
     dance-single:
     :
     Medium:
     6:
     0.437,0.469,0.430,0.306,0.000,243.000,45.000,32.000,0.000,0.000:
0000
0000
0000
0000
,
0000
0000
0000
0000
,
1000
1100
0010
0101
,
0010
1010
0010
0110
,
0001
1001
0010
1010
,
0001
0101
1000
1100
,
0010
1010
0001
0011
,
0001
0101
0010
1010
,
0010
0110
1000
1100
,
2002
0000
0000
3003
,
0010
1010
0010
0011
,
0000
0100
0000
0100
0000
0000
1010
0000
,
0000
0110
0000
1001
0000
0010
1000
0000
,
2200
0000
0000
3300
,
0010
0010
1000
0100
,
0000
0010
0000
1001
0000
0000
0010
0000
,
1000
0100
0010
0001
,
1001
0110
0020
1030
,
0001
0000
0000
1000
0100
0000
0000
1000
,
0100
0000
0000
0010
0100
0000
0001
0000
,
1000
0000
0000
0001
0100
0000
0000
0010
,
1000
1000
0100
0200
,
0310
0000
0000
0001
0100
0000
0000
0010
,
0100
0000
0000
0100
1000
0000
1100
0000
,
0010
0000
0000
1000
0100
0000
0010
0000
,
1002
0203
0320
1030
,
0000
1100
0000
0010
0000
0100
0000
0001
,
0000
1000
0000
0100
0000
0010
0010
0010
,
0000
0100
0000
1000
0000
0100
0000
0100
,
2000
3200
0320
0032
,
0003
0100
0000
1000
0000
0010
0000
0001
,
0000
0010
0000
0100
0000
1000
0100
1000
,
0000
0010
0000
0100
0000
0001
0000
1000
,
0200
0320
2030
3002
,
0003
0100
0000
1000
0000
0100
0000
0010
,
0000
0001
0000
0010
0000
0100
1000
0100
,
0000
0010
0000
0001
0000
0100
0000
1000
,
0200
0320
2030
3002
,
0003
0100
0000
0010
0000
1000
0000
1000
,
0000
0001
0000
0001
0000
0100
0010
1000
,
0000
0001
0000
0100
0000
0010
0000
1000
,
0002
0203
0320
2030
,
3010
0100
0010
0000
1000
0001
0100
0000
,
0000
0100
0000
1100
0000
0010
0100
0010
,
0000
0101
0000
1010
0000
0110
0000
1001
,
1002
2003
3002
1003
,
0000
0110
0000
1010
0000
0101
0000
1100
,
0000
0011
0000
0101
0000
0010
0010
0010
,
0000
1100
0000
0101
0000
0011
0000
1000
,
2002
0000
0000
0000
0000
0000
0000
3003
,
0010
0100
0010
1000
0001
0100
0010
0100
,
0010
0100
0010
0100
0010
0100
0010
0100
,
0010
0100
0010
0100
0010
0100
0010
0100
,
0020
0000
0000
0130
,
0010
1000
0010
1000
0010
1000
0010
1000
,
0010
1000
0010
1000
0010
1000
0010
1000
,
0010
1000
0010
1000
0010
1000
0010
1000
,
1010
0101
0200
0310
;

//---------------dance-single - ----------------
#NOTES:
     dance-single:
     :
     Easy:
     3:
     0.257,0.331,0.143,0.210,0.000,151.000,15.000,22.000,0.000,0.000:
0000
0000
0000
0000
,
0000
0000
0000
0000
,
0000
1000
0000
0001
,
0000
1000
0000
0001
,
0000
1000
0000
0001
,
2002
3000
0000
0000
,
0103
0010
0000
1000
,
0000
1000
0000
0001
,
0000
0100
0000
0010
,
2002
0000
0000
0000
0000
0000
0000
3003
,
0000
0010
0000
0100
,
0000
1000
0000
0001
,
0000
0010
0000
0100
,
2002
0000
0000
3003
,
0000
0010
0000
1000
,
0000
0001
0000
0100
,
0000
1000
0000
0001
,
0000
1000
0200
1300
,
0010
0000
1000
0000
,
0001
0000
1001
1001
,
0010
0000
0100
0000
,
0010
0000
2000
3100
,
0010
0000
0001
0000
,
1000
0000
0001
1000
,
0010
0000
0100
0000
,
0020
0000
0100
0130
,
0000
0010
0000
0010
0000
0010
0000
0010
,
0000
0010
0000
0010
0000
0000
0000
0000
,
0000
0100
0000
0100
0000
0100
0000
0100
,
2000
0000
0000
0000
0000
0000
0000
3000
,
0000
0001
0000
1000
0000
0001
0000
1000
,
0000
0001
0000
1000
0000
0000
0000
0000
,
0000
0001
0000
1000
0000
0001
0000
1000
,
0020
0000
0000
0000
0000
0000
0000
0030
,
0000
1000
0000
0100
0000
0010
0000
0001
,
0000
0010
0000
0100
0000
1000
0000
0100
,
0000
0010
0000
0001
0000
0100
0000
1000
,
0200
0320
0032
2003
,
3000
0010
0000
0100
0000
0001
0000
1000
,
0000
0100
0000
0010
0000
0002
0000
0003
,
0000
1000
0000
0010
0000
0100
0000
0001
,
2000
0000
0001
0000
0010
0000
0100
3000
,
0010
1000
0000
0101
,
0000
1010
0000
0110
,
0000
1001
0000
0110
,
0002
0000
0000
0000
1000
0000
1000
0003
,
1000
0100
0000
0100
,
0000
0100
0000
0010
,
0000
0010
0000
0010
,
2002
0000
0000
0000
0000
0000
0000
3003
,
1000
0001
1000
0001
,
1000
0001
1000
0001
,
1000
0001
1000
0001
,
2002
0000
0000
0000
0000
0000
0000
3003
,
0010
0110
0010
0100
,
0010
0100
0010
0100
,
0100
0100
1000
0001
,
1000
0001
1001
1001
;
