#TITLE:Rip Roar Power;
#SUBTITLE:;
#ARTIST:The Quick Brown Fox;
#TITLETRANSLIT:;
#SUBTITLETRANSLIT:;
#ARTISTTRANSLIT:;
#CREDIT:;
#BANNER:rip roar bn.png;
#BACKGROUND:rip roar bg.png;
#LYRICSPATH:;
#CDTITLE:;
#MUSIC:Rip Roar Power.ogg;
#OFFSET:-0.210;
#SAMPLESTART:16.471;
#SAMPLELENGTH:13.688;
#SELECTABLE:YES;
#BPMS:0.000=280.535;
#STOPS:;
#BGCHANGES:;
// cache tags:
#FIRSTBEAT:20.000;
#LASTBEAT:481.000;
#SONGFILENAME:Songs/SPEEEDCOOOORE 3/Rip Roar Power - [Aoreo]/Rip Roar Power.sm;
#HASMUSIC:1;
#HASBANNER:1;
#MUSICLENGTH:104.158;
// end cache tags

//---------------dance-single - J. Nero----------------
#NOTES:
     dance-single:
     J. Nero:
     Challenge:
     14:
     1.000,1.000,0.643,1.000,0.547,574.000,67.000,188.000,0.000,29.000:
0000
0000
0000
0000
,
0000
0000
0000
0000
,
0000
0000
0000
0000
,
0000
0000
0000
0000
,
0000
0000
0000
0000
,
2002
3003
0000
0000
0000
0000
2020
3030
0000
0000
0000
0000
0220
0330
0000
0000
,
0000
0000
0000
0000
,
0222
0333
0000
0000
0000
0000
0222
0333
,
0000
0000
0000
0000
,
0022
0033
0000
0000
0000
0000
0220
0330
0000
0000
0000
0000
2200
3300
0000
0000
,
0000
0000
0000
0000
,
2202
3303
0000
0000
0000
0000
2202
3303
,
0000
0000
0000
0000
,
2002
3003
0000
0000
0000
0000
0202
0303
0000
0000
0000
0000
0220
0330
0000
0000
,
0000
0000
0000
0000
,
2220
3330
0000
0000
0000
0000
2220
3330
,
0000
0000
0000
0000
,
2222
3333
0000
0000
,
0000
0000
0000
0000
,
0002
0000
0000
0000
0000
0000
0000
0000
2003
0000
0000
3000
0020
0000
0000
0000
0000
0000
0000
0030
0200
0000
0000
0300
0020
0000
0000
0000
0000
0000
0000
0030
,
2000
0000
0000
0000
0000
0000
0000
0000
3200
0000
0000
0300
0020
0000
0000
0030
0002
0000
0000
0000
0000
0000
0000
0003
0200
0000
0000
0000
0000
0000
0000
0300
,
1111
0000
0000
0000
0000
0000
0000
0000
1000
0010
1000
0001
0010
0100
1000
0001
,
1000
0001
0010
0100
1000
0010
0100
0001
,
0010
0000
0100
0000
1000
0000
0010
0000
0100
0000
0001
0010
0001
0000
1000
0100
,
0010
0001
0100
0010
1000
0100
1000
0001
,
0100
0000
0010
0000
0010
0000
1000
0000
0001
0000
0001
0000
0010
0100
1000
0001
,
1000
0000
0001
0000
1000
0000
0010
0000
0100
0000
0001
0000
1000
0010
1000
0100
,
0010
0000
0001
0000
0010
0000
0100
0000
1000
0000
0020
0000
0130
0001
1000
0001
,
0010
0100
1000
0010
0100
0010
1000
0001
,
1000
0010
1000
0000
0001
0000
0010
0100
0010
0000
0100
0000
2000
0000
0000
3000
,
0001
0000
0001
0000
1000
0001
0100
0001
1000
0000
0001
0000
0010
0000
0100
0000
,
0010
0001
1000
0010
1000
0002
0023
0230
,
1300
0010
1000
0010
0100
0001
0010
0100
,
1000
0000
0001
0000
0001
0000
1000
0000
0010
0000
0010
0000
0400
0300
0004
0003
,
1000
0100
0010
0000
0001
1000
0001
0000
1000
0000
0001
0000
0100
0001
1000
0100
,
1000
0000
0001
0000
0010
0000
0100
0000
1000
0000
0002
0000
0103
0010
1000
0001
,
1000
0001
0010
0100
1000
0001
0100
0010
,
1000
0100
1000
0000
0001
0000
1000
0100
0010
0000
0001
0000
2000
0000
3000
0000
,
1001
0000
0000
0000
0001
0100
0001
1000
0100
0010
0001
1000
0004
0000
0003
0000
,
1000
0100
1000
0001
0010
0100
1000
0000
0001
0000
0100
0001
0100
0000
0040
0000
,
1030
0001
1000
0000
0001
0100
0001
0000
0100
0010
1000
0001
0200
0300
0002
0003
,
0020
0030
0100
1000
0100
0000
1000
0001
1000
0000
0001
0000
4000
3000
0040
0030
,
0100
0001
0100
0010
1000
0001
0010
0001
1000
0100
0010
0001
4000
3000
0004
0003
,
1000
0000
0001
0000
0040
0000
0000
0030
0200
0000
1300
0001
1000
0010
0100
0000
,
0001
0100
0001
1000
0100
0010
0001
0000
1000
0000
0001
0000
0400
0000
0000
0300
,
0001
0000
1000
0000
1000
0000
0040
0030
0100
0000
0001
0000
0020
0000
0030
0000
,
0001
0100
0001
1000
0010
0100
0010
1000
0001
0010
0100
1000
0001
0100
0001
0000
,
4000
3000
0100
0000
4000
3000
0010
0000
0100
0000
0001
1000
0400
0000
0000
0300
,
1000
0000
0001
0000
0010
0000
0100
0000
1000
0000
0001
0000
0100
0010
0100
0001
,
2000
3000
2002
3003
2002
3003
2002
3003
,
0220
0330
0000
0000
0000
0000
0202
0303
0000
0000
0000
0000
2002
3003
0000
0000
,
0000
0000
0000
0000
,
2202
3303
0000
0000
0000
0000
2202
3303
,
0000
0000
0000
0000
,
0022
0033
0000
0000
0000
0000
0220
0330
0000
0000
0000
0000
2200
3300
0000
0000
,
0000
0000
0000
0000
,
2220
3330
0000
0000
0000
0000
2220
3330
,
0000
0000
0000
0000
,
0220
0330
0000
0000
0000
0000
0022
0033
0000
0000
0000
0000
2002
3003
0000
0000
,
0000
0000
0000
0000
,
2022
3033
0000
0000
0000
0000
2022
3033
,
0000
0000
0000
0000
,
2020
3030
0000
0000
0000
0000
0220
0330
0000
0000
0000
0000
0202
0303
0000
0000
,
0000
0000
0000
0000
,
0222
0333
0000
0000
0000
0000
0222
0333
,
0000
0000
0000
0000
,
2222
3333
0000
0000
,
0000
0000
0000
0000
,
0002
0000
0000
0000
0000
0000
0000
0000
2003
0000
0000
3000
0020
0000
0000
0000
0000
0000
0000
0030
0200
0000
0000
0300
0020
0000
0000
0000
0000
0000
0000
0030
,
1101
0000
0000
0000
0000
0000
0000
0000
1000
0001
0010
0100
1000
0001
0100
0001
,
1000
0010
0100
0001
,
0010
0000
0100
0000
1000
0000
0001
0100
,
0010
1000
0100
0010
,
0001
0000
0000
0000
0100
0000
0000
0000
0001
0100
0001
1000
0010
0000
1000
0000
,
0100
0010
0100
1000
,
0010
0000
0000
0000
0100
0000
0000
0000
0001
0000
0000
0000
1000
0100
0010
0001
,
1000
0001
0010
0100
,
0020
0000
0000
0000
0031
0000
0100
0000
0001
1000
0001
0100
0040
0000
0000
0030
,
0100
0001
0010
0100
,
1000
0000
0010
0000
0100
0000
0010
1000
,
0100
0010
0001
0100
,
0010
0000
0000
0000
1000
0000
0000
0000
0001
0100
0001
1000
0010
0000
0100
0000
,
0001
1000
0100
0010
,
0100
0000
0000
0000
1000
0000
0000
0000
0001
0000
0000
0000
0100
0001
1000
0001
,
0200
0000
0000
0000
,
1311
0000
0000
0000
0000
0000
0000
0000
1000
0010
1000
0001
0010
0100
1000
0001
,
1000
0001
0010
0100
1000
0001
0100
0010
,
1000
0000
0001
0000
0010
0000
0100
0000
1000
0000
0001
0100
0001
0000
1000
0100
,
0010
0001
1000
0100
0010
0100
1000
0010
,
0100
0000
0001
0000
0001
0000
0010
0000
0100
0000
0100
0000
1000
0001
1000
0010
,
0100
0000
0001
0000
0010
0000
0100
0000
1000
0000
0001
0000
1000
0100
1000
0001
,
0100
0000
0001
0000
0100
0000
0010
0000
1000
0000
0001
0010
0100
1000
0001
0100
,
0001
0100
0010
1000
0001
1000
0010
0100
,
0001
1000
0001
0000
1000
0000
0010
0100
0010
0000
1000
0000
0002
0000
0000
0000
,
0013
0000
0100
0000
4000
0000
0000
3000
0001
0000
0100
0000
0010
0000
0100
0000
,
0001
0010
0100
1000
0001
2000
3200
0320
,
0031
0100
0001
1000
0010
0100
0001
1000
,
0100
0000
0100
0000
0010
0000
0001
0000
0001
0000
1000
0000
0040
0030
0400
0300
,
0001
1000
0001
0000
1000
0010
1000
0000
0001
0000
0100
0000
0001
1000
0001
0100
,
0010
0000
0100
0000
0001
0000
1000
0000
0100
0000
1000
0100
1000
0001
0100
0010
,
1000
0001
0100
0001
1000
0010
0100
0001
,
0010
0100
0010
0000
0100
0000
1000
0001
1000
0000
0001
0000
0200
0000
0000
0300
,
0202
0303
0000
0000
0000
0000
2002
3003
0000
0000
0000
0000
2200
3300
0000
0000
,
0000
0000
0000
0000
,
2220
3330
0000
0000
0000
0000
2220
3330
,
0000
0000
0000
0000
,
0220
0330
0000
0000
0000
0000
0022
0033
0000
0000
0000
0000
2002
3003
0000
0000
,
0000
0000
0000
0000
,
2202
3303
0000
0000
0000
0000
2202
3303
,
0000
0000
0000
0000
,
2200
3300
0000
0000
0000
0000
0220
0330
0000
0000
0000
0000
0022
0033
0000
0000
,
0000
0000
0000
0000
,
0222
0333
0000
0000
0000
0000
0222
0333
,
0000
0000
0000
0000
,
0220
0330
0000
0000
0000
0000
2020
3030
0000
0000
0000
0000
2002
3003
0000
0000
,
0000
0000
0000
0000
,
2022
3033
0000
0000
0000
0000
2022
3033
,
0000
0000
0000
0000
,
1121
0000
0000
0030
2000
0000
3002
0000
0000
0000
0000
0000
,
0000
0000
0000
0000
0000
0000
0000
0000
0000
0000
0000
0000
0000
0000
0000
0000
0000
0000
0000
0000
0000
0000
0000
0000
0000
0000
0000
0000
0000
0000
0000
0000
0000
0000
0000
0000
0000
0000
0000
0000
0000
0000
0000
0000
0000
0000
0000
0000
0000
0000
0000
0000
0000
0000
0000
0000
0000
0000
0000
0000
0000
0000
0000
0003
,
2222
3333
0000
0000
;
