#TITLE:ヒマワリ;
#SUBTITLE:himawari;
#ARTIST:小坂りゆ;
#TITLETRANSLIT:;
#SUBTITLETRANSLIT:;
#ARTISTTRANSLIT:Kosaka Riyu;
#CREDIT:;
#BANNER:himawari-bn.png;
#BACKGROUND:himawari-bg.png;
#LYRICSPATH:;
#CDTITLE:!varia.png;
#MUSIC:Himawari.mp3;
#OFFSET:-0.280;
#SAMPLESTART:32.880;
#SAMPLELENGTH:11.760;
#SELECTABLE:YES;
#BPMS:0.000=185.000;
#STOPS:;
#BGCHANGES:;
// cache tags:
#FIRSTBEAT:0.000;
#LASTBEAT:343.000;
#SONGFILENAME:Songs/Fresh Flock of Fantastic Files F4/(Varia) Himawari/Himawari.sm;
#HASMUSIC:1;
#HASBANNER:1;
#MUSICLENGTH:116.637;
// end cache tags

//---------------dance-single - ----------------
#NOTES:
     dance-single:
     :
     Hard:
     11:
     1.000,1.000,1.000,0.000,0.296,726.000,372.000,0.000,0.000,0.000:
0110
0001
0110
1010
0100
0001
0110
0101
,
0010
1000
0110
1010
0100
0001
0110
0101
,
1001
0100
1001
0010
1001
0100
1001
0010
,
1001
0000
0010
0000
0100
0000
0001
0000
0010
0000
0100
0000
0001
0010
0100
1000
,
0110
0001
0110
1010
0100
0001
0110
0101
,
0010
1001
0110
0101
0011
1000
0110
1010
,
0100
0000
0010
0000
1000
0000
0001
0000
1000
0100
0010
0001
1000
0001
0010
0100
,
1001
0100
0001
0100
0010
0000
0000
0000
1001
0010
1000
0010
0100
0000
0000
0000
,
1001
0010
0100
0010
1001
0100
0010
0100
1001
0000
0010
1000
0100
0000
0011
0000
,
0110
0001
1010
0110
1001
0010
1100
0110
,
1000
0101
1010
0100
1001
0010
0101
1000
,
0011
0100
1010
0001
0110
1000
0101
0011
,
0100
1010
1001
0100
0011
0100
1100
0001
,
0110
1000
0101
0010
1001
0100
1010
0110
,
0001
0110
0101
1000
1010
0001
1000
0110
,
0101
0000
1000
0100
0011
0000
0101
0000
1010
0000
0001
0000
0011
0000
1100
0000
,
0001
0101
1001
0101
0010
0100
0010
0100
,
1001
0001
0110
0100
1010
0001
1100
0101
,
0010
1100
0110
0101
1010
0100
0011
1001
,
1010
0001
1100
0010
0101
1000
0110
1010
,
0001
0110
0101
1010
0011
0001
1010
0100
,
0011
0010
1100
0001
0110
1000
0011
1010
,
0001
0110
1010
0100
0011
1000
0001
1010
,
0110
1000
0011
0110
1100
0010
0011
0101
,
0010
1100
0110
0001
0110
1000
0110
0001
,
0110
1100
1010
0110
0001
0101
0110
1010
,
0011
1001
0110
1100
0001
1000
0101
0011
,
0101
1010
1100
0101
0010
0100
1010
0101
,
0011
0110
1010
1001
0100
0010
1000
0001
,
1010
0100
0011
1000
1100
0001
0110
1010
,
0001
0100
1001
0010
0101
1000
0110
0101
,
0010
1000
0101
1000
0110
1001
0101
1010
,
0100
0000
0000
0000
0011
0000
0000
0000
0101
0000
0000
0000
0010
0000
0000
0000
1010
0000
0000
0000
0001
0000
0000
0000
0110
0000
0000
0000
0000
0000
1000
0100
,
0011
0000
0000
0000
0000
0000
0000
0000
1100
0000
0000
0000
0000
0000
0000
0000
1100
0000
0000
0000
0000
0000
0000
0000
0011
0000
0000
0000
0000
0000
0001
0000
0000
0010
0000
0000
1100
0000
0000
0000
0000
0000
0000
0000
0000
0000
0000
0000
,
0110
1010
1100
0110
0001
1010
0101
0011
,
0100
1000
0001
1000
0110
0001
1100
0100
,
1010
0010
0011
1100
0001
1001
1010
0110
,
1000
0011
0101
0100
1010
0100
0010
0100
,
1001
0110
0101
0011
0100
1010
0101
0011
,
0100
1000
0101
0001
0110
1000
0010
0101
,
1010
0100
1001
0011
0100
1010
0001
0011
,
0100
0000
1000
0000
0001
0000
1000
0000
0011
0100
1000
0000
1010
0000
0110
0000
,
0011
1000
0101
1010
0100
1010
0101
1010
,
0100
1000
0100
1000
0101
1000
0101
1000
,
0101
1000
0101
1010
0100
1010
0101
1010
,
0100
1010
0101
0010
1100
0001
0100
0001
,
0110
1010
1100
0101
1000
0110
0101
0011
,
1010
0001
0101
1000
1010
0001
0101
1000
,
1010
0001
0110
0101
0010
1000
0011
0100
,
1010
0100
0011
0000
0010
0100
1010
0000
0100
0001
0110
1000
0010
0100
0010
1000
,
0001
0001
0001
1000
0000
0001
0001
1000
,
0000
0001
0001
1010
0101
0110
0101
0110
,
0011
0001
0001
1000
0000
0001
0001
1000
,
0000
0001
0001
1010
0101
0010
0101
0110
,
0011
0001
0001
1000
0000
0001
0001
1000
,
0000
0000
0001
0000
0001
0000
1010
0100
0001
0000
0000
0000
0101
0000
0110
0000
,
0101
0000
0000
0000
0000
0000
0100
0001
0010
0000
0000
0000
0100
0001
0010
0100
,
1000
0010
1000
0000
0100
0001
0010
0000
0100
0001
0000
0000
0100
0001
0010
0100
,
1010
1100
0110
0011
0001
0110
1010
0100
,
0011
0101
1010
1100
0001
0100
0011
1001
,
1010
0110
0101
1010
0100
0110
0101
1001
,
1010
0110
0011
0101
1000
0001
0001
0001
,
1010
1000
0101
0001
1010
1000
0101
0011
,
1000
0001
1100
1000
1010
0010
0110
0101
,
0010
0100
1010
0100
0011
0101
1010
1100
,
1000
0000
0011
0000
1001
0000
0010
0000
0110
0000
1000
0000
1010
0000
0001
0010
,
1100
0000
0101
0000
0101
0000
0101
0000
0101
0000
0101
1000
,
0101
0010
0100
1001
0000
0000
0110
0000
0000
0110
0000
0000
,
0110
1010
1001
0101
0010
1100
1010
0101
,
1001
0100
0010
1000
0101
0001
0011
1000
,
0110
0101
1010
1100
0010
0101
1001
1010
,
0001
0000
1100
0000
1010
0000
0100
0000
0110
0000
0001
1000
0001
1000
0001
1000
,
0101
0011
1100
1010
0100
1001
0101
1010
,
0001
0100
1010
0001
0101
1000
1010
0001
,
0101
0000
1000
0000
1010
0000
0110
0000
0001
0000
1100
0000
0001
0000
0011
0100
,
1000
0000
0001
0000
0001
0000
0001
0010
1100
0010
0100
0001
1000
0001
0100
0010
,
1100
1010
0011
0101
1000
0110
0101
1001
,
0100
0001
1000
0001
1010
1000
0101
0001
,
1010
1000
0101
1001
0100
1010
1100
0110
,
0001
0101
1001
0010
1010
0101
0011
0100
,
1010
1001
0101
0110
0010
1010
1100
0110
,
0101
0100
1010
1000
0101
0001
1010
1000
,
0101
0001
1010
1100
0001
0100
1001
0100
,
1010
0000
1100
0000
0010
0100
1010
0100
0001
0100
0001
1000
0010
1000
0001
1000
,
0011
0100
1000
0010
1000
0000
0000
0000
1100
0010
0001
0100
0001
0000
0000
0000
,
0011
0100
0010
0100
1010
0100
0010
0100
0011
0000
0010
0100
1001
0000
0000
0000
;
