#TITLE:Jewelry tears;
#SUBTITLE:Oretachi ni Tsubasa wa Nai OP the,e;
#ARTIST:Misato Aki;
#TITLETRANSLIT:;
#SUBTITLETRANSLIT:;
#ARTISTTRANSLIT:;
#CREDIT:ALICE_;
#BANNER:Jewelry tears.png;
#BACKGROUND:Jewelry tears.jpg;
#LYRICSPATH:;
#CDTITLE:cdtitle.png;
#MUSIC:Jewelry tears.mp3;
#OFFSET:0.680;
#SAMPLESTART:77.440;
#SAMPLELENGTH:12.000;
#SELECTABLE:YES;
#BPMS:0.000=155.000;
#STOPS:;
#BGCHANGES:1.750=Jewelry tears.avi=1.000=1=0=1,
99999=-nosongbg-=1.000=0=0=0 // don't automatically add -songbackground-
;
// cache tags:
#FIRSTBEAT:4.000;
#LASTBEAT:312.250;
#SONGFILENAME:Songs/alice 4th complete step/Jewelry tears/Jewelry tears.sm;
#HASMUSIC:1;
#HASBANNER:1;
#MUSICLENGTH:125.029;
// end cache tags

//---------------dance-single - ----------------
#NOTES:
     dance-single:
     :
     Hard:
     8:
     0.606,0.513,0.296,0.016,0.000,491.000,37.000,2.000,0.000,0.000:
0000
0000
0000
0000
,
1000
0010
0100
0001
0010
0100
1000
0010
,
0000
0100
0001
1000
,
0001
0010
0100
1000
0010
0100
0001
0010
,
0000
0100
1000
0001
,
1000
0010
0100
0010
1000
0100
0010
0001
,
0000
1000
0100
1000
,
0001
0010
0100
0010
0001
0100
0010
1000
,
0000
0001
0100
1001
,
0100
0010
0100
1000
0100
0001
0010
0100
,
0000
0000
1000
0001
0100
0001
1000
0000
,
0010
0001
0010
0100
0001
1000
0100
0010
,
0000
0000
0001
1000
0100
1000
0001
0000
,
0100
0010
1000
0100
0010
0001
0100
0010
,
0000
0000
1000
0100
0001
0100
1000
0000
,
0010
0100
0001
0010
0100
1000
0010
0100
,
0000
0001
0010
1000
0001
0100
0010
1000
,
1100
0000
0110
0000
1000
0100
1000
0010
,
0000
0100
1000
0100
0001
0010
0100
0000
,
0011
0000
0110
0000
0001
0100
0001
0010
,
0000
0100
0001
0100
1000
0010
0100
0000
,
1001
0000
0110
0000
1000
0001
0100
1000
,
0000
0100
0010
0100
0001
1000
0010
0100
,
0001
0000
0110
0000
0001
1000
0100
0001
,
0000
0100
0010
0100
1000
0001
0101
0000
,
1001
0100
0010
0001
1000
1000
0100
1000
,
0000
0010
0100
0010
0100
0001
1000
0000
,
1001
0000
0101
0000
1001
1000
0100
1000
,
0010
0100
0010
1000
0001
0010
0100
0000
,
1001
0000
0100
0010
1000
1000
0001
0100
,
0000
0010
0100
0010
1000
0001
0010
0000
,
1100
0000
0101
0000
1010
0010
0100
0001
,
1000
0100
0001
0100
1000
0010
0100
0000
,
1001
0000
0101
0000
1000
0001
0100
0000
,
1000
0010
0100
0010
1000
0001
0100
0000
,
1001
0000
1100
0000
0001
1000
0100
0000
,
0001
0010
0100
0010
0001
1000
0100
1000
,
0010
0000
0101
0000
0100
1000
0010
0000
,
0100
0000
1001
0000
0010
0001
0101
0000
,
1100
0000
1010
0000
0100
0001
1000
0000
,
0010
0100
0001
0100
0010
1000
0100
0010
,
0001
0000
1100
0000
1000
0001
0100
0000
,
0010
1000
0010
0100
0010
0001
0010
1000
,
0100
0000
0101
0000
0001
1000
0100
0000
,
0010
0001
0010
0100
0010
1000
0100
0010
,
0001
0000
1100
0000
0010
1000
0001
0010
,
0000
0100
1000
0000
0001
0100
1000
0000
,
0100
0001
0010
0001
0100
0001
0010
1000
,
0000
0010
0001
0100
0010
1000
0010
0001
,
0110
0000
1001
0000
0100
0001
0010
1100
,
0000
1000
0001
0100
0001
1000
0100
0100
,
0010
0001
1000
0001
0010
0001
1000
0001
,
0100
0010
1000
0100
0001
1000
0010
0001
,
1000
0100
0010
0100
1000
0100
0010
0100
,
1000
0001
0100
0010
1000
0001
0010
0100
,
1000
0010
1000
0001
1000
0100
1000
0010
,
0000
0100
1000
0100
0001
0010
0001
0000
,
1000
0100
1000
0001
0100
0001
0010
0110
,
0000
1000
0001
0000
0100
1000
0100
0001
,
0010
0100
0010
0100
1000
0100
0010
0001
,
0100
1000
0100
0010
1000
0001
0010
0100
,
1000
0001
1000
0001
0010
0001
0100
1000
,
0100
0001
0010
0001
1000
0001
0010
0100
,
1000
0010
0001
0010
1000
0100
0010
0011
,
0000
0100
1000
0100
0001
1000
0100
0000
,
0011
0100
1000
0000
1010
0100
0001
0010
,
0000
0100
1000
0001
0010
1000
0100
0010
,
0001
0100
1000
0100
0001
0010
0100
1000
,
0000
0000
0100
0010
1000
0001
0100
0010
,
1000
0100
0001
0100
1000
0010
0100
0001
,
0000
0000
0010
0100
1000
0001
0100
0010
,
1000
0100
1000
0010
0100
1000
0100
0001
,
0000
0000
1000
0010
1000
0010
0100
1000
,
0100
0001
1000
0001
1000
0010
0100
0001
,
0000
1000
0010
0010
1000
0001
0100
1000
,
0202
0000
0303
0000
;

//---------------dance-single - Copied from----------------
#NOTES:
     dance-single:
     Copied from:
     Challenge:
     15:
     1.000,1.000,1.000,0.400,0.996,809.000,271.000,50.000,0.000,18.000:
0000
0000
0000
0000
,
0011
0000
1000
0100
1000
0010
0100
0001
1000
0000
0010
0000
0100
0000
1001
0000
,
0000
0000
0000
0000
1000
0000
0001
0100
0010
1000
0000
0010
0100
0000
0010
0000
,
0101
0000
1000
0100
1000
0010
0100
0001
1000
0000
0010
0000
0100
1000
0011
0000
,
0000
0000
0000
0000
0100
0000
0001
1000
0010
0100
0000
0001
0010
0000
0100
0001
,
1000
0000
0010
0001
0010
0100
1000
0010
0000
0000
0100
0000
0001
0000
1010
0000
,
0000
0000
0000
0000
0100
0000
0001
0010
0001
0100
0000
0010
1000
0000
0100
1000
,
0001
0100
0001
1000
0010
0100
0001
1000
0100
0000
0010
0000
0100
0000
1001
0000
,
0000
0000
0000
0000
0100
0000
0010
0001
1100
1000
0001
0001
0100
0010
1000
0000
,
0101
0000
0100
0000
1001
0000
0100
0011
1000
0010
0100
0000
1001
0000
0010
0000
,
1100
0010
0100
0000
1001
0000
0100
0011
1000
0010
0100
0000
1001
0000
0010
0000
,
0101
0000
0101
0000
1100
0000
0011
1000
0010
1100
0001
0000
1001
0000
0100
0000
,
0001
0000
0110
0000
1001
0000
1100
0001
0100
0011
1000
0000
0101
0000
0010
0000
,
1101
0000
0100
0000
1010
0000
0100
0011
1000
0011
0100
0000
1001
0000
0010
0000
,
0100
0001
1000
0000
0101
0000
0010
1100
0001
1100
0010
0000
1001
0100
0001
0000
,
1100
0000
0110
0000
1010
0000
0100
0011
1000
0011
0100
0000
1001
0010
1000
0000
,
0110
0000
0110
0000
0011
0000
1100
0000
0101
0000
1000
0010
0100
0001
1000
0100
,
1010
0000
0010
0000
1001
0000
0010
1000
0010
0000
0110
0000
0011
0000
0100
0000
,
1001
0000
0001
0000
1010
0000
0001
0100
0001
0000
0011
0000
1001
0000
0010
0000
,
0101
0000
0100
0000
1001
0000
0100
0010
0100
0000
1100
0000
0101
0000
1010
0000
,
0100
0011
1100
0001
1010
1000
0101
1000
,
0110
0000
0010
0000
1001
0000
0100
0010
0100
0000
1100
0000
0101
0000
0010
0000
,
0001
0000
1100
0000
0011
0000
0100
1000
0100
0000
0011
0000
1100
0000
0010
0000
,
0101
0000
0100
0000
0011
0000
1000
0100
1000
0000
1010
0000
0101
0000
0010
0000
,
1000
1001
0110
0001
1010
1010
0101
0010
,
2011
3000
0200
0300
1020
0030
0002
0003
1010
0000
1010
0000
0001
0000
0220
0000
,
0000
0000
1330
0000
0101
0000
0010
0000
1100
0010
1100
0000
0011
0000
0100
0000
,
2002
0000
3113
0000
0011
0011
1100
0010
,
1000
0000
0101
0000
1100
0000
0010
0000
0100
0001
1000
0000
1001
0000
0010
0000
,
0102
0000
1103
0010
1000
0101
1100
0010
,
0100
0000
1001
0000
0110
0000
1000
0000
0011
1000
0011
0000
1100
0000
0010
0000
,
0220
0000
0000
0000
1331
0000
1000
0100
0011
0000
0110
0000
1001
0000
0010
0000
,
0101
0000
0101
0000
1100
0000
0010
0010
0101
0000
1000
0000
0011
0000
0100
0000
,
1001
0010
1000
0010
0101
0000
0100
0000
1001
0010
0001
0010
1100
0000
0010
0000
,
1100
0001
0100
0001
1010
0000
0010
0000
0101
1000
0100
1000
0011
0000
0100
0000
,
1001
0100
1000
0100
0011
0000
0010
0000
0101
1000
0100
1000
0011
0000
0100
0000
,
1001
0010
0001
0010
1100
0000
0100
0000
1010
0001
0010
0001
1100
0000
0110
0000
,
2002
0000
0000
3000
0013
0100
1000
0010
0100
0001
0010
0100
1000
0010
0100
0001
,
1001
0100
1000
0100
1010
0000
0100
0010
0001
0100
0001
0100
0011
0000
0110
0000
,
2002
0000
0000
3000
1003
0100
1000
0010
0100
0010
1000
0001
0100
0010
1000
0100
,
1001
0010
0001
0010
1100
0000
0010
0000
1001
0000
0110
0001
1000
0100
1001
0010
,
0101
0000
0001
0000
1001
0000
0001
0010
0101
0000
0101
0000
1001
0000
0011
0000
,
1000
0100
1000
0010
1000
0001
1000
0010
1000
0100
1000
0010
1000
0001
1000
0010
,
0110
0000
0010
0000
1010
0000
0010
0100
0011
0000
0011
0000
1010
0000
1100
0000
,
0001
0010
0001
0100
0001
1000
0001
0100
0001
0010
0001
0100
2002
0000
3013
0000
,
2002
0000
0110
3003
1000
0010
0001
0100
0010
0001
1000
0010
0001
0100
0010
0001
,
1010
0100
1000
0100
2002
0000
0000
3003
0101
1000
0011
1000
0220
0000
0000
0330
,
0101
1000
0100
0010
0100
1000
0010
0001
1000
0100
1000
0010
0100
0001
2020
0000
,
0000
3030
0100
0000
1001
0000
0010
0000
0100
0001
0100
0000
0011
0000
0100
1000
,
0220
0000
0000
0330
1001
0000
0100
0000
0011
0000
1010
0000
0100
0000
2012
0000
,
0000
3003
0110
0001
0110
1000
0100
0010
1001
0100
1000
0010
0101
1000
0001
0010
,
0101
1000
0001
1000
0010
0100
0010
0100
1001
0010
1001
0100
0010
1000
0001
0100
,
0011
1000
0010
1000
0001
0100
0001
0100
0011
1000
0101
1000
0010
0100
1000
0010
,
0101
1000
0001
1000
0010
0100
0010
0100
1001
0010
1001
0100
0010
1000
0001
0010
,
0101
1000
0100
0010
1000
0001
0100
0010
1100
0001
1100
0010
0001
0100
0001
0010
,
0101
1000
0010
1000
0102
0000
1000
1003
0010
0100
0010
0100
1001
0000
0021
0000
,
0100
0001
1030
0000
1001
0000
0010
0001
1100
0010
1100
0000
1001
0000
0010
0000
,
0101
1000
0100
0010
0100
1000
0100
0001
0020
0000
1000
0000
0101
0000
2032
0000
,
0000
0000
3103
0000
0110
0000
0010
0000
1001
0000
0101
1000
0011
0100
1010
0000
,
0101
1000
0001
1000
0110
1000
0010
1000
0001
0000
1100
0000
0011
0000
0120
0000
,
0000
0000
0130
0000
1001
0000
0100
0001
1000
0010
1000
0100
1000
0010
0100
0010
,
1010
0001
1000
0001
0110
0001
0100
0001
1000
0100
0011
0000
1100
0000
0210
0000
,
0000
0000
0310
0000
1001
0000
0010
0001
1000
0100
1000
0010
0100
0001
1000
1000
,
0011
0100
0010
0100
0001
1000
0001
1000
0010
0000
1100
0000
0101
0000
0120
0000
,
0000
0000
1030
0000
0101
0000
0001
1000
0010
0000
1100
0000
0011
0000
0110
0000
,
1001
0100
0001
0100
0011
1000
0001
1000
0110
1000
0010
1000
0011
1100
0021
0000
,
0000
0000
0130
0000
1001
0000
1001
0001
1000
0100
0010
0011
1000
0100
0001
0011
,
1001
0000
1000
0000
0111
0000
1000
0101
1000
0000
0110
0000
0001
0000
2020
0000
,
0001
0000
3130
0000
1001
0000
0010
1100
0001
0010
0001
0000
0101
0000
0010
0000
,
1001
0000
0100
1000
0011
0100
0010
1000
0101
0000
0110
0000
0010
0100
2002
0000
,
0000
3003
0010
0000
1100
0000
0001
1000
0010
0100
0010
0000
2002
0000
0000
3003
,
1111
0000
0010
0001
1010
0100
0001
1000
0010
0100
1010
0000
1001
0000
0220
0000
,
0000
0000
0300
0000
1130
0000
0001
0010
1001
0100
0010
0100
1010
0000
0101
1000
,
0011
0000
0010
1000
0101
1000
0010
0100
1001
0000
1100
0000
0110
0000
2002
0000
,
0000
0000
3103
0000
1010
0000
1010
1010
0100
0001
0010
0011
0100
1000
0010
0110
,
2002
0000
0000
0000
,
0000
0000
0000
0000
,
0000
0000
0000
0000
0000
0000
0000
0000
0000
0000
0000
0000
0000
0000
0000
3003
,
0100
0010
0000
0000
0000
0000
0000
0000
0000
0000
0000
0000
0000
0000
0000
0000
;

//---------------dance-single - ----------------
#NOTES:
     dance-single:
     :
     Medium:
     6:
     0.498,0.453,0.320,0.352,0.000,352.000,40.000,44.000,0.000,0.000:
0000
0000
0000
0000
,
2000
0000
0000
0000
0000
0000
3000
0002
,
0000
0000
0000
0003
,
0200
0000
0000
0000
0000
0000
0300
0020
,
0000
0000
0000
0030
,
2000
0000
0000
0000
0000
0000
3000
0002
,
0000
0000
0000
0003
,
0200
0000
0000
0000
0000
0000
0300
0020
,
0000
0000
0130
0000
1000
0001
0100
0000
,
0001
0100
0001
0100
0001
0000
1000
2100
,
0000
0010
0001
3100
,
0001
0010
0001
0010
0001
0000
1000
1020
,
0000
0100
1000
0130
,
1000
0010
0100
0010
1000
0000
0001
0201
,
0000
0010
1000
0310
,
0100
0001
0010
0001
0100
0000
0010
2010
,
0000
0000
3100
0000
0001
0010
0001
0100
,
1000
0000
0101
0000
0000
1000
0010
0000
,
0100
1000
0010
0000
0100
0001
0010
0000
,
0001
0000
1100
0000
0000
0001
0010
0000
,
0100
0001
0010
0000
0100
1000
0010
0000
,
1001
0000
0110
0000
0000
1000
0001
0000
,
0100
0100
0001
0000
1000
1000
0100
0010
,
0200
0000
1300
0000
0001
0100
0010
1000
,
0000
0101
0000
1100
0000
0010
0100
0010
,
1000
0000
0101
0000
0001
0100
0010
1000
,
0000
0000
1001
0000
0100
0010
0100
0000
,
2010
3001
0102
1003
,
0020
0030
0200
0300
0002
0003
2000
3000
,
0001
0000
1100
0000
1000
0010
0100
0001
,
0000
0000
1001
0000
0010
0100
0010
0000
,
2002
0000
0000
0000
3003
0010
0100
0001
,
0000
1000
0001
0100
0010
1000
0100
0000
,
2200
0000
0000
0000
0000
0300
3000
0000
,
1000
0001
0100
0000
0001
1000
0100
0000
,
0202
0000
0000
0000
0000
0300
0003
0000
,
0001
1000
0100
0010
0000
1100
0000
2002
,
0000
0000
0000
3003
0010
0100
0010
0000
,
1000
0001
0100
0001
0000
0100
1001
0000
,
0001
0000
1100
0000
1000
0010
0100
0001
,
0000
0010
0100
0000
1000
0001
0010
1000
,
0010
0000
0001
0100
0001
0100
0010
0000
,
1000
0100
1000
0001
0100
0001
0010
0000
,
0220
0000
0000
0330
,
0100
0001
1000
0100
1000
0001
0010
0000
,
2001
0000
0100
3000
0002
0000
0100
0003
,
2000
0000
0010
3000
0002
0000
0010
0003
,
1100
0000
0101
0000
1000
0010
0100
0002
,
0000
0000
0000
0103
,
1001
0000
1000
1000
0001
0010
0100
2000
,
0000
0020
0000
0000
0000
0000
3030
0000
,
1000
0100
1000
0100
1000
0010
0100
0001
,
0000
1100
0101
1000
,
0001
0100
0001
0100
0001
0010
0100
1000
,
0000
0101
1100
0010
,
1000
0100
0001
0100
1000
0001
0100
0020
,
0000
0000
2030
3000
0002
0003
0200
0300
,
0011
0000
1100
0000
1000
0010
0100
0002
,
0000
0000
0103
0000
1000
0010
0001
0000
,
0100
0001
0100
0001
0010
0100
1000
0020
,
0000
0100
1000
0130
,
0001
0100
0001
0100
0010
1000
0100
0020
,
0000
0001
0100
0031
,
0100
1000
0100
1000
0010
0100
0001
1000
,
0000
0101
1100
0010
,
0100
1000
0100
0000
0001
0010
0001
0100
,
0000
1000
0001
0100
1000
0100
0001
0010
,
0100
0001
0100
1000
0100
0001
0100
0001
,
0000
1000
0001
0100
,
0100
1000
0100
0001
0100
1000
0100
1000
,
0000
0110
1001
0010
,
0100
1000
0001
1000
0010
0100
0001
0010
,
0000
1010
0011
0100
,
0010
0001
1000
0001
1000
0010
0100
0001
,
0000
1000
0100
1000
0001
0010
1000
0100
,
0020
0000
0030
0000
;
