#TITLE:{Losing Touch};
#SUBTITLE:;
#ARTIST:cornandbeans;
#TITLETRANSLIT:;
#SUBTITLETRANSLIT:;
#ARTISTTRANSLIT:;
#CREDIT:stargroup100;
#BANNER:Losing Touch-banner.png;
#BACKGROUND:Losing Touch-bg.png;
#LYRICSPATH:;
#CDTITLE:!star.png;
#MUSIC:{Losing Touch}.mp3;
#OFFSET:-8.950;
#SAMPLESTART:71.120;
#SAMPLELENGTH:12.000;
#SELECTABLE:YES;
#BPMS:0.000=188.100,428.000=94.000;
#STOPS:;
#BGCHANGES:;
// cache tags:
#FIRSTBEAT:2.000;
#LASTBEAT:435.000;
#SONGFILENAME:Songs/KBU/{Losing Touch} (Stargroup)/{Losing Touch}.sm;
#HASMUSIC:1;
#HASBANNER:1;
#MUSICLENGTH:152.032;
// end cache tags

//---------------dance-single - ----------------
#NOTES:
     dance-single:
     :
     Hard:
     8:
     1.000,1.000,1.000,0.000,0.628,799.000,333.000,0.000,0.000,0.000:
0000
0000
0000
0000
0000
0000
0100
0000
0010
0000
0100
0000
,
1000
0000
0000
0010
0000
0000
0100
0000
,
0010
0000
0000
0001
0000
0000
0100
0000
,
0010
0000
0000
1000
0000
0000
0001
0000
,
0100
0000
0000
1000
0000
0000
0100
0000
,
0010
0000
0000
1000
0000
0000
0100
0000
,
0010
0000
0000
0001
0000
0000
0010
0000
,
0010
0000
0000
0100
0000
0000
1000
0000
,
0001
0000
0000
0010
0000
0000
0100
0000
,
1001
0000
0000
0010
1000
0000
0100
0000
,
1010
0000
0000
0001
1000
0000
0100
0000
,
0011
0000
0000
1000
0000
0000
0001
0000
,
0110
0000
0000
1010
0000
0000
0100
0000
,
0011
0000
0000
1000
0000
0000
0100
0000
,
1010
0000
0000
1001
0000
0000
0010
0000
,
0011
0000
0000
0100
0000
0000
1000
0000
,
0101
0000
0000
0110
0000
0000
0100
0000
,
1001
0000
0000
0010
0000
0000
0100
0000
,
0010
0000
0000
0001
0000
0000
0100
0000
,
0010
0000
0000
1000
0000
0000
0001
0000
,
0100
0000
0000
1000
0000
0000
0100
0000
,
0010
0000
0000
1000
0000
0000
0100
0000
,
0010
0000
0000
0001
0000
0000
0010
0000
,
0010
0000
0000
0100
0000
0000
1000
0000
,
0001
0000
0000
0010
0000
0000
0100
0000
,
1000
0000
0000
0010
0000
0000
0100
0000
,
0010
0000
0000
0001
0000
0000
0100
0000
,
0010
0000
0000
1000
0000
0000
0001
0000
,
0100
0000
0000
1000
0000
0000
0100
0000
,
0010
0000
0000
1000
0000
0000
0100
0000
,
0010
0000
0000
0001
0000
0000
0010
0000
,
0010
0000
0000
0100
0000
0000
1000
0000
,
0001
0000
0000
0010
0000
0000
0100
0000
,
1001
0000
1000
0110
1000
0000
0101
0000
,
0110
0000
0100
1001
0100
0000
0101
0000
,
1010
0000
0010
1100
0010
0000
0011
0000
,
0110
0000
0100
1010
0100
0000
0110
0000
,
0011
0000
0001
0110
0001
0000
1100
0000
,
0110
0000
0010
1001
0010
0000
0011
0000
,
0011
0000
0010
0101
0010
0000
1010
0000
,
0101
0000
0100
1010
0100
0000
1100
0000
,
1001
0100
0011
1100
0010
1100
0011
0100
,
1001
0010
0101
1010
0100
1010
0101
0010
,
1001
0010
1001
0110
0001
0110
1001
0100
,
1001
0010
1100
0011
0100
0011
1100
0010
,
1001
0100
0011
1100
0010
1100
0011
0100
,
1001
0010
0101
1010
0100
1010
0101
1000
,
0101
1000
0110
1001
0010
1001
0110
0001
,
1100
0001
1010
0101
0010
0101
1010
0100
,
1001
0000
0100
1000
0011
0000
1000
0001
0110
0000
1000
0010
0101
0000
0010
0100
,
1001
0000
0010
1000
0101
0000
0010
0001
1100
0000
0010
0100
0011
0000
0100
0010
,
1001
0000
0010
0100
1001
0000
0100
1000
0011
0000
0010
1000
0101
0000
0010
0100
,
1001
0000
0010
0001
1100
0000
0010
1000
0101
0000
0010
0100
1010
0000
0100
0010
,
1001
0000
0100
1000
0011
0000
1000
0001
0110
0000
1000
0010
0101
0000
0010
0100
,
1001
0000
0010
1000
0101
0000
0010
0001
1100
0000
0010
0001
0110
0000
1000
0010
,
0101
0000
1000
0001
0110
0000
0001
0100
0011
0000
1000
0100
1010
0000
0001
0010
,
1100
0000
0001
0100
1010
0000
0100
1000
0011
0000
0100
0010
1100
0000
0010
0100
,
1001
0000
0100
1000
0011
0000
1000
0001
0110
0000
1000
0010
0101
0000
0010
0100
,
1001
0000
0010
1000
0101
0000
0010
0001
1100
0000
0010
0100
0011
0000
0100
0010
,
1001
0000
0010
0100
1001
0000
0100
1000
0011
0000
0010
1000
0101
0000
0010
0100
,
1001
0000
0010
0001
1100
0000
0010
1000
0101
0000
0010
0100
1010
0000
0100
0010
,
1001
0000
0100
1000
0011
0000
1000
0001
0110
0000
1000
0010
0101
0000
0010
0100
,
1001
0000
0010
1000
0101
0000
0010
0001
1100
0000
0010
0001
0110
0000
1000
0010
,
0101
0000
1000
0001
0110
0000
0001
0100
0011
0000
1000
0100
1010
0000
0001
0010
,
1100
0000
0001
0100
1010
0000
0100
1000
0011
0000
0100
0010
1100
0000
0010
0100
,
1001
0000
0010
0000
1001
0000
0010
0000
1001
0000
0010
0000
1001
0000
0000
1100
,
0011
0000
0100
0000
1010
0000
0100
0000
1010
0000
0100
0000
0011
0000
0000
1100
,
0011
0000
0100
0000
1001
0000
0100
0000
1001
0000
0100
0000
0011
0000
0000
0101
,
1010
0001
1100
0001
1100
0001
1010
0110
,
1001
0000
0010
0000
1001
0000
0010
0000
1001
0000
0010
0000
1001
0000
0000
0110
,
1001
0100
0010
0100
1000
0001
0010
0100
0010
0001
1000
0100
0010
0001
0010
0100
,
1000
0010
0100
0001
0100
0010
1000
0001
0100
0010
0100
0001
1000
0100
0010
0100
,
1000
0001
1000
0001
1000
0001
1000
0001
0100
0010
0100
0010
0100
0010
0100
0010
,
1001
0000
0000
1100
0000
0000
0110
0000
1000
0101
0000
0000
0110
0000
0101
0000
,
1010
0000
0000
0101
0000
0000
0011
0000
0000
1100
0000
0000
0011
0000
0110
0000
,
0011
0000
0000
1010
0000
0000
0110
0000
0000
0011
0000
0000
0101
0000
1010
0000
,
1100
0000
0000
1010
0000
0000
0110
0000
0000
0101
0000
0000
1001
0000
0101
0000
,
1001
0000
0000
1100
0000
0000
0110
0000
0000
0101
0000
0000
0110
0000
0101
0000
,
1010
0000
0000
0101
0000
0000
0011
0000
0000
1100
0000
0000
0011
0000
0110
0000
,
0011
0000
0000
1010
0000
0000
0110
0000
0000
0011
0000
0000
0101
0000
1010
0000
,
1100
0000
0000
1010
0000
0000
0110
0000
0000
0101
0000
0000
1001
0000
0101
0000
,
1001
0000
0000
1100
0000
0000
0110
0000
1000
0101
0000
0000
0110
0000
0101
0000
,
1010
0000
0000
0101
0000
0000
0011
0000
0000
1100
0000
0000
0011
0000
0110
0000
,
0011
0000
0000
1010
0000
0000
0110
0000
0000
0011
0000
0000
0101
0000
1010
0000
,
1100
0000
0000
1010
0000
0000
0110
0000
0000
0101
0000
0000
1001
0000
0101
0000
,
1001
0000
0000
1100
0000
0000
0110
0000
0000
0101
0000
0000
0110
0000
0101
0000
,
1010
0000
0000
0101
0000
0000
0011
0000
0000
1100
0000
0000
0011
0000
0110
0000
,
0011
0000
0000
1010
0000
0000
0110
0000
0000
0011
0000
0000
0101
0000
1010
0000
,
1100
0000
0000
1010
0000
0000
0110
0000
0000
0101
0000
0000
1001
0000
0101
0000
,
1001
1000
0001
1010
1000
0001
1100
0001
,
1000
0100
1001
0000
0010
0000
0000
0000
1001
0000
0100
0000
1010
0000
0110
0000
,
1001
0000
0100
1000
0011
0000
1000
0001
0110
0000
1000
0010
0101
0000
0010
0100
,
1001
0000
0010
1000
0101
0000
0010
0001
1100
0000
0010
0100
0011
0000
0100
0010
,
1001
0000
0010
0100
1001
0000
0100
1000
0011
0000
0010
1000
0101
0000
0010
0100
,
1001
0000
0010
0001
1100
0000
0010
1000
0101
0000
0010
0100
1010
0000
0100
0010
,
1001
0000
0100
1000
0011
0000
1000
0001
0110
0000
1000
0010
0101
0000
0010
0100
,
1001
0000
0010
1000
0101
0000
0010
0001
1100
0000
0010
0001
0110
0000
1000
0010
,
0101
0000
1000
0001
0110
0000
0001
0100
0011
0000
1000
0100
1010
0000
0001
0010
,
1100
0000
0001
0100
1010
0000
0100
1000
0011
0000
0100
0010
1100
0000
0010
0100
,
1001
0000
0100
1000
0011
0000
1000
0001
0110
0000
1000
0010
0101
0000
0010
0100
,
1001
0000
0010
1000
0101
0000
0010
0001
1100
0000
0010
0100
0011
0000
0100
0010
,
1001
0000
0010
0100
1001
0000
0100
1000
0011
0000
0010
1000
0101
0000
0010
0100
,
1001
0000
0010
0001
1100
0000
0010
1000
0101
0000
0010
0100
1010
0000
0100
0010
,
1001
0000
0100
1000
0011
0000
1000
0001
0110
0000
1000
0010
0101
0000
0010
0100
,
1001
0000
0010
1000
0101
0000
0010
0001
1100
0000
0010
0001
0110
0000
1000
0010
,
0101
0000
1000
0001
0110
0000
0001
0100
0011
0000
1000
0100
1010
0000
0001
0010
,
1100
0000
0001
0100
1010
0000
0100
1000
0011
0000
0100
0010
1100
0000
0010
0100
,
0001
1000
0001
1000
,
0001
1000
0001
1000
;

//---------------dance-single - ----------------
#NOTES:
     dance-single:
     :
     Challenge:
     10:
     1.000,1.000,1.000,0.013,0.628,803.000,376.000,2.000,0.000,11.000:
0000
0000
0000
0000
0000
0000
0100
0000
0010
0000
0100
0000
,
1000
0000
0000
0010
0000
0000
0100
0000
,
0010
0000
0000
0001
0000
0000
0100
0000
,
0010
0000
0000
1000
0000
0000
0001
0000
,
0100
0000
0000
1000
0000
0000
0100
0000
,
0010
0000
0000
1000
0000
0000
0100
0000
,
0010
0000
0000
0001
0000
0000
0010
0000
,
0010
0000
0000
0100
0000
0000
1000
0000
,
0001
0000
0000
0010
0000
0000
0100
0000
,
1001
0000
0000
0010
1000
0000
0100
0000
,
1010
0000
0000
0001
1000
0000
0100
0000
,
0011
0000
0000
1000
0000
0000
0001
0000
,
0110
0000
0000
1010
0000
0000
0100
0000
,
0011
0000
0000
1000
0000
0000
0100
0000
,
1010
0000
0000
1001
0000
0000
0010
0000
,
0011
0000
0000
0100
0000
0000
1000
0000
,
0101
0000
0000
0110
0000
0000
0100
0000
,
1111
0000
0000
0010
0000
0000
0100
0000
,
0010
0000
0000
0001
0000
0000
0100
0000
,
0010
0000
0000
1000
0000
0000
0001
0000
,
0100
0000
0000
1000
0000
0000
0100
0000
,
0010
0000
0000
1000
0000
0000
0100
0000
,
0010
0000
0000
0001
0000
0000
0010
0000
,
0010
0000
0000
0100
0000
0000
1000
0000
,
0001
0000
0000
0010
0000
0000
0100
0000
,
1000
0000
0000
0010
0000
0000
0100
0000
,
0010
0000
0000
0001
0000
0000
0100
0000
,
0010
0000
0000
1000
0000
0000
0001
0000
,
0100
0000
0000
1000
0000
0000
0100
0000
,
0010
0000
0000
1000
0000
0000
0100
0000
,
0010
0000
0000
0001
0000
0000
0010
0000
,
0010
0000
0000
0100
0000
0000
1000
0000
,
0001
0000
0000
0010
0000
0000
0100
0000
,
1011
0000
1000
0110
1001
0000
0101
0000
,
0111
0000
0100
1001
0100
0000
0101
0000
,
1010
0000
0010
1100
0010
0000
0011
0000
,
0110
0000
0100
1010
0100
0000
0110
0000
,
0011
0000
0001
0110
0001
0000
1100
0000
,
0110
0000
0010
1001
0010
0000
0011
0000
,
0011
0000
0010
0101
0010
0000
1010
0000
,
0101
0000
0100
1010
0100
0000
1100
0000
,
1001
0100
0011
1100
0010
1100
0011
0100
,
1001
0010
0101
1010
0100
1010
0101
0010
,
1001
0010
1001
0110
0001
0110
1001
0100
,
1001
0010
1100
0011
0100
0011
1100
0010
,
1001
0100
0011
1100
0010
1100
0011
0100
,
1001
0010
0101
1010
0100
1010
0101
1000
,
0101
1000
0110
1001
0010
1001
0110
0001
,
1100
0001
1010
0101
0010
0101
1010
0100
,
1011
0000
0100
1000
0011
0000
1100
0001
0010
0000
1100
0010
0101
0000
0010
0100
,
1001
0000
0010
1000
0101
0000
1010
0001
0100
0000
1010
0100
0011
0000
0100
0010
,
1001
0000
0010
0100
1001
0000
0110
1000
0001
0000
0110
1000
0101
0000
0010
0100
,
1001
0000
0010
0001
1100
0000
0011
1000
0100
0000
0011
0100
1010
0000
0100
0010
,
1001
0000
0100
1000
0011
0000
1100
0001
0010
0000
1100
0010
0101
0000
0010
0100
,
1001
0000
0010
1000
0101
0000
1010
0001
0100
0000
1010
0001
0110
0000
1000
0010
,
0101
0000
1000
0001
0110
0000
1001
0100
0010
0000
1001
0100
1010
0000
0001
0010
,
1100
0000
0001
0100
1010
0000
0101
1000
0010
0000
0101
0010
1100
0000
0010
0100
,
1001
0000
0100
1000
0011
0000
1100
0001
0010
0000
1100
0010
0101
0000
0010
0100
,
1001
0000
0010
1000
0101
0000
1010
0001
0100
0000
1010
0100
0011
0000
0100
0010
,
1001
0000
0010
0100
1001
0000
0110
1000
0001
0000
0110
1000
0101
0000
0010
0100
,
1001
0000
0010
0001
1100
0000
0011
1000
0100
0000
0011
0100
1010
0000
0100
0010
,
1001
0000
0100
1000
0011
0000
1100
0001
0010
0000
1100
0010
0101
0000
0010
0100
,
1001
0000
0010
1000
0101
0000
1010
0001
0100
0000
1010
0001
0110
0000
1000
0010
,
0101
0000
1000
0001
0110
0000
1001
0100
0010
0000
1001
0100
1010
0000
0001
0010
,
1100
0000
0001
0100
1010
0000
0101
1000
0010
0000
0101
0010
1100
0000
0001
0010
,
1101
0000
0010
0000
1001
0000
0010
0000
1101
0000
0010
0000
1001
0000
0010
1100
,
0011
0000
0100
0000
1010
0000
0100
0000
1010
0000
0100
0000
0011
0000
0010
1100
,
0011
0000
0100
0000
1001
0000
0100
0000
1001
0000
0100
0000
0011
0000
0010
0101
,
1010
0001
1100
0001
1100
0002
1013
0120
,
1031
0000
0010
0000
1001
0000
0010
0000
1001
0000
0010
0000
1001
0000
0010
1100
,
0011
0100
0010
0100
1001
0100
0010
1000
0110
0001
1000
0100
1010
0001
0010
0100
,
0011
0100
0001
0100
1010
0100
0010
0001
1100
0010
0100
0001
1010
0100
0001
0010
,
1100
0001
1000
0001
1000
0001
1100
0001
0100
0010
0100
0010
1100
0010
0100
0010
,
1101
0000
0000
1100
0000
0000
0110
0000
1000
0101
0000
0000
0110
0000
0101
0000
,
1010
0000
0000
0101
0000
0000
0011
0000
0000
1100
0000
0000
0011
0000
0110
0000
,
0011
0000
0000
1010
0000
0000
0110
0000
0000
0011
0000
0000
0101
0000
1010
0000
,
1100
0000
0000
1010
0000
0000
0110
0000
0000
0101
0000
0000
1001
0000
0101
0000
,
1001
0000
0000
1100
0000
0000
0110
0000
0000
0101
0000
0000
0110
0000
0101
0000
,
1010
0000
0000
0101
0000
0000
0011
0000
0000
1100
0000
0000
0011
0000
0110
0000
,
0011
0000
0000
1010
0000
0000
0110
0000
0000
0011
0000
0000
0101
0000
1010
0000
,
1100
0000
0000
1010
0000
0000
0110
0000
0000
0101
0000
0000
1001
0000
0101
0000
,
1011
0000
0000
1100
0000
0000
0110
0000
1000
0101
0000
0000
0110
0000
0101
0000
,
1010
0000
0000
0101
0000
0000
0011
0000
0000
1100
0000
0000
0011
0000
0110
0000
,
0011
0000
0000
1010
0000
0000
0110
0000
0000
0011
0000
0000
0101
0000
1010
0000
,
1100
0000
0000
1010
0000
0000
0110
0000
0000
0101
0000
0000
1001
0000
0101
0000
,
1001
0000
0000
1100
0000
0000
0110
0000
0000
0101
0000
0000
0110
0000
0101
0000
,
1010
0000
0000
0101
0000
0000
0011
0000
0000
1100
0000
0000
0011
0000
0110
0000
,
0011
0000
0000
1010
0000
0000
0110
0000
0000
0011
0000
0000
0101
0000
1010
0000
,
1100
0000
0000
1010
0000
0000
0110
0000
0000
0101
0000
0000
1001
0000
0101
0000
,
1001
1000
0001
1010
1000
0001
1100
0001
,
1000
0100
1001
0000
0010
0000
0000
0000
1001
0000
0100
0000
1010
0000
0110
0000
,
1011
0000
0100
1000
0011
0000
1100
0001
0010
0000
1100
0010
0101
0000
0010
0100
,
1001
0000
0010
1000
0101
0000
1010
0001
0100
0000
1010
0100
0011
0000
0100
0010
,
1001
0000
0010
0100
1001
0000
0110
1000
0001
0000
0110
1000
0101
0000
0010
0100
,
1001
0000
0010
0001
1100
0000
0011
1000
0100
0000
0011
0100
1010
0000
0100
0010
,
1001
0000
0100
1000
0011
0000
1100
0001
0010
0000
1100
0010
0101
0000
0010
0100
,
1001
0000
0010
1000
0101
0000
1010
0001
0100
0000
1010
0001
0110
0000
1000
0010
,
0101
0000
1000
0001
0110
0000
1001
0100
0010
0000
1001
0100
1010
0000
0001
0010
,
1100
0000
0001
0100
1010
0000
0101
1000
0010
0000
0101
0010
1100
0000
0010
0100
,
1001
0000
0100
1000
0011
0000
1100
0001
0010
0000
1100
0010
0101
0000
0010
0100
,
1001
0000
0010
1000
0101
0000
1010
0001
0100
0000
1010
0100
0011
0000
0100
0010
,
1001
0000
0010
0100
1001
0000
0110
1000
0001
0000
0110
1000
0101
0000
0010
0100
,
1001
0000
0010
0001
1100
0000
0011
1000
0100
0000
0011
0100
1010
0000
0100
0010
,
1001
0000
0100
1000
0011
0000
1100
0001
0010
0000
1100
0010
0101
0000
0010
0100
,
1001
0000
0010
1000
0101
0000
1010
0001
0100
0000
1010
0001
0110
0000
1000
0010
,
0101
0000
1000
0001
0110
0000
1001
0100
0010
0000
1001
0100
1010
0000
0001
0010
,
1100
0000
0001
0100
1010
0000
0101
1000
0010
0000
0101
0010
1100
0000
0010
0100
,
0001
1000
0001
1000
,
0001
1000
0001
1000
;
