#TITLE:Sync;
#SUBTITLE:;
#ARTIST:OutPhase;
#TITLETRANSLIT:;
#SUBTITLETRANSLIT:;
#ARTISTTRANSLIT:;
#CREDIT:;
#BANNER:sync-bn.png;
#BACKGROUND:sync-bg.png;
#LYRICSPATH:;
#CDTITLE:!mwerpTitle.png;
#MUSIC:Sync (Extreme Version).mp3;
#OFFSET:-0.100;
#SAMPLESTART:37.380;
#SAMPLELENGTH:12.000;
#SELECTABLE:YES;
#BPMS:0.000=166.990;
#STOPS:;
#BGCHANGES:;
// cache tags:
#FIRSTBEAT:8.000;
#LASTBEAT:271.000;
#SONGFILENAME:Songs/Community Keyboard Megapack - Volume 1/(Mwerp) Sync/Sync -Extreme Version- - Outphase.sm;
#HASMUSIC:1;
#HASBANNER:1;
#MUSICLENGTH:99.248;
// end cache tags

//---------------dance-single - SMANIAC----------------
#NOTES:
     dance-single:
     SMANIAC:
     Challenge:
     11:
     1.000,1.000,0.262,0.000,1.000,762.000,26.000,0.000,0.000,0.000:


0000
0000
0000
0000
,
0000
0000
0000
0000
,
1001
0000
0100
0000
1001
0000
0010
0100
0010
0000
0001
0000
0110
0000
0001
1000
,
0001
0000
1000
0000
0110
0000
1000
0010
1000
0000
0001
0000
1100
0000
0001
0100
,
0001
0000
0010
0000
1001
0000
0001
0010
0001
0000
1000
0000
0110
0000
0001
1000
,
0001
0000
0010
0000
1001
0000
0100
0010
0100
0000
1000
0000
0101
0000
0001
1000
,
0001
0000
0100
0000
1001
0000
0010
0100
0010
0000
0001
0000
1001
0000
0001
1000
,
0001
0000
1000
0000
0110
0000
1000
0010
1000
0000
0001
0000
1100
0000
0001
0100
,
0001
0000
0010
0000
1001
0000
0001
0010
0001
0000
1000
0000
0110
0000
0001
1000
,
0001
0000
0010
0000
1001
0000
0100
0010
0100
0000
1000
0000
0101
0000
0001
1000
,
0001
0000
1000
0000
0010
0100
0000
0010
0100
0000
0001
0000
1000
0100
0000
1000
,
0100
0000
0010
0000
0001
0100
0000
0001
0100
0000
0001
0000
0010
0001
0000
0010
,
0001
0000
1000
0000
0100
1000
0000
0100
1000
0000
0010
0000
1000
0010
0000
1000
,
0010
0000
0100
0000
0001
1000
0000
0001
1000
0000
0010
0000
0100
0001
0000
0100
,
0001
0000
1000
0000
0010
0100
0000
0010
0100
0000
0001
0000
0010
1000
0100
1000
,
0100
0000
0010
0000
0001
0100
0000
0001
0100
0000
0001
0000
0010
1000
0010
1000
,
0001
0000
1000
0000
0100
1000
0000
0100
1000
0000
0010
0000
0100
1000
0100
1000
,
0010
0000
0100
0000
0001
1000
0000
0001
1000
0000
0010
0000
0001
0100
0001
0100
,
0001
1000
0001
0000
0010
0001
0000
0010
0000
0000
0001
0000
1000
0001
1000
0000
,
0001
1000
0001
0000
1000
0010
0000
1000
0000
0000
0001
0000
0100
0000
0001
0000
,
1000
0010
1000
0000
0001
0000
0100
0000
0001
0010
0001
0000
1000
0000
0100
0000
,
1000
0010
1000
0000
0001
0000
0100
0000
0001
0010
0001
0000
1000
0000
0100
0000
,
1000
0001
1000
0000
0100
1000
0000
0100
0000
0000
1000
0000
0001
1000
0001
0000
,
1000
0001
1000
0000
0001
0100
0000
0001
0000
0000
1000
0000
0010
0000
1000
0000
,
0001
0100
0001
0000
1000
0000
0010
0000
1000
0100
1000
0000
0001
0000
0010
0000
,
0001
0100
0001
0000
1000
0000
0010
0000
1000
0100
1000
0000
0001
0000
0010
0000
,
0001
1000
0001
0000
0010
0001
0000
0010
0000
0000
0001
0000
1000
0001
1000
0000
,
0001
1000
0001
0000
1000
0010
0000
1000
0000
0000
0001
0000
0100
0000
0001
0000
,
1000
0010
1000
0000
0001
0000
0100
0000
0001
0010
0001
0000
1000
0000
0100
0000
,
1000
0010
1000
0000
0001
0000
0100
0000
0001
0010
0001
0000
1000
0000
0100
0000
,
1000
0001
1000
0000
0100
1000
0000
0100
0000
0000
1000
0000
0001
1000
0001
0000
,
1000
0001
1000
0000
0001
0100
0000
0001
0000
0000
1000
0000
0010
0000
1000
0000
,
0001
0100
0001
0000
1000
0000
0010
0000
1000
0100
1000
0000
0001
0000
0010
0000
,
0001
0100
0001
0000
1000
0000
0010
0000
1000
0100
1000
0000
0001
0000
0010
0000
,
0100
0010
0001
0000
0100
0001
0000
1000
0000
0000
0010
0000
0100
0001
1000
0000
,
0100
1000
0001
0000
0100
0001
0000
1000
0000
0000
0010
0000
0100
0000
1000
0000
,
0001
0010
0100
1000
0001
1000
0100
0010
0001
0100
0010
1000
0001
1000
0010
0100
,
0001
0010
0100
1000
0100
0010
0001
0010
0001
0100
0010
1000
0010
0100
0001
0100
,
0010
0100
1000
0000
0010
1000
0000
0001
0000
0000
0100
0000
0010
1000
0001
0000
,
0010
0001
1000
0000
0010
1000
0000
0001
0000
0000
0100
0000
0010
0000
0001
0000
,
1000
0100
0010
0001
1000
0001
0010
0100
1000
0010
0100
0001
1000
0001
0100
0010
,
1000
0100
0010
0001
0010
0100
1000
0100
1000
0010
0100
0001
0100
0010
1000
0010
,
0100
0010
0001
0000
0100
0001
0000
1000
0000
0000
0010
0000
0100
0001
1000
0000
,
0100
1000
0001
0000
0100
0001
0000
1000
0000
0000
0010
0000
0100
0000
1000
0000
,
0001
0010
0100
1000
0001
1000
0100
0010
0001
0100
0010
1000
0001
1000
0010
0100
,
0001
0010
0100
1000
0100
0010
0001
0010
0001
0100
0010
1000
0010
0100
0001
0100
,
0010
0100
1000
0000
0010
1000
0000
0001
0000
0000
0100
0000
0010
1000
0001
0000
,
0010
0001
1000
0000
0010
1000
0000
0001
0000
0000
0100
0000
0010
0000
0001
0000
,
1000
0100
0010
0001
1000
0001
0010
0100
1000
0010
0100
0001
1000
0001
0100
0010
,
1000
0100
0010
0001
0010
0100
1000
0100
1000
0010
0100
0001
0100
0010
1000
0010
,
1000
0000
0001
0000
0010
0100
0000
0100
0010
0000
0001
0000
1000
0001
0000
0001
,
1000
0000
0010
0000
0100
0010
0000
0010
0100
0000
0010
0000
1000
0001
0000
0001
,
1000
0100
0010
0001
1000
0001
0010
0100
1000
0010
0100
0001
1000
0001
0100
0010
,
1000
0100
0010
0001
0010
0100
1000
0100
1000
0010
0100
0001
0100
0010
1000
0010
,
1000
0000
0001
0000
0010
0100
0000
0100
0010
0000
0001
0000
1000
0001
0000
0001
,
1000
0000
0010
0000
0100
0010
0000
0010
0100
0000
0010
0000
1000
0001
0000
0001
,
1000
0100
0010
0001
1000
0001
0010
0100
1000
0010
0100
0001
1000
0001
0100
0010
,
1000
0100
0010
0001
0010
0100
1000
0100
1000
0010
0100
0001
0100
0010
1000
0010
,
0001
0100
0001
0100
0010
1000
0010
1000
0100
1000
0100
1000
0001
0010
0001
0010
,
0001
1000
0001
1000
0010
0100
0010
0100
0001
0100
0001
0100
0010
1000
0010
1000
,
0100
0010
0100
0010
0001
0010
0001
0010
0001
0100
0001
0100
0010
0100
0010
0100
,
0010
1000
0010
1000
0001
0010
0001
0010
0100
1000
0100
1000
0001
0100
0001
0100
,
0001
0010
0001
0010
0100
1000
0100
1000
0001
0100
0001
0100
0010
1000
0010
1000
,
0100
1000
0100
1000
0100
0010
0100
0010
0001
0010
0001
0010
0001
0100
0001
0100
,
0110
0000
1000
0000
0110
0000
0100
0001
0100
0000
0010
0000
1001
0000
0100
1000
,
0100
0000
0010
0000
1001
0000
0010
0001
0010
0000
0100
0000
1001
0000
1000
0100
,
1000
0000
0001
0000
0110
0000
1000
0001
1000
0000
0010
0000
0101
0000
1000
0100
,
1000
0000
0001
0000
1010
0000
0100
0001
0100
0000
0010
0000
1001
0000
0000
0000
,;
