#TITLE:Exciting Hyper Highspeed Star;
#SUBTITLE:;
#ARTIST:DJ Sharpnel;
#TITLETRANSLIT:;
#SUBTITLETRANSLIT:;
#ARTISTTRANSLIT:;
#CREDIT:;
#BANNER:ehhss-bn.png;
#BACKGROUND:ehhss-bg.png;
#LYRICSPATH:;
#CDTITLE:cd-yanah.png;
#MUSIC:Exciting Hyper Highspeed Star.mp3;
#OFFSET:-0.320;
#SAMPLESTART:26.260;
#SAMPLELENGTH:18.000;
#SELECTABLE:YES;
#BPMS:0.000=180.150;
#STOPS:;
#BGCHANGES:;
// cache tags:
#FIRSTBEAT:0.000;
#LASTBEAT:314.000;
#SONGFILENAME:Songs/toune 2/ees ae/EHHS.sm;
#HASMUSIC:1;
#HASBANNER:1;
#MUSICLENGTH:109.451;
// end cache tags

//---------------dance-single - Blank----------------
#NOTES:
     dance-single:
     Blank:
     Hard:
     11:
     0.775,0.825,0.064,0.356,0.059,548.000,7.000,39.000,0.000,1.000:
0010
0001
1000
0010
,
0100
1000
0010
0001
,
1000
0100
0001
1000
,
1000
0000
0001
0000
0010
2000
3200
0302
,
0023
0000
0000
0000
0032
0000
0000
1003
0000
0000
0001
0000
0001
0000
0100
0000
,
0001
1000
0000
0010
1000
0010
0000
0010
,
0010
0100
0000
0010
0001
0100
0000
0100
,
0001
1000
0000
0100
0001
0100
0000
0100
,
0020
0000
0000
0000
2030
0000
0000
3100
0000
0000
0010
0000
0010
0000
1000
0000
,
0010
1000
0000
0010
0100
0100
0000
0010
,
1000
0100
0000
0100
0100
0001
0000
0100
,
0001
0100
0000
0100
2000
0000
3002
0000
,
0203
0000
0000
0000
0320
0000
0000
1030
0000
0000
1000
0000
1000
0000
0010
0000
,
1000
0010
0000
1000
0001
0001
0000
0001
,
0010
1000
0000
0001
0001
0010
0000
1000
,
0100
0001
0000
0100
0001
0001
0000
1000
,
0020
0000
0000
0000
2030
0000
0000
3100
0000
0000
1000
0000
1000
0000
0001
0000
,
1000
0010
0000
1000
0100
0100
0000
0010
,
0001
1000
0000
0100
0001
1000
0000
0100
,
1000
0010
0000
0010
2000
0000
3200
0000
,
0302
1000
0103
1000
0100
1000
0010
1000
,
0010
1000
0100
0001
1000
0001
1000
0010
,
0001
1000
0100
1000
0001
0100
0001
0010
,
2001
0100
3001
0010
1002
0010
1003
0010
,
1000
0010
0100
0001
0001
1000
0010
1000
,
0010
0001
1000
0100
0100
0001
0100
0010
,
1000
0100
0010
1002
0010
1000
0010
1000
,
0103
0000
0010
0000
1000
0000
0100
0000
0001
0010
0100
1000
0001
1000
0100
0010
,
0001
1000
0001
0100
1000
0100
1000
0001
,
0010
1000
0100
0010
1000
0100
1000
0010
,
1000
0100
1000
0001
1000
0001
1000
0100
,
0020
0001
1030
0001
0020
1000
0031
1000
,
0100
0001
1000
0001
0100
0010
0001
1000
,
0010
1000
0100
0001
0001
0100
0001
0010
,
0100
0010
1000
0001
1000
0100
0001
0010
,
0100
0000
1000
0000
0100
0000
0001
0000
0010
0100
0010
0000
1000
0000
0010
0000
,
1000
0001
0001
0010
1000
0001
0010
1000
,
1000
0001
0100
0001
1000
0010
0001
0010
,
0100
1000
1000
0001
1000
0100
0001
1000
,
0100
0001
0001
0010
0010
0100
0100
1000
,
1001
0010
0100
1000
0100
0010
0100
1000
,
1000
0010
0001
0001
0001
0010
1010
1000
,
1001
0100
0001
1000
0100
1000
0001
0100
,
1000
0001
1000
0010
0001
0100
0100
1000
,
0100
0001
0001
0001
0001
0001
0001
0001
,
1000
1000
1000
1000
0100
0100
0100
0100
,
0001
0100
0001
0100
0001
0010
0001
0010
,
0001
1000
0010
0100
0001
0001
0010
0100
,
1000
0100
1000
0100
1000
0010
1000
0010
,
0100
1000
0010
0001
0010
0010
1000
0001
,
1000
0010
0001
0100
1000
0010
0001
0100
,
1000
0010
0100
0001
1000
0010
0001
0100
,
0010
0100
0010
0100
0010
0001
0010
0001
,
0001
1000
0100
1000
0001
0100
1000
0001
,
1000
0010
1000
0010
0001
0100
0001
0100
,
0001
1000
0010
0100
0001
0001
0010
0100
,
1000
0010
0010
0100
0001
0100
0100
0010
,
1000
0010
0100
0001
1000
0010
0100
0001
,
1000
0010
1000
0010
0010
1000
0010
1000
,
0100
1000
0100
1000
0100
1000
0100
1000
,
1000
0010
1000
0010
0100
0100
0001
0001
,
0001
0100
0001
0100
0010
0002
0023
0230
,
2300
0000
0000
0000
3200
0000
0000
0310
0000
0000
1000
0000
1000
0000
0010
0000
,
1000
0010
0000
1000
0100
0010
0000
0010
,
0001
0100
0000
0010
0010
0001
0000
1000
,
0001
1000
0000
0010
1000
1000
0000
0001
,
0200
0000
0000
0000
0302
0000
0000
0013
0000
0000
0001
0000
0001
0000
0100
0000
,
0001
0100
0000
0001
0010
0100
0000
0010
,
1000
0001
0000
0100
0100
1000
0000
1000
,
0100
0001
0000
1000
0002
0000
2003
0000
,
3020
0000
0000
0000
2030
0000
0000
3001
0000
0000
1000
0000
0001
0000
0010
0000
,
0001
1000
0000
0010
1000
1000
0000
0100
,
0001
1000
0000
0001
1000
0100
0000
1000
,
0100
0001
0000
0010
0001
0001
0000
0010
,
2000
0000
0000
0000
3002
0000
0000
0203
0300
0000
0001
0000
0010
0000
0010
0000
,
1000
0010
0000
0010
0100
0001
0000
0001
,
0010
1000
0000
0010
0001
0100
0000
0010
,
0001
1000
0000
0010
2000
0000
3002
0000
,
0223
0000
0330
0000
;

//---------------dance-single - ----------------
#NOTES:
     dance-single:
     :
     Medium:
     1:
     0.000,0.000,0.000,0.000,0.000,0.000,0.000,0.000,0.000,0.000:
0000
0000
0000
0000
;
