#TITLE:Angels and Demons;
#SUBTITLE:Oh Henry!;
#ARTIST:Frank Diaz;
#TITLETRANSLIT:;
#SUBTITLETRANSLIT:;
#ARTISTTRANSLIT:;
#CREDIT:;
#BANNER:../Fallback-Ban.png;
#BACKGROUND:../Fallback-BG.png;
#LYRICSPATH:;
#CDTITLE:../~CDTitle-@@.png;
#MUSIC:Frank Daz - Angels And Demons.ogg;
#OFFSET:-0.059;
#SAMPLESTART:117.382;
#SAMPLELENGTH:21.334;
#SELECTABLE:YES;
#BPMS:0.000=180.000;
#STOPS:;
#BGCHANGES:;
// cache tags:
#FIRSTBEAT:0.000;
#LASTBEAT:1228.000;
#SONGFILENAME:Songs/Oh Henry! Mad Stamina/Angels and Demons (16+)/Angels and Demons.sm;
#HASMUSIC:1;
#HASBANNER:1;
#MUSICLENGTH:412.363;
// end cache tags

//---------------dance-single - @@----------------
#NOTES:
     dance-single:
     @@:
     Challenge:
     16:
     1.000,1.000,0.000,0.019,1.000,3988.000,0.000,8.000,29.000,0.000:
1000
0010
1000
0001
0100
0001
0100
0010
1000
0100
0010
0001
0100
0001
1000
0010
,
1000
0001
0010
0100
1000
0100
1000
0010
0100
0001
0100
0010
1000
0100
0010
0001
,
1000
0001
0100
0010
1000
0010
1000
0100
0010
0100
1000
0001
0010
0001
0100
0010
,
1000
0001
1000
0100
0010
0100
0010
0001
0100
0010
1000
0001
0100
0001
0010
0100
,
1000
0001
0100
0010
1000
0010
1000
0100
0010
0001
0010
0100
1000
0010
0100
0001
,
1000
0100
0010
0100
1000
0100
1000
0010
0100
0001
1000
0010
1000
0100
0010
0100
,
1000
0001
1000
0010
0100
0010
0100
0001
0010
0100
1000
0001
0010
0001
0100
0010
,
1000
0001
0010
0100
1000
0100
1000
0010
0100
0001
0100
0010
1000
0100
1000
0001
,
0100
0010
1000
0001
0100
0001
0100
0010
1000
0100
0010
0100
1000
0010
1000
0001
,
0010
0100
1000
0001
0010
0001
0010
0100
1000
0010
0100
0001
0100
0010
1000
0100
,
1000
0001
0100
0010
1000
0010
1000
0100
0010
0001
1000
0100
1000
0010
0100
0001
,
1000
0001
0010
0100
1000
0100
1000
0010
0100
0010
1000
0001
0100
0001
0010
0100
,
1000
0001
0100
0010
1000
0010
1000
0100
0010
0001
0010
0100
1000
0010
0100
0001
,
1000
0001
0010
0100
1000
0100
1000
0010
0100
0010
1000
0001
0100
0001
0010
0100
,
1000
0001
1000
0010
0100
0010
0100
0001
0010
0100
1000
0001
0010
0001
0100
0010
,
1000
0001
0010
0100
1000
0100
1000
0010
0100
0001
0100
0010
1000
0100
0010
0001
,
1000
0010
0100
0010
1000
0010
1000
0100
0010
0001
1000
0100
1000
0010
0100
0010
,
1000
0001
1000
0100
0010
0100
0010
0001
0100
0010
1000
0001
0100
0001
0010
0100
,
1000
0001
0100
0010
1000
0010
1000
0100
0010
0001
0010
0100
1000
0010
1000
0001
,
0010
0100
1000
0001
0010
0001
0010
0100
1000
0010
0100
0010
1000
0100
1000
0001
,
0100
0010
1000
0001
0100
0001
0100
0010
1000
0100
0010
0001
0010
0100
1000
0010
,
1000
0001
0010
0100
1000
0100
1000
0010
0100
0001
1000
0010
1000
0100
0010
0001
,
1000
0001
0100
0010
1000
0010
1000
0100
0010
0100
1000
0001
0010
0001
0100
0010
,
1000
0001
1000
0100
0010
0100
0010
0001
0100
0001
1000
0010
1000
0100
0010
0001
,
1000
0010
0100
0001
0010
0001
0010
0100
1000
0010
0100
0001
1000
0010
1000
0001
,
0010
0100
1000
0010
0100
0010
0100
0001
0010
0100
0010
0001
0010
0100
1000
0001
,
0100
0010
0100
0001
0010
0001
0010
0100
1000
0010
0100
0001
1000
0010
1000
0001
,
0010
0100
1000
0010
0100
0010
0100
0001
0010
0100
1000
0001
1000
0100
0010
0001
,
0100
0001
1000
0100
0010
0100
0010
0001
0100
0010
1000
0001
0100
0001
1000
0010
,
1000
0100
0010
0001
1000
0001
1000
0010
0100
0001
0010
0100
1000
0001
0010
0001
,
0100
0010
1000
0001
0010
0100
0010
0001
0100
0010
1000
0001
0010
0001
1000
0100
,
1000
0010
0100
0001
1000
0010
1000
0001
0010
0100
1000
0001
0010
0001
0100
0010
,
0100
0001
0010
0100
1000
0001
1000
0100
0010
0001
0100
0010
1000
0001
0100
0001
,
1000
0010
1000
0100
0010
0001
1000
0100
0010
0100
1000
0010
0100
0001
1000
0010
,
0100
0010
1000
0100
0010
0001
0010
0100
0010
0001
0100
0010
1000
0001
0100
0001
,
1000
0010
1000
0100
0010
0001
1000
0100
1000
0001
0100
0010
1000
0001
1000
0010
,
0100
0001
0010
0100
1000
0001
1000
0100
0010
0001
0100
0010
1000
0001
0100
0001
,
1000
0010
1000
0100
0010
0001
1000
0001
0010
0100
1000
0010
1000
0001
0100
0001
,
1000
0010
1000
0100
0010
0100
1000
0001
0010
0100
1000
0010
0100
0001
1000
0001
,
0100
0010
1000
0100
0010
0001
1000
0100
0010
0100
1000
0010
0100
0001
0100
0010
,
1000
0100
1000
0010
0100
0010
1000
0001
0100
0001
0010
0100
1000
0001
0010
0001
,
1000
0100
1000
0010
0100
0001
1000
0010
0100
0010
1000
0100
0010
0001
1000
0100
,
0010
0100
1000
0010
0100
0001
0100
0010
0100
0001
0010
0100
1000
0001
0010
0001
,
1000
0100
1000
0010
0100
0001
1000
0010
1000
0001
0010
0100
1000
0001
1000
0100
,
0010
0001
0100
0010
1000
0001
1000
0010
0100
0001
0010
0100
1000
0001
0010
0001
,
1000
0100
1000
0010
0100
0001
1000
0001
0100
0010
1000
0100
1000
0001
0010
0001
,
1000
0100
1000
0010
0100
0010
1000
0001
0100
0010
1000
0100
0010
0001
1000
0001
,
0010
0001
0100
0010
1000
1000
0001
0001
,
1000
0100
1000
0010
0100
0001
0100
0010
1000
0100
1000
0010
0100
0001
0100
0010
,
1000
0100
1000
0010
0100
0001
0100
0010
1000
0100
0010
0001
1000
0001
0010
0100
,
1000
0010
0100
0001
0010
0001
0100
0010
1000
0010
0100
0001
0010
0001
0100
0010
,
1000
0010
0100
0001
0010
0001
0100
0010
1000
0100
0010
0001
1000
0100
0010
0001
,
1000
0010
1000
0100
0010
0001
0010
0100
1000
0010
1000
0100
0010
0001
0010
0100
,
1000
0010
1000
0100
0010
0001
0010
0100
1000
0010
0100
0001
1000
0001
0100
0010
,
1000
0010
0100
0001
1000
0100
0010
0001
,
0100
0000
0010
0000
1000
0000
0100
0000
0010
0001
0100
0000
0010
0100
0010
1000
,
0001
0010
0001
0100
0010
1000
0010
0100
0001
0010
0001
0100
0010
1000
0010
0100
,
0001
0010
0001
0100
0010
1000
0010
0100
0001
0010
0100
1000
0001
1000
0100
0010
,
0001
0100
0010
1000
0100
1000
0010
0100
0001
0100
0010
1000
0100
1000
0010
0100
,
0001
0100
0010
1000
0100
1000
0010
0100
0001
0010
0100
1000
0001
0010
0100
1000
,
0001
0100
0001
0010
0100
1000
0100
0010
0001
0100
0001
0010
0100
1000
0100
0010
,
0001
0100
0001
0010
0100
1000
0100
0010
0001
0100
0010
1000
0001
1000
0010
0100
,
0001
1000
0001
0010
0100
1000
0100
0010
0001
1000
0001
0100
0010
1000
0010
0100
,
0001
1000
0001
0010
0100
0010
0001
1000
0001
0100
0010
0100
0001
0010
0100
1000
,
0001
0000
0000
0000
,
0000
00M0
0000
00M0
0000
00M0
0000
00M0
,
0000
0M00
0000
0M00
0000
0M00
0000
0M00
,
0000
M000
0000
M000
0000
M000
0000
M000
,
0000
00M0
0000
00M0
0000
00M0
0000
00M0
,
0000
0M00
0000
0M00
0000
0M00
0000
0M00
,
0000
000M
0000
000M
0000
000M
0000
000M
,
0000
M000
0000
M000
0000
M000
0000
M000
,
0002
0003
0000
0000
,
0200
0300
0000
0000
,
0020
0030
0000
0000
,
2000
3000
0000
0000
,
0200
0300
0000
0000
,
0020
0030
0000
0000
,
0002
0003
0000
0000
,
2000
3000
0000
0000
,
0001
0100
0000
0100
0010
1000
0001
0010
,
0100
1000
0000
1000
0001
0010
0001
1000
,
0010
0100
0010
0100
0001
0010
0100
0010
,
0001
0100
0001
0100
0010
1000
0001
0100
,
0001
0010
0000
0010
0100
1000
0001
0100
,
0010
1000
0000
1000
0001
0100
0001
1000
,
0100
0010
0100
0010
0001
0100
0010
0100
,
0001
0010
0001
0010
0100
1000
0001
0010
,
0001
0100
0010
1000
0100
0010
0100
1000
,
0001
0010
0001
0100
0010
1000
0100
1000
,
0010
0100
0010
0100
0001
0010
0001
1000
,
0010
0100
0010
0100
0001
0010
0001
1000
,
0100
0010
0100
1000
0010
0100
0010
1000
,
0001
0100
0001
0010
0100
1000
0010
1000
,
0100
0010
0100
0010
0001
0100
0001
1000
,
0100
0010
0100
0010
0001
0100
0010
1000
,
0001
0010
0100
1000
0100
1000
0001
0100
0010
0100
0001
1000
0100
1000
0001
1000
,
0010
0100
0001
1000
0001
1000
0100
0010
0100
1000
0001
0100
0001
1000
0001
0010
,
0100
1000
0001
0010
0001
0010
0001
1000
0010
0100
0010
1000
0001
1000
0100
1000
,
0001
0100
0010
1000
0001
0010
0100
1000
0001
0100
0010
1000
0001
0010
0100
1000
,
0001
0100
0010
1000
0001
1000
0010
0100
0001
0010
0100
0010
0001
1000
0100
0010
,
0001
0100
0001
1000
0010
1000
0001
0100
0001
0010
0100
0010
0001
1000
0100
0010
,
0001
1000
0100
1000
0001
1000
0001
0100
0001
1000
0001
0010
0100
1000
0010
0100
,
0001
0000
0010
0000
0100
0000
1000
0000
0001
0100
0010
0100
0001
1000
0100
0010
,
0001
1000
0010
0100
0010
0100
0001
0010
0100
1000
0001
0100
0010
1000
0010
0100
,
0001
0010
0100
1000
0100
1000
0010
0100
0001
0100
0010
1000
0100
0010
0100
1000
,
0001
0100
0001
1000
0001
0010
0001
1000
0010
0100
0010
1000
0100
0010
0001
0010
,
0100
1000
0001
1000
0010
1000
0001
1000
0100
0010
0100
1000
0010
0100
0001
1000
,
0100
0010
0001
0100
0001
0100
0010
1000
0100
0010
0001
0010
0100
1000
0010
0100
,
0010
1000
0100
0010
0100
0010
0001
0100
0010
0100
0001
1000
0010
1000
0100
0010
,
0001
0100
0010
1000
0001
1000
0010
0100
0001
0010
0100
1000
0001
1000
0100
0010
,
0001
0100
0010
1000
0100
0010
0001
1000
0001
0010
0100
1000
0010
0100
0001
0010
,
0001
0100
0010
1000
0010
1000
0001
0010
0100
1000
0010
1000
0100
0010
0001
1000
,
0100
0010
0100
1000
0100
1000
0001
0100
0010
0100
0001
0010
0001
0100
0010
1000
,
0001
0010
0001
1000
0001
0100
0001
1000
0100
0010
0100
1000
0010
0100
0001
0100
,
0010
1000
0001
1000
0100
1000
0001
1000
0010
0100
0010
1000
0100
0010
0001
1000
,
0001
0010
0100
1000
0100
1000
0001
0100
0010
1000
0100
1000
0010
0100
0001
1000
,
0010
0100
0010
1000
0010
1000
0001
0010
0100
0010
0001
0100
0001
0010
0100
1000
,
0001
0100
0010
1000
0001
0010
0100
1000
0001
0100
0010
1000
0001
0010
0100
1000
,
0001
0100
0001
1000
0001
0010
0001
1000
0010
0100
0001
0010
0100
1000
0010
0100
,
0001
0010
0100
1000
0100
0010
0001
0100
0010
1000
0001
1000
0100
1000
0001
1000
,
0010
0100
0010
1000
0001
0100
0001
0010
0100
1000
0001
1000
0010
1000
0001
1000
,
0100
0010
0001
1000
0100
1000
0010
0100
0001
1000
0001
0010
0001
1000
0001
0100
,
0010
0100
0001
1000
0010
1000
0100
0010
0001
1000
0001
0100
0001
1000
0001
0010
,
0100
1000
0001
1000
0100
0010
0001
0100
0010
1000
0001
1000
0100
1000
0001
1000
,
0010
0100
0010
1000
0001
0100
0001
0010
0100
1000
0001
1000
0010
1000
0001
1000
,
0100
0010
0001
0100
0010
1000
0010
0100
0001
0010
0001
1000
0001
0100
0001
1000
,
0010
0100
0001
0010
0100
1000
0010
0100
0001
0010
0001
0100
0010
1000
0100
0010
,
0001
0100
0010
1000
0010
0100
0001
0010
0100
1000
0001
1000
0010
1000
0001
1000
,
0100
0010
0100
1000
0001
0010
0001
0100
0010
1000
0001
1000
0100
1000
0001
1000
,
0010
0100
0001
1000
0010
1000
0100
0010
0001
1000
0001
0100
0001
1000
0001
0010
,
0100
0010
0001
1000
0100
1000
0010
0100
0001
1000
0001
0010
0001
1000
0001
0100
,
0010
1000
0001
1000
0010
0100
0001
0010
0100
1000
0001
1000
0010
1000
0001
1000
,
0100
0010
0100
1000
0001
0010
0001
0100
0010
1000
0001
1000
0100
1000
0001
1000
,
0010
0100
0001
1000
0010
1000
0100
0010
0001
1000
0001
0100
0001
1000
0001
0010
,
0100
0010
0001
1000
0100
1000
0010
0100
0001
1000
0001
0010
0100
1000
0010
0100
,
0001
0010
0100
1000
0010
1000
0001
0100
0001
1000
0100
0010
0001
1000
0010
1000
,
0001
0010
0100
1000
0001
1000
0100
0010
0001
0100
0010
0100
0001
1000
0100
1000
,
0001
0100
0010
1000
0100
0010
0001
1000
0001
0100
0010
0100
0001
1000
0100
0010
,
0001
1000
0010
1000
0001
0010
0100
0010
0001
0100
0010
1000
0100
0010
0001
1000
,
0001
0100
0010
1000
0100
0010
0001
1000
0010
0100
0001
1000
0001
0010
0100
1000
,
0001
0100
0010
1000
0001
1000
0010
0100
0001
0010
0100
1000
0001
0100
0010
0100
,
0001
1000
0100
1000
0010
0100
0001
1000
0001
0010
0100
1000
0001
0100
0010
0100
,
0001
1000
0100
0010
0001
1000
0010
0100
0001
0010
0100
1000
0010
1000
0100
0010
,
0001
0100
0010
1000
0100
1000
0001
0010
0001
1000
0010
0100
0001
1000
0100
1000
,
0001
0100
0010
1000
0001
1000
0010
0100
0001
0010
0100
0010
0001
1000
0010
1000
,
0001
0010
0100
1000
0010
0100
0001
1000
0001
0010
0100
0010
0001
1000
0010
0100
,
0001
1000
0100
1000
0001
0100
0010
0100
0001
0010
0100
1000
0010
0100
0001
1000
,
0001
0010
0100
1000
0010
0100
0001
1000
0100
0010
0001
1000
0001
0100
0010
1000
,
0001
0010
0100
1000
0001
1000
0100
0010
0001
0100
0010
1000
0001
0010
0100
0010
,
0001
1000
0010
1000
0100
0010
0001
1000
0001
0100
0010
1000
0001
0010
0100
0010
,
0001
1000
0010
0100
0001
1000
0100
0010
0001
0100
0010
1000
0100
1000
0010
0100
,
0001
0010
0100
1000
0010
1000
0001
1000
0100
0010
0001
0100
0001
1000
0010
1000
,
0100
0010
0100
1000
0001
0010
0100
1000
0010
0100
0001
0100
0010
1000
0100
0010
,
0001
0100
0010
0100
0001
0010
0001
1000
0001
0100
0010
1000
0100
0010
0001
0100
,
0001
1000
0010
1000
0001
0100
0010
1000
0100
0010
0100
1000
0010
0100
0001
1000
,
0001
0100
0010
1000
0100
1000
0001
1000
0010
0100
0001
0010
0001
1000
0100
1000
,
0010
0100
0010
1000
0001
0100
0010
1000
0100
0010
0001
0010
0100
1000
0010
0100
,
0001
0010
0100
0010
0001
0100
0001
1000
0001
0010
0100
1000
0010
0100
0001
0010
,
0001
1000
0100
1000
0001
0010
0100
1000
0001
0100
0001
0010
0100
1000
0100
0010
,
0001
0100
0001
1000
0001
0010
0100
1000
0010
0100
0010
1000
0001
0010
0100
1000
,
0010
1000
0001
0100
0001
0010
0100
0010
0001
0100
0001
1000
0100
0010
0100
1000
,
0010
1000
0001
1000
0100
0010
0001
0010
0100
1000
0010
1000
0001
0010
0100
1000
,
0010
1000
0001
0100
0001
0010
0100
1000
0010
0100
0001
1000
0001
0010
0100
1000
,
0001
0010
0001
1000
0001
0100
0010
1000
0100
0010
0100
1000
0001
0100
0010
1000
,
0100
1000
0001
0010
0001
0100
0010
0100
0001
0010
0001
1000
0010
0100
0010
1000
,
0100
1000
0001
1000
0010
0100
0001
0100
0010
1000
0100
1000
0001
0100
0010
1000
,
0100
1000
0001
0010
0001
0100
0010
1000
0100
1000
0001
0100
0010
1000
0100
0010
,
0001
1000
0010
0100
0001
1000
0001
0100
0010
1000
0100
0010
0001
1000
0100
1000
,
0001
0010
0001
0100
0010
1000
0001
0100
0010
0100
0001
0010
0100
1000
0001
0010
,
0100
0010
0001
0100
0010
1000
0010
0100
0010
1000
0100
0010
0001
1000
0100
1000
,
0001
0010
0001
0100
0010
1000
0001
0100
0001
1000
0100
0010
0001
1000
0001
0010
,
0100
1000
0010
0100
0001
1000
0001
0100
0010
1000
0100
0010
0001
1000
0100
1000
,
0001
0010
0001
0100
0010
1000
0001
1000
0010
0100
0001
0010
0001
1000
0100
1000
,
0001
0010
0001
0100
0010
0100
0001
1000
0010
0100
0001
0010
0100
1000
0001
1000
,
0100
0010
0001
0100
0010
1000
0001
0100
0010
0100
0001
0010
0100
1000
0100
0010
,
0001
0100
0001
0010
0100
0010
0001
1000
0100
1000
0010
0100
0001
1000
0010
1000
,
0001
0100
0001
0010
0100
1000
0001
0010
0100
0010
0001
0100
0010
1000
0001
0100
,
0010
0100
0001
0010
0100
1000
0100
0010
0100
1000
0010
0100
0001
1000
0010
1000
,
0001
0100
0001
0010
0100
1000
0001
0010
0001
1000
0010
0100
0001
1000
0001
0100
,
0010
1000
0100
0010
0001
1000
0001
0010
0100
1000
0010
0100
0001
1000
0010
1000
,
0001
0100
0001
0010
0100
1000
0001
1000
0100
0010
0001
0100
0001
1000
0010
1000
,
0001
0100
0001
0010
0100
0010
0001
1000
0100
0010
0001
0100
0010
1000
0001
1000
,
0010
1000
0100
0010
0001
0001
1000
1000
,
0001
0100
0001
0010
0100
1000
0100
0010
0001
0100
0001
0010
0100
1000
0100
0010
,
0001
0100
0001
0010
0100
1000
0100
0010
0001
0100
0010
1000
0001
1000
0010
0100
,
0001
0010
0100
1000
0010
1000
0100
0010
0001
0010
0100
1000
0010
1000
0100
0010
,
0001
0010
0100
1000
0010
1000
0100
0010
0001
0100
0010
1000
0001
0100
0010
1000
,
0001
0010
0001
0100
0010
1000
0010
0100
0001
0010
0001
0100
0010
1000
0010
0100
,
0001
0010
0001
0100
0010
1000
0010
0100
0001
0010
0100
1000
0001
1000
0100
0010
,
0001
0010
0100
1000
0001
0100
0010
1000
,
0100
0000
0010
0000
0001
0000
0100
0000
0010
1000
0100
0000
0010
0100
0010
0001
,
1000
0010
1000
0100
0010
0001
0010
0100
1000
0010
1000
0100
0010
0001
0010
0100
,
1000
0010
1000
0100
0010
0001
0010
0100
1000
0010
0100
0001
1000
0001
0100
0010
,
1000
0100
0010
0001
0100
0001
0010
0100
1000
0100
0010
0001
0100
0001
0010
0100
,
1000
0100
0010
0001
0100
0001
0010
0100
1000
0010
0100
0001
1000
0010
0100
0001
,
1000
0100
1000
0010
0100
0001
0100
0010
1000
0100
1000
0010
0100
0001
0100
0010
,
1000
0100
1000
0010
0100
0001
0100
0010
1000
0100
0010
0001
1000
0001
0010
0100
,
1000
0001
1000
0010
0100
0001
0100
0010
1000
0001
1000
0100
0010
0001
0010
0100
,
1000
0001
1000
0010
0100
0010
1000
0001
1000
0100
0010
0100
1000
0010
0100
0001
,
1000
0100
1000
0100
1000
0100
1000
0100
,
0010
0001
0100
0001
0100
0001
0100
0001
,
0100
0001
0010
0100
0010
0100
0010
0100
,
0010
0100
1000
0010
1000
0010
1000
0010
,
1000
0010
0100
0001
0010
0001
0010
0001
,
0010
0001
0100
0010
0100
0010
0100
0010
,
0100
0010
1000
0100
1000
0100
1000
0100
,
0010
0001
0100
0010
0100
0010
1000
0100
,
1000
0010
1000
0010
1000
0010
1000
0010
,
0100
0001
0010
0001
0010
0001
0010
0001
,
0010
0001
0100
0010
0100
0010
0100
0010
,
0100
0010
1000
0100
1000
0100
1000
0100
,
1000
0100
0010
0001
0100
0001
0100
0001
,
0100
0001
0010
0100
0010
0100
0010
0100
,
0010
0100
1000
0010
1000
0010
1000
0010
,
0100
0001
0010
0100
0010
0100
0010
0100
,
1000
0010
0100
0001
0010
0100
0010
0001
,
1000
0100
1000
0010
0100
0001
0010
0001
,
0100
0010
0100
0010
1000
0100
1000
0001
,
0100
0010
0100
0010
1000
0100
1000
0001
,
0010
0100
0010
0001
0100
0010
0100
0001
,
1000
0010
1000
0100
0010
0001
0100
0001
,
0010
0100
0010
0100
1000
0010
1000
0001
,
0010
0100
0010
0100
1000
0010
0100
0001
,
1000
0100
0000
0100
0010
0001
1000
0010
,
0100
0001
0000
0001
1000
0010
1000
0001
,
0010
0100
0010
0100
1000
0010
0100
0010
,
1000
0100
1000
0100
0010
0001
1000
0100
,
1000
0010
0000
0010
0100
0001
1000
0100
,
0010
0001
0000
0001
1000
0100
1000
0001
,
0100
0010
0100
0010
1000
0100
0010
0100
,
1000
0010
1000
0010
0100
0001
1000
0010
,
1000
0100
0010
0001
0010
0001
1000
0010
0100
0010
1000
0001
0010
0001
1000
0001
,
0100
0010
1000
0001
1000
0001
0010
0100
0010
0001
1000
0010
1000
0001
1000
0100
,
0010
0001
1000
0100
1000
0100
1000
0001
0100
0010
0100
0001
1000
0001
0010
0001
,
1000
0010
0100
0001
1000
0100
0010
0001
1000
0010
0100
0001
1000
0100
0010
0001
,
1000
0010
0100
0001
1000
0001
0100
0010
1000
0100
0010
0100
1000
0001
0010
0100
,
1000
0010
1000
0001
0100
0001
1000
0010
1000
0100
0010
0100
1000
0001
0010
0100
,
1000
0001
0010
0001
1000
0001
1000
0010
1000
0001
1000
0100
0010
0001
0100
0010
,
1000
0000
0010
0000
0100
0000
0001
0000
1000
0100
0010
0100
1000
0001
0100
0010
,
1000
0001
0010
0100
0010
0100
1000
0010
0100
0001
1000
0100
0010
0001
0010
0100
,
1000
0010
0100
0001
0100
0001
0010
0100
1000
0100
0010
0001
0100
0010
0100
0001
,
1000
0100
1000
0001
1000
0010
1000
0001
0010
0100
0010
0001
0100
0010
1000
0010
,
0100
0001
1000
0001
0010
0001
1000
0001
0100
0010
0100
0001
0010
0100
1000
0001
,
0100
0010
1000
0100
1000
0100
0010
0001
0100
0010
1000
0010
0100
0001
0010
0100
,
0010
0001
0100
0010
0100
0010
1000
0100
0010
0100
1000
0001
0010
0001
0100
0010
,
1000
0100
0010
0001
1000
0001
0010
0100
1000
0010
0100
0001
1000
0001
0100
0010
,
1000
0100
0010
0001
0100
0010
1000
0001
1000
0010
0100
0001
0010
0100
1000
0010
,
1000
0100
0010
0001
0010
0001
1000
0010
0100
0001
0010
0001
0100
0010
1000
0001
,
0100
0010
0100
0001
0100
0001
1000
0100
0010
0100
1000
0010
1000
0100
0010
0001
,
1000
0010
1000
0001
1000
0100
1000
0001
0100
0010
0100
0001
0010
0100
1000
0100
,
0010
0001
1000
0001
0100
0001
1000
0001
0010
0100
0010
0001
0100
0010
1000
0001
,
1000
0010
0100
0001
0100
0001
1000
0100
0010
0001
0100
0001
0010
0100
1000
0001
,
0010
0100
0010
0001
0010
0001
1000
0010
0100
0010
1000
0100
1000
0010
0100
0001
,
1000
0100
0010
0001
1000
0010
0100
0001
1000
0100
0010
0001
1000
0010
0100
0001
,
1000
0100
1000
0001
1000
0010
1000
0001
0010
0100
1000
0010
0100
0001
0010
0100
,
1000
0010
0100
0001
0100
0010
1000
0100
0010
0001
1000
0001
0100
0001
1000
0001
,
0010
0100
0010
0001
1000
0100
1000
0010
0100
0001
1000
0001
0010
0001
1000
0001
,
0100
0010
1000
0001
0100
0001
0010
0100
1000
0001
1000
0010
1000
0001
1000
0100
,
0010
0100
1000
0001
0010
0001
0100
0010
1000
0001
1000
0100
1000
0001
1000
0010
,
0100
0001
1000
0001
0100
0010
1000
0100
0010
0001
1000
0001
0100
0001
1000
0001
,
0010
0100
0010
0001
1000
0100
1000
0010
0100
0001
1000
0001
0010
0001
1000
0001
,
0100
0010
1000
0100
0010
0001
0010
0100
1000
0010
1000
0001
1000
0100
1000
0001
,
0010
0100
1000
0010
0100
0001
0010
0100
1000
0010
1000
0100
0010
0001
0100
0010
,
1000
0100
0010
0001
0010
0100
1000
0010
0100
0001
1000
0001
0010
0001
1000
0001
,
0100
0010
0100
0001
1000
0010
1000
0100
0010
0001
1000
0001
0100
0001
1000
0001
,
0010
0100
1000
0001
0010
0001
0100
0010
1000
0001
1000
0100
1000
0001
1000
0010
,
0100
0010
1000
0001
0100
0001
0010
0100
1000
0001
1000
0010
1000
0001
1000
0100
,
0010
0001
1000
0001
0010
0100
1000
0010
0100
0001
1000
0001
0010
0001
1000
0001
,
0100
0010
0100
0001
1000
0010
1000
0100
0010
0001
1000
0001
0100
0001
1000
0001
,
0010
0100
1000
0001
0010
0001
0100
0010
1000
0001
1000
0100
1000
0001
1000
0010
,
0100
0010
1000
0001
0100
0001
0010
0100
1000
0001
1000
0010
0100
0001
0010
0100
,
1000
0010
0100
0001
1000
0001
0100
0010
,
1000
0001
0010
0100
0010
0001
1000
0100
,
1000
0001
0100
0001
1000
0010
0100
0010
,
1000
0001
0010
0100
0010
0001
1000
0001
,
0100
0010
1000
0001
0100
0001
1000
0010
,
1000
0001
0010
0001
1000
0100
1000
0001
,
0100
0010
1000
0001
0100
0001
1000
0010
,
1000
0001
0010
0100
0010
0001
1000
0100
,
1000
0010
0100
0001
0100
0010
1000
0001
,
1000
0100
0010
0001
0010
0100
1000
0001
,
1000
0010
0100
0010
1000
0001
0100
0001
,
1000
0100
0010
0100
1000
0001
0010
0100
,
1000
0001
0100
0001
1000
0010
0100
0010
,
1000
0001
0010
0001
1000
0100
0010
0001
,
1000
0010
1000
0001
0100
0010
0100
0001
,
0010
0100
0000
0100
1000
1000
0001
0001
,
0010
0001
1000
0100
0010
0001
1000
0001
,
0100
0010
1000
0001
0100
0001
1000
0010
,
1000
0001
0010
0100
1000
0001
0010
0001
,
1000
0010
0100
0010
1000
0001
0100
0001
,
1000
0100
0010
0001
1000
0001
0010
0100
,
1000
0001
0100
0001
1000
0010
0100
0001
,
1000
0001
0000
0001
0000
0001
0000
0001
,
0010
0100
1000
0001
1000
0100
0010
0001
1000
0001
0100
0010
1000
0001
0100
0001
,
1000
0100
0010
0100
1000
0001
0010
0100
1000
0001
0010
0100
0010
0001
1000
0100
,
1000
0001
0100
0001
1000
0010
0100
0010
1000
0001
0100
0001
1000
0010
0100
0001
,
1000
0100
0010
0100
1000
0001
0010
0100
1000
0001
1000
0100
0010
0001
1000
0001
,
0100
0010
1000
0001
0100
0001
1000
0010
0100
0010
1000
0001
0100
0001
1000
0010
,
1000
0001
0010
0100
1000
0100
0010
0001
1000
0001
0010
0100
1000
0001
0010
0001
,
1000
0010
0100
0010
1000
0001
0100
0001
1000
0010
0100
0001
0100
0010
1000
0001
,
1000
0100
0010
0100
1000
0001
0010
0001
1000
0100
0010
0001
1000
0001
0010
0100
,
1000
0010
0100
0010
1000
0100
0010
0001
0100
0001
1000
0010
1000
0100
0010
0001
,
0100
0000
0000
0000
,
0000
0000
0000
0000
,
0000
0000
0000
0000
,
00M0
0000
0000
0000
;
