#TITLE:Boom Boom Boom Boom;
#SUBTITLE:;
#ARTIST:DJ Mezmerize;
#TITLETRANSLIT:;
#SUBTITLETRANSLIT:;
#ARTISTTRANSLIT:;
#CREDIT:;
#BANNER:boom.png;
#BACKGROUND:boomBG.png;
#LYRICSPATH:;
#CDTITLE:;
#MUSIC:Boom3.ogg;
#OFFSET:0.000;
#SAMPLESTART:96.600;
#SAMPLELENGTH:12.000;
#SELECTABLE:YES;
#DISPLAYBPM:139.000;
#BPMS:0.000=139.070,28.000=69.535,30.000=139.070,123.000=278.140,126.000=139.070,235.000=278.140,238.000=139.070;
#STOPS:123.000=0.220
,124.000=0.220
,125.000=0.220
,235.000=0.220
,236.000=0.220
,237.000=0.220
;
#BGCHANGES:;
// cache tags:
#FIRSTBEAT:16.000;
#LASTBEAT:299.000;
#SONGFILENAME:Songs/Rodd's Revival/Boom Boom Boom Boom (Rodd Steps)/Boom Boom Boom Boom (Rodd Steps).sm;
#HASMUSIC:1;
#HASBANNER:1;
#MUSICLENGTH:131.310;
// end cache tags

//---------------dance-single - R. Farias----------------
#NOTES:
     dance-single:
     R. Farias:
     Challenge:
     9:
     0.707,0.712,0.343,0.891,0.126,488.000,45.000,117.000,58.000,0.000:





0000
0000
0000
0000
,
0000
0000
0000
0000
,
0000
0000
0000
0000
,
0000
0000
0000
0000
,
0002
0000
0103
0010
2000
0000
3100
0010
,
0001
0000
0100
0000
0010
0000
0100
0010
0100
0000
0010
0000
1000
0000
0100
0000
,
0020
0000
0031
0100
0020
0000
0130
0001
,
20M2
0M00
0000
0MM0
0M00
00M0
3MM3
0000
1001
0000
0001
0000
0100
0000
0010
0000
,
1000
0000
0100
0000
0010
0000
0100
0000
1000
0000
0001
0000
0100
0000
0010
1000
,
0100
0010
0100
1000
0002
0103
0020
2030
,
3200
0000
0310
0000
0001
0000
0010
0000
0100
0000
1000
0000
0001
0000
0100
0001
,
0100
0010
0100
0001
2000
3100
0020
0230
,
2300
0000
3001
0000
0200
0000
0320
0000
0130
0000
0001
0000
1000
0000
0100
0010
,
0100
0010
0001
1000
0002
0103
0020
2030
,
3200
0000
1300
0000
0001
0000
1000
0000
0100
0000
1000
0000
0010
0000
0100
0010
,
0100
0001
0010
0001
0100
0010
0100
0001
,
2000
0000
3100
0010
0001
1000
0200
0000
,
0000
0000
0000
0000
0000
0310
0001
0100
,
0020
0000
0130
0001
2000
0000
3200
0000
,
0302
0000
0023
0000
2030
3100
0010
0001
,
0200
0000
0310
0010
0100
0001
2000
0000
,
0100
0000
0001
0000
3100
1000
0010
0100
,
0001
0010
0100
1000
0001
0100
0010
1000
,
1100
0110
0011
0101
1002
0000
0103
0010
,
2000
0000
3100
0010
0100
1000
0001
0100
,
0010
0100
0002
0000
2003
0000
3100
0001
,
0200
0000
0310
0001
0100
0020
0230
0302
,
2003
3100
0010
0001
0201
0000
0310
1000
,
1020
0000
1030
0100
0010
0001
0010
0100
,
1000
0001
0100
0010
0210
0000
0310
1000
,
2100
0000
3100
0020
0000
0030
MM11
0000
,
M1M1
0000
M11M
0000
1M1M
1000
0100
0010
,
0001
0100
1000
0100
0010
1000
0100
0010
,
0001
0000
0010
0000
0100
0000
1000
0000
0002
0000
0000
0203
0000
0000
0310
0000
,
0100
0000
0001
0000
1000
0000
0100
0000
0020
0000
0030
0001
0100
0000
0000
0000
,
M11M
0000
1M1M
0000
11MM
0000
1MM1
0001
,
0100
1000
0100
0010
2000
0000
3100
0010
,
0100
0000
1000
0000
0001
0000
0100
0000
0020
0000
0000
0230
0000
0000
0301
0000
,
1000
0000
0010
0000
0100
0000
0001
0000
2000
0000
3000
0000
1100
0000
0010
0100
,
0010
0000
0001
0000
0100
0000
0010
0000
0200
0000
0000
0302
0000
0000
1003
0000
,
0100
0000
0001
0000
0100
0000
0010
0000
0002
0000
0000
0203
0000
0300
0010
0100
,
0010
0000
1000
0000
1000
0000
0100
0000
0020
0000
0000
0230
0000
0000
1300
0000
,
0001
0000
0100
0000
0010
0000
0100
0000
0002
0000
0000
2003
0000
0000
3100
0010
,
0001
0000
0100
0000
0010
0000
1000
0000
0200
0000
0000
0320
0000
0000
0130
0000
,
1000
0000
0000
0000
0000
0000
0001
0000
0000
0000
0000
0000
0100
0000
0000
0000
0000
0000
0010
0000
0000
0000
0000
0000
2000
0000
0000
0000
0000
0000
0000
0000
0000
3200
0000
0000
0000
0000
0000
0000
0300
0000
0010
0000
0000
0100
0000
0000
,
0010
0000
0100
0000
1000
0000
0001
0000
2000
0000
0000
3002
0000
0000
0103
0000
,
0010
0000
0100
0000
0001
0000
1000
0000
0200
0000
0310
0001
0100
0000
0010
1000
,
0100
0000
0010
0001
0100
0000
0010
0100
0020
0000
0000
0000
0130
0000
0001
0000
,
2000
0000
3100
0001
0200
2300
3020
0032
,
0023
2030
3200
0320
0032
0000
0103
0010
,
2000
0000
3100
0010
0200
2300
3002
0203
,
0320
2030
3200
0000
0320
0000
0031
1000
,
0002
0000
0103
0010
0100
0010
1000
0100
,
0010
0001
0200
0000
0320
0000
1030
1000
,
2000
0000
0100
3200
0000
0320
0032
2003
,
3002
0003
0100
0001
0100
0000
0010
0000
1000
0000
0100
0000
0110
0000
0010
0000
,
0001
0100
0101
0100
0020
2030
3200
0302
,
0203
0320
0032
0000
0103
0010
0110
0010
,
1000
0100
1100
2000
0000
3000
11MM
0000
,
1M1M
0000
MM11
0000
M1M1
0000
1001
1000
,
0100
0010
0001
0010
0200
0000
1300
0001
,
0100
0000
0010
0000
1000
0000
0100
0000
0020
0000
0000
0032
0000
0000
0103
0000
,
0010
0000
0100
0000
0001
0000
1000
0000
0200
0000
0000
0310
0001
0000
0000
0000
,
M1M1
0000
M11M
0000
1MM1
0000
11MM
0100
,
0010
0100
1000
0100
0210
0000
0310
0001
,
1000
0000
0001
0000
0100
0000
0010
0000
2000
0000
0000
3200
0000
0000
0310
0000
,
0100
1000
0001
0100
0002
0003
M1M1
0000
,
1MM1
0000
11MM
0000
1MM1
0000
1M1M
0010
,
0100
0001
1000
0100
0002
0000
0103
0010
,
0001
0000
0100
0000
0010
0000
1000
0000
0002
0000
0000
2003
0000
0000
3100
0000
,
0010
0000
0100
0000
0010
0000
0001
0000
0100
0000
0000
0010
1000
0000
0000
0000
,
1M1M
0000
11MM
0000
M11M
0000
MM11
0010
,
0001
0100
0010
1000
1100
0000
0110
0010
,
0001
0000
1000
0000
0001
0000
0100
0000
0020
0000
0000
2030
0000
0000
3100
0000
,
0010
0001
0010
0100
0020
0000
0030
0000
;

//---------------dance-single - R. Farias----------------
#NOTES:
     dance-single:
     R. Farias:
     Beginner:
     1:
     0.132,0.227,0.091,0.000,0.000,109.000,12.000,0.000,0.000,0.000:

0000
0000
0000
0000
,
0000
0000
0000
0000
,
0000
0000
0000
0000
,
0000
0000
0000
0000
,
1000
0000
0001
0000
,
0000
0000
0000
0000
,
0100
0000
0010
0000
,
1010
0000
1000
0001
,
1000
0000
0000
0000
,
0000
0000
0001
1000
,
0001
0000
0000
0000
,
0000
0000
0100
0010
,
0100
0010
0000
0000
,
0000
0000
1000
0010
,
1000
0010
0000
0000
,
0000
0000
1000
0000
,
0001
0000
0100
0000
,
0000
0000
0010
0000
,
1000
0000
0001
0000
,
0100
0000
0010
0000
,
0100
0000
0001
0000
,
0000
0000
1000
0000
,
0100
0000
0010
0000
,
0000
0000
0110
0000
,
0110
0000
0010
0000
,
0001
0000
0101
0000
,
0101
0000
0100
0000
,
0010
0000
1010
0000
,
1100
0000
0100
0000
,
0010
0000
0001
0000
,
1000
0000
0001
0000
,
0000
0000
0001
0000
,
0100
0000
0010
0000
,
1000
0000
0100
0000
,
0000
0000
0010
0000
,
0001
0000
1000
0000
,
0001
0000
0100
0000
,
0010
0000
1000
0000
,
0000
0000
0100
0000
,
0000
0000
0010
0000
,
0000
0000
0001
0000
,
0000
0000
0100
0000
,
0000
0000
0010
0000
,
0000
0000
1000
0000
,
0000
0000
0001
0000
,
0000
0000
0100
0000
,
0000
0000
0010
0000
,
0000
0000
0100
0000
,
0001
0000
1000
0000
,
0000
0000
0100
0000
,
0010
0000
0110
0000
,
0000
0000
0011
0000
,
0000
0000
0001
0000
,
0100
0000
0110
0000
,
0000
0000
0010
0000
,
1000
0000
1100
0000
,
0000
0000
0100
0000
,
0010
0000
0001
0000
,
1000
0000
0001
0000
,
0000
0000
0000
0001
,
0000
0100
0000
0010
,
0000
1000
0000
0100
,
0000
0010
0000
0001
,
0000
0100
0010
0000
,
0000
0000
1000
0000
,
0000
0000
0100
0000
,
0000
0000
0010
0000
,
0000
0000
0001
0000
,
0000
0000
0100
0000
,
0000
0000
0010
0000
,
0000
0000
1000
0000
,
0000
0000
0001
0000
,
0100
0000
0010
0000
,
1000
0000
0001
0000
,
1000
0000
1100
0000
;

//---------------dance-single - R. Farias----------------
#NOTES:
     dance-single:
     R. Farias:
     Easy:
     3:
     0.207,0.312,0.053,0.236,0.015,152.000,7.000,31.000,40.000,0.000:

0000
0000
0000
0000
,
0000
0000
0000
0000
,
0000
0000
0000
0000
,
0000
0000
0000
0000
,
0002
0203
0320
0000
,
1030
0000
0100
0000
,
0010
0000
0001
0000
,
2002
0000
0000
3003
1001
0000
0001
0000
,
0200
0000
0310
1000
,
0010
1000
0200
0000
,
0320
0000
0031
1000
,
0001
1000
0002
0000
,
0203
0000
0310
1000
,
0001
1000
0200
0000
,
0320
0000
0031
0100
,
0010
0100
0010
1000
,
0010
1000
0001
1000
,
0000
0100
0000
0010
,
0001
1000
0002
0000
,
0203
0000
0320
0000
2030
0000
0000
3000
,
0100
0010
0100
0010
,
0001
0100
0000
0010
,
0000
1000
0000
0100
,
0000
0000
0020
0000
,
0032
0000
1003
0001
,
1000
0001
2000
0000
,
3200
0000
0310
0001
,
1000
0000
0002
0000
,
0203
0000
0310
1000
,
0010
0000
0200
0000
,
0302
0000
0000
0000
0003
0000
MMMM
MMMM
,
MMMM
MMMM
M00M
0MM0
1000
0000
0000
0000
,
0001
0000
0100
0000
,
0010
0000
1000
0000
,
0100
0000
0010
0000
,
0100
0000
1000
0000
,
0000
0000
0001
0000
,
0000
0000
0100
0000
,
0010
0000
1010
0000
,
0000
0000
1000
0000
,
0100
0000
0010
0000
,
0001
0000
1000
0000
,
0001
0000
0100
0000
,
0010
0000
1000
0000
,
0000
0000
0001
0000
,
0100
0000
0010
0000
,
1000
0000
0001
0000
,
0000
0000
2002
0000
,
0000
0000
3003
0000
,
0000
0000
0220
0000
,
0000
0000
0330
0000
,
0000
0000
0001
0100
,
0020
0000
0000
0030
,
0000
0000
1000
0001
,
0200
0000
0000
0300
,
0000
0000
0010
1000
,
0001
1000
0100
0000
,
0010
0000
0001
1000
,
0001
0000
0000
0000
0200
0000
0000
0000
0300
0000
0000
0000
MMMM
0000
M00M
0MM0
,
0MM0
M00M
0000
MMMM
0000
MMMM
0000
0000
0000
0000
0000
0000
1000
0000
0000
0000
,
0000
0100
0000
0010
,
0000
0100
0000
1000
,
0000
0001
0000
0100
,
0000
0000
0010
0000
,
1000
0000
0001
0000
,
1000
0000
0100
0000
,
0000
0000
0110
0010
,
0010
0010
0010
0000
,
0001
0000
1000
0000
,
0001
0000
0100
0000
,
0010
0000
1000
0001
,
0001
0001
0001
0000
,
0100
0000
0010
0000
,
1000
0000
0001
0000
,
1000
0000
1100
0000
;

//---------------dance-single - R. Farias----------------
#NOTES:
     dance-single:
     R. Farias:
     Medium:
     5:
     0.432,0.454,0.320,0.137,0.000,337.000,42.000,18.000,28.000,0.000:

0000
0000
0000
0000
,
0000
0000
0000
0000
,
0000
0000
0000
0000
,
0000
0000
0000
0000
,
0001
0000
0100
0010
2000
0000
0000
0000
,
3100
0010
0001
1000
,
0100
0000
0010
0001
0200
0000
0000
0300
,
0220
0000
0000
0330
0010
0000
1000
0000
,
0001
1000
1100
0000
,
0011
0000
0001
0100
,
0010
1000
1100
0000
,
0110
0000
0010
0001
,
1000
0001
0101
0000
,
0110
0000
0010
1000
,
0001
1000
1100
0000
,
0000
0000
0001
0100
,
0010
0000
0100
0000
0001
0000
1000
0100
,
1000
0000
0001
0000
1000
0000
0001
0100
,
0010
1000
0100
0000
0010
0000
0001
0000
,
1000
0001
0100
0010
,
1000
0000
0100
0000
0010
0001
0010
0000
,
0001
0000
0100
0000
0010
1000
0010
1000
,
0100
1000
0100
1000
0001
0000
0100
0000
,
0101
0000
0101
0000
0100
0000
0010
1000
,
0200
0000
0000
0000
0310
0001
0010
0001
,
1000
0001
1000
0000
0002
0000
0103
0010
,
2000
0000
0000
0000
0000
3100
0010
0001
,
0200
0000
0000
0000
0320
0000
1030
0001
,
2000
0000
0000
0000
3100
0010
0001
0010
,
0100
1000
0002
0000
0203
0000
0310
1000
,
0002
0000
0000
0000
0003
0000
1MM1
0MM0
,
1MM1
0MM0
1MM1
0MM0
1MM1
0000
0000
0001
,
0100
0010
1000
0100
0010
0000
0100
0000
,
1000
0001
0100
0000
0010
0000
1000
0000
,
0100
0010
0001
0010
0100
0000
1000
0000
,
0001
0000
0100
0000
0010
0000
1000
0100
,
0010
0001
0010
0100
1000
0000
0001
0100
,
0010
0100
0001
1000
0100
0000
0000
0010
,
0001
1000
0001
0100
0010
0000
0000
1000
,
0010
1000
0100
0010
0001
0000
0000
0100
,
0010
1000
0100
0010
0001
0000
0000
0100
,
0010
0100
0001
1000
0100
0000
0000
0010
,
0001
1000
0001
0100
0010
0000
0000
0100
,
0001
1000
0100
1000
0010
0000
0000
0100
,
0001
1000
0100
1000
0010
0000
0000
0100
,
0001
1000
0001
1000
0100
0000
0000
0010
,
0001
1000
0001
1000
0100
0010
0100
1000
,
0001
0100
0010
0000
1010
0000
0000
0000
,
1100
0000
0110
0000
,
0011
0000
0101
0000
,
0110
0000
1001
0000
,
0000
0000
0000
0000
2000
0000
3100
0010
,
0002
0000
0103
0010
,
0100
0000
0001
0000
2000
0000
3100
0010
,
0200
0000
0000
0000
0300
0010
0001
1000
,
0001
0101
0110
0010
,
1010
0000
1000
0000
0100
0010
0100
1000
,
0001
0100
0010
0000
1010
0000
1000
0000
,
1100
0000
0200
0000
0000
0300
M11M
M00M
,
M11M
M00M
M11M
M00M
M11M
0000
0010
0000
,
0001
0000
1000
0000
0001
0000
0100
0010
,
1000
0100
0010
0100
1000
0000
0000
0001
,
0100
0010
1000
0001
0100
0000
0110
0000
,
1010
0000
1100
0000
1001
0000
0001
0100
,
0010
1000
0100
1000
0001
0000
0000
0100
,
0010
0100
0001
1000
0100
0000
0000
0010
,
0100
1000
0001
0100
0010
0000
0110
0000
,
1001
0000
0110
0000
1001
0000
0001
0100
,
0010
1000
0100
1000
0001
0000
0000
0100
,
0010
1000
0100
1000
0001
0000
0000
0100
,
0010
1000
0100
1000
0001
0000
0101
0000
,
0110
0000
1010
0000
1100
0000
0000
0100
,
0010
0100
0010
0001
0010
0000
0000
0001
,
0100
0010
1000
0100
1000
0000
0000
0001
,
0100
0010
1000
0100
0001
0000
0000
0000
;

//---------------dance-single - R. Farias----------------
#NOTES:
     dance-single:
     R. Farias:
     Hard:
     8:
     0.619,0.626,0.198,0.548,0.065,471.000,26.000,72.000,15.000,0.000:

0000
0000
0000
0000
,
0000
0000
0000
0000
,
0000
0000
0000
0000
,
0000
0000
0000
0000
,
0002
0000
0203
0320
2030
0000
3200
0320
,
0031
0000
1000
0000
0001
0000
0100
0001
0100
0000
0010
0000
0100
0000
0001
0000
,
2000
0000
3100
0010
0200
0000
0310
0001
,
MM22
0000
0M00
M000
0M00
0000
MM33
0000
0001
0000
0100
0000
0010
0000
0100
0000
,
0001
0000
1000
0000
0100
0000
0010
0000
0100
0000
1000
0000
0001
0000
0100
0001
,
0100
0010
1000
0100
0020
0000
0130
1000
,
0002
0000
0103
0010
0100
0001
1000
0100
,
0010
0100
1000
0001
0200
0000
0320
2030
,
3200
0000
0000
0000
0320
0000
0032
0000
1003
0000
0001
0000
1000
0000
0001
1000
,
0001
1000
0100
0010
0002
0000
0203
0320
,
0230
0000
0310
1000
0100
0010
0100
1000
,
0001
0100
0010
0000
0110
0000
0010
1000
,
0100
0010
0100
1000
0001
0000
0100
0000
,
0010
0000
1000
0000
0100
0010
0100
1000
,
0001
0000
0100
0010
2000
0000
3200
0000
,
0302
0000
0023
0000
2030
3100
0010
0001
,
0010
0000
0100
1000
0001
0100
0010
0000
,
1000
0000
0100
0000
0010
0001
0100
0010
,
0100
0001
1000
0100
0010
0001
0100
0010
,
1000
1000
1000
1000
0200
0000
0320
0032
,
0203
0000
0320
2030
3100
0010
0100
1000
,
0001
0100
0002
0000
0203
0000
0310
1000
,
0200
0000
0310
0100
1000
0001
0100
0010
,
0100
0001
1000
0100
0020
0000
0130
1000
,
0002
0000
0103
0010
0100
0001
1000
0100
,
0010
0100
1000
0001
0200
0000
0310
0100
,
0020
0000
1030
0010
0000
0000
1010
0000
,
1100
0000
1010
0000
1100
0100
0010
0100
,
1000
0001
0100
0010
2000
0000
0000
3100
,
0010
0000
0100
0000
1000
0000
0001
0000
0200
0000
0000
0320
0000
0000
1030
0000
,
0100
0010
0001
0100
0010
0100
0110
0000
,
1010
0000
1100
0000
1001
0000
0001
0100
,
0010
1000
0100
0010
0002
0000
0103
0010
,
0100
0000
0001
0000
1000
0000
0100
0000
0010
0000
0000
0001
0000
0000
0100
0000
,
0010
0000
1000
0000
0100
0000
1000
0000
0001
0000
0000
0000
0000
0000
0100
0001
,
0100
0000
0010
0000
1000
0000
0100
0000
1000
0000
0001
0000
0100
0000
0010
1000
,
0010
0000
1000
0000
0100
0000
0010
0000
0100
0000
1000
0000
0001
0000
0100
0010
,
0100
0000
0010
0000
1000
0000
0001
0000
0100
0000
0001
0000
1000
0000
0100
0010
,
0100
0000
0010
0000
0001
0000
1000
0000
0001
0000
0100
0000
0010
0000
1000
0010
,
1000
0000
0100
0000
0010
0000
0100
0000
1000
0000
0001
0000
0100
0000
0001
0100
,
0001
0000
0100
0000
0010
0000
1000
0000
0100
0000
1000
0000
0001
0000
0100
0001
,
0100
0010
0100
0001
1000
0100
0010
0100
,
1000
0001
0100
0010
1000
0100
1000
0010
,
0100
0001
0010
0001
2000
0000
3200
0320
,
0032
0000
0103
0010
1000
0100
0010
0100
,
1000
0001
0100
0010
2000
0000
3200
0320
,
0230
0000
1300
0001
0100
0010
1000
0100
,
1000
0010
0100
0001
0020
0000
0032
0000
,
2003
0000
3002
0000
0103
0010
1000
0010
,
2000
3200
0320
0032
,
2003
0000
3002
0000
0103
0010
0100
0001
,
1000
0100
0010
0100
2000
0000
3002
0000
,
0203
0000
0320
0000
1030
0100
0010
0001
,
0010
0100
2000
0000
3002
0000
0203
0000
,
0320
2030
3000
1MM1
,
M11M
0000
1MM1
0000
M11M
0000
0000
1000
,
0100
0010
0001
0100
0010
0000
0000
0100
,
0001
0000
1000
0000
0100
0000
0010
0000
0001
0000
0000
0100
0000
0000
0010
0000
,
0100
0001
1000
0100
0010
0001
0011
0000
,
0101
0000
0110
0000
1010
0000
1000
0100
,
0010
0100
1000
0001
0100
0010
1000
0100
,
1000
0000
0010
0000
0100
0000
0001
0000
1000
0000
0000
0100
0000
0000
0010
0000
,
0001
0100
0010
0100
0001
0000
1001
0000
,
1100
0000
1010
0000
0011
0000
0001
0100
,
0010
1000
0100
1000
0010
0000
0100
0001
,
1000
0000
0100
0000
0010
0000
0100
0000
0010
0000
0000
0001
0000
0000
0100
0000
,
0010
1000
0100
1000
0001
0100
0101
0000
,
0110
0000
1010
0000
1100
0000
0100
0010
,
0100
1000
0001
0100
0010
0000
0100
0001
,
1000
0000
0100
0000
0010
0000
0001
0000
0100
0000
0000
0010
0000
0000
0100
0000
,
0001
1000
0100
1000
0020
0000
0030
0000
;
