#TITLE:Neverland;
#SUBTITLE:;
#ARTIST:DJ Myosuke;
#TITLETRANSLIT:;
#SUBTITLETRANSLIT:;
#ARTISTTRANSLIT:;
#CREDIT:;
#BANNER:Neverland bn.png;
#BACKGROUND:Neverland bg.png;
#LYRICSPATH:;
#CDTITLE:;
#MUSIC:Neverland.ogg;
#OFFSET:0.009;
#SAMPLESTART:116.822;
#SAMPLELENGTH:12.000;
#SELECTABLE:YES;
#BPMS:0.000=300.000;
#STOPS:;
#BGCHANGES:;
// cache tags:
#FIRSTBEAT:40.000;
#LASTBEAT:808.000;
#SONGFILENAME:Songs/SPEEEDCOOOORE 4/Neverland - [Aoreo]/Neverland.sm;
#HASMUSIC:1;
#HASBANNER:1;
#MUSICLENGTH:165.600;
// end cache tags

//---------------dance-single - 16ths----------------
#NOTES:
     dance-single:
     16ths:
     Edit:
     14:
     0.967,1.000,0.103,0.417,0.217,1032.000,17.000,69.000,15.000,0.000:
0000
0000
0000
0000
,
0000
0000
0000
0000
,
0000
0000
0000
0000
,
0000
0000
0000
0000
,
0000
0000
0000
0000
,
0000
0000
0000
0000
,
0000
0000
0000
0000
,
0000
0000
0000
0000
,
0000
0000
0000
0000
,
0000
0000
0000
0000
,
2000
3020
0030
0200
,
0300
0000
0000
0000
,
0002
0203
0300
0020
,
0030
2000
3200
0300
,
2000
3020
0030
0200
,
0300
0000
0000
0000
,
0002
0203
0300
0020
,
0030
2000
3200
0300
,
0010
0000
0001
0000
,
1000
0000
0010
0000
,
0100
0000
0001
0000
,
0010
0000
0100
0000
,
1000
0000
0001
0000
,
0100
0000
0010
0000
,
0100
0000
0001
0000
,
1000
0000
0100
0000
,
1000
0100
1000
0001
,
0100
0010
0100
0001
,
0010
0100
1000
0001
,
0100
0010
0100
0001
,
1000
0100
1000
0001
0100
0010
0100
0001
,
1000
0001
0010
0100
1000
0001
0100
0010
,
1000
0010
0100
0001
0100
0010
1000
0001
1000
0100
0010
0100
1000
0001
0100
0001
,
10M0
0000
0M00
00M0
0000
0M00
00M0
0000
,
0001
0100
0001
1000
0100
0010
0001
1000
,
0100
1000
0010
0100
0001
1000
0001
0010
,
0100
1000
0001
0100
0010
0100
0001
1000
,
0100
0000
0010
0000
0001
0000
1000
0000
0001
0100
0001
0000
1000
0000
0100
0000
,
0010
0100
1000
0010
0100
0001
1000
0010
,
0100
0010
1000
0001
0010
0100
1000
0001
,
0100
0010
0100
0001
1000
0100
0010
0001
,
1000
0100
1000
0001
1000
0010
0100
0010
,
1000
0001
0010
0100
0010
0001
1000
0001
,
0100
0010
0100
0001
1000
0001
0010
0100
,
1000
0001
1000
0100
1000
0001
0100
0010
,
0100
0000
0001
0000
1000
0000
0100
0000
1000
0001
1000
0000
0010
0000
0100
0000
,
0001
0010
0100
1000
0001
0100
0010
0100
,
0001
1000
0100
0010
0100
1000
0001
0100
,
0002
0013
0200
1300
0020
0130
0002
1003
,
0200
0000
0000
0000
0000
0000
0000
0000
0000
0000
0000
0000
0000
0000
0000
0000
0000
0000
0000
0000
0000
0000
0000
0000
0000
0000
0000
0000
0000
0000
0000
0000
0000
0000
0000
0000
0000
0000
0000
0000
0000
0000
0300
0M00
0000
0000
0000
0000
,
1000
0001
0100
0010
0100
0001
1000
0001
,
0010
0100
1000
0001
1000
0100
1000
0001
,
0100
0010
0100
0001
1000
0001
0010
0100
,
1000
0001
0010
0100
0010
0001
1000
0100
,
1000
0001
1000
0010
0100
0010
1000
0001
,
0100
0001
1000
0001
0010
0100
1000
0001
,
1000
0010
0100
0010
1000
0100
0010
0100
,
1000
0000
0001
0000
0100
0000
0010
0000
1000
0000
0000
0000
0001
0100
0001
1000
,
0100
0010
0001
1000
0010
0100
0010
1000
,
0001
0010
0100
1000
0001
1000
0100
1000
,
0010
0100
0010
1000
0100
0010
0001
1000
,
0001
0100
0010
0100
0001
0010
0100
0010
,
0001
1000
0100
1000
0001
0100
0010
0100
,
0001
1000
0001
0010
0100
0010
0100
1000
,
0001
0100
0010
0100
0001
1000
0100
0010
,
0100
1000
0001
0100
0010
0100
0001
1000
,
0002
0000
0000
0000
,
0000
0000
0000
0000
,
0000
0000
0000
0000
,
0000
0000
0000
0000
,
0000
0000
0000
0003
,
0000
0000
0000
0000
0000
1000
0010
0100
,
0000
0001
0000
0010
0000
0100
0000
2000
,
0000
0000
3001
0000
0100
0000
0001
0000
1000
0100
1000
0000
0001
0000
0100
0000
,
0002
0003
0000
0000
,
2002
3003
0000
0000
,
2020
3030
0000
0000
,
0202
0303
0100
0000
0001
0000
0010
0000
,
0220
0330
2200
3300
,
2002
3003
0202
0303
,
0100
0001
0010
0100
,
10M0
0000
00M0
0000
01M0
0000
00M0
0000
10M0
0000
0000
0000
0001
0000
0000
0000
0100
0000
0000
0000
0000
0000
0000
0000
0002
0003
0000
0000
0000
0000
0000
0000
,
1000
0100
1000
0010
0100
0001
1000
0001
,
0010
0100
1000
0001
1000
0100
0010
0100
,
1000
0010
0100
0010
1000
0001
0010
0100
,
1000
0000
0001
0000
0100
0000
0010
0000
1000
0001
1000
0000
0010
0000
0100
0000
,
0010
1000
0001
0010
0001
1000
0100
1000
,
0010
0100
0010
1000
0001
0010
0001
1000
,
0100
0010
0001
1000
0001
0010
0100
0010
,
0001
1000
0010
0100
0010
1000
0100
0010
,
0001
1000
0001
0100
0001
1000
0100
1000
,
0010
0100
0001
1000
0100
1000
0001
0010
,
0100
1000
0001
0100
0010
0100
0001
1000
,
0100
0000
0010
0000
0001
0000
1000
0000
0010
0100
0010
0000
1000
0000
0001
0000
,
0010
0100
1000
0001
1000
0100
0010
0001
,
0100
0010
0100
0001
1000
0001
0010
0100
,
1000
0001
1000
0010
0100
0010
1000
0001
,
0100
0001
1000
0100
0010
0001
1000
0100
,
2000
0000
0000
3000
0001
0100
0010
0100
,
0001
0000
1000
0000
0100
0000
0010
0000
0001
1000
0001
0000
1000
0000
0100
0000
,
1000
0010
0100
0001
0100
0010
1000
0100
,
0010
0001
1000
0100
1000
0001
0100
0010
,
2000
0000
0000
0000
0000
0000
3000
0000
0001
0100
0001
1000
0010
0100
0010
1000
,
0001
1000
0100
0010
0001
1000
0100
1000
0001
0100
0001
0000
1000
0000
0100
0000
,
0020
0030
0001
0000
0100
0000
0001
0000
1000
0000
0100
0000
0010
0000
0100
0000
,
1000
0001
0100
0010
0100
0001
1000
0100
,
0010
0001
1000
0100
1000
0001
0100
0010
,
0100
0001
1000
0001
0010
0100
1000
0001
,
1000
0010
0100
0010
1000
0100
0010
0100
,
1000
0000
0010
0000
0100
0000
0001
0000
1000
0100
1000
0000
0001
0000
0010
0000
,
0100
0000
1000
0000
0001
0000
0100
0000
0010
0000
0100
0000
0001
0000
1000
0100
,
1000
0000
0001
0000
0010
0000
0100
0000
1000
0000
0001
0000
0100
0001
1000
0100
,
1000
0000
0001
0000
0100
0000
0010
0000
0100
0000
0001
1000
0001
0000
1000
0000
,
0100
0010
0001
1000
0001
0100
0010
0100
0001
1000
0100
0010
0001
1000
0100
1000
,
0002
0000
0000
0000
,
0000
0000
0000
0000
,
0000
0000
0000
0000
,
0000
0000
0000
0000
,
0003
0000
0000
0000
,
0000
0000
0000
0000
,
0000
0000
0000
0000
,
0000
0000
0000
0000
,
2000
3000
0000
0000
0000
0000
0000
0000
0000
0000
0000
0000
0000
0000
0000
0000
0000
0000
0000
0000
0000
0000
0000
0000
0000
0000
0000
0000
0000
0000
0000
0000
,
0000
0000
0000
0000
,
0200
0300
0000
0000
0000
0000
0000
0000
0000
0000
0000
0000
0000
0000
0000
0000
0000
0000
0000
0000
0000
0000
0000
0000
0000
0000
0000
0000
0000
0000
0000
0000
,
0000
0000
0000
0000
,
0200
0300
0000
0000
0000
0000
0000
0000
0000
0000
0000
0000
0000
0000
0000
0000
0000
0000
0000
0000
0000
0000
0000
0000
0000
0000
0000
0000
0000
0000
0000
0000
,
0000
0000
0000
0000
,
2000
3000
0000
0000
0000
0000
0000
0000
0000
0000
0000
0000
0000
0000
0000
0000
0000
0000
0000
0000
0000
0000
0000
0000
0000
0000
0000
0000
0000
0000
0000
0000
,
0002
0003
0000
0000
0000
0000
0000
0000
0000
0000
0000
0000
0000
0000
0000
0000
0000
0000
0000
0000
0000
0000
0000
0000
0000
0000
0000
0000
0000
0000
0000
0000
,
1000
0100
0010
0100
0000
1000
0001
1000
,
0010
0100
0010
1000
0000
0100
0010
0001
,
0100
0010
0100
0001
0000
0010
0100
1000
,
0010
0100
0010
1000
0000
0100
0010
0001
,
1000
0010
0100
0010
0000
1000
0100
0010
,
0100
1000
0010
0100
0000
0001
0100
0010
,
0100
0001
0010
0100
0000
1000
0100
1000
,
0010
0100
0001
0010
0000
0100
1000
0010
,
0100
0010
1000
0100
0000
0010
0001
0100
,
0010
0100
0001
0010
0000
0100
1000
0001
,
0100
0010
0100
0001
0000
1000
0010
0100
,
0001
0010
0100
1000
0000
0001
0100
0010
,
0100
0001
0010
0100
0000
1000
0010
0100
,
0010
1000
0001
0010
0000
0001
1000
0100
,
0010
0001
1000
0100
0000
1000
0100
1000
,
0001
0000
0000
0000
,
1002
1003
0001
0100
,
0010
0100
0001
0010
,
0200
1300
0001
0100
,
0010
0100
0001
1000
,
0002
0100
0013
0100
0001
1000
0100
0010
,
0001
1000
0100
1000
0010
0100
0001
0010
,
0100
0000
0000
0000
,
0000
0000
0000
0000
,
1000
0100
1000
0001
0100
0010
0100
0001
,
1000
0000
0001
0000
0010
0000
0100
0000
1000
0000
0001
0000
0100
0000
0001
1000
,
0100
0000
1000
0010
0000
0100
0001
0010
,
0100
0000
0000
0000
1000
0000
0001
0000
0000
0000
0100
0000
0001
1000
0001
0100
,
0001
1000
0100
0010
0100
1000
0010
0100
,
0001
1000
0001
0010
0100
1000
0001
0100
,
0001
0010
0100
0010
0000
0100
1000
0010
,
0100
0000
0001
0100
0000
0001
1000
0000
,
0100
0010
0001
1000
0010
0100
0010
1000
,
0001
0000
0010
0000
0100
0000
1000
0000
0001
0000
0100
0000
0010
0000
0100
0001
,
1000
0000
0001
0100
0000
0010
0100
0001
,
1000
0000
0000
0000
0100
0000
0010
0000
0000
0000
0001
0000
1000
0100
1000
0001
,
0100
0001
0010
0100
1000
0001
0100
0010
,
0100
0001
1000
0100
1000
0010
0100
0001
,
1000
0100
0010
0100
1000
0000
0001
0100
,
0001
0010
0100
1000
,
2002
0000
0000
0000
,
0000
0000
0000
3003
,
2002
0000
0000
0000
0000
0000
0000
3003
,
0202
0000
0000
0303
,
2020
0000
0000
3030
2002
0000
0000
3003
,
2200
0000
0000
3300
0220
0000
0000
0330
,
0020
0032
2003
3020
,
0130
0000
0001
0000
1000
0000
0001
0000
0010
0100
1000
0001
4000
0000
0000
3000
,
0000
0000
0000
0000
,
0000
0000
0000
0000
0001
0100
0001
1000
,
0010
1000
0010
0000
0100
0000
0001
1000
0001
0000
1000
0000
0100
0000
0010
0000
,
0001
1000
0100
0010
0100
1000
0001
0100
0010
0100
0001
1000
,
0001
0100
0001
1000
0010
0100
0010
1000
0001
1000
0100
0010
0004
0000
0000
0000
,
1003
0100
1000
0001
0100
0010
1000
0010
0100
0001
1000
0001
0400
0000
0000
0000
,
0304
0000
0000
0000
,
0000
0000
0000
0000
0000
0000
0000
0003
,
1001
0000
1000
0100
0000
1000
0001
0100
,
0010
0100
0001
1000
0000
0001
0100
0010
,
0100
0001
0010
0100
0000
1000
0100
1000
,
0010
0100
0001
0010
0000
0100
1000
0001
,
0100
0010
0100
0001
0000
1000
0100
0010
,
0100
1000
0001
0100
0000
0001
0100
0001
,
0010
0100
1000
0001
0000
0100
0010
0100
,
0001
1000
0100
0010
0000
0001
1000
0001
,
0100
0000
0000
0000
,
0000
0000
0000
0000
,
0000
0000
0000
0000
,
0000
0000
0000
0000
,
MMMM
0000
0000
0000
;

//---------------dance-single - J. Nero----------------
#NOTES:
     dance-single:
     J. Nero:
     Challenge:
     12:
     0.982,1.000,0.103,0.429,0.232,1047.000,17.000,71.000,12.000,0.000:
0000
0000
0000
0000
,
0000
0000
0000
0000
,
0000
0000
0000
0000
,
0000
0000
0000
0000
,
0000
0000
0000
0000
,
0000
0000
0000
0000
,
0000
0000
0000
0000
,
0000
0000
0000
0000
,
0000
0000
0000
0000
,
0000
0000
0000
0000
,
2000
3020
0030
0200
,
0300
0000
0000
0000
,
0002
0203
0300
0020
,
0030
2000
3200
0300
,
2000
3020
0030
0200
,
0300
0000
0000
0000
,
0002
0203
0300
0020
,
0030
2000
3200
0300
,
0010
0000
0001
0000
,
1000
0000
0010
0000
,
0100
0000
0001
0000
,
0010
0000
0100
0000
,
1000
0000
0001
0000
,
0100
0000
0010
0000
,
0100
0000
0001
0000
,
1000
0000
0100
0000
,
1000
0100
1000
0001
,
0100
0010
0100
0001
,
0010
0100
1000
0001
,
0100
0010
0100
0001
,
1000
0100
1000
0001
0100
0010
0100
0001
,
1000
0001
0010
0100
1000
0001
0100
0010
,
1000
0001
0100
0001
1000
0100
0010
0001
1000
0010
0100
0001
,
10M0
0000
0M00
00M0
0000
0M00
00M0
0000
,
0001
0100
0001
1000
0100
0010
0001
1000
,
0100
1000
0010
0100
0001
1000
0001
0010
,
0100
1000
0001
0100
0010
0100
0001
1000
,
0100
0000
0010
0000
0001
0000
1000
0000
0001
0100
0001
0000
1000
0000
0100
0000
,
0010
0100
1000
0010
0100
0001
1000
0010
,
0100
0010
1000
0001
0010
0100
1000
0001
,
0100
0010
0100
0001
1000
0100
0010
0001
,
1000
0100
1000
0001
1000
0010
0100
0010
,
1000
0001
0010
0100
0010
0001
1000
0001
,
0100
0010
0100
0001
1000
0001
0010
0100
,
1000
0001
1000
0100
1000
0001
0100
0010
,
0100
0000
0001
0000
1000
0000
0100
0000
1000
0001
1000
0000
0010
0000
0100
0000
,
0001
0010
0100
1000
0001
0100
0010
0100
,
0001
1000
0100
0010
0100
1000
0001
0100
,
0002
0013
0200
1300
0020
0130
0002
1003
,
0200
0000
0000
0000
0000
0000
0000
0000
0000
0000
0000
0000
0000
0000
0000
0000
0000
0000
0000
0000
0000
0000
0000
0000
0000
0000
0000
0000
0000
0000
0000
0000
0000
0000
0000
0000
0000
0000
0000
0000
0000
0000
0300
0M00
0000
0000
0000
0000
,
1000
0001
0100
0010
0100
0001
1000
0001
,
0010
0100
1000
0001
1000
0100
1000
0001
,
0100
0010
0100
0001
1000
0001
0010
0100
,
1000
0001
0010
0100
0010
0001
1000
0100
,
1000
0001
1000
0010
0100
0010
1000
0001
,
0100
0001
1000
0001
0010
0100
1000
0001
,
1000
0010
0100
0010
1000
0100
0010
0100
,
1000
0000
0001
0000
0100
0000
0010
0000
1000
0000
0000
0000
0001
0100
0001
1000
,
0100
0010
0001
1000
0010
0100
0010
1000
,
0001
0010
0100
1000
0001
1000
0100
1000
,
0010
0100
0010
1000
0100
0010
0001
1000
,
0001
0100
0010
0100
0001
0010
0100
0010
,
0001
1000
0100
1000
0001
0100
0010
0100
,
0001
1000
0001
0010
0100
0010
0100
1000
,
0001
0100
0010
0100
0001
1000
0100
0010
,
0100
1000
0001
0100
0010
0100
0001
1000
,
0002
0000
0000
0000
,
0000
0000
0000
0000
,
0000
0000
0000
0000
,
0000
0000
0000
0000
,
0000
0000
0000
0003
,
0000
0000
0000
0000
0000
1000
0010
0100
,
0000
0001
0000
0010
0000
0100
0000
2000
,
0000
0000
3001
0000
0100
0000
0001
0000
1000
0100
1000
0000
0001
0000
0100
0000
,
0002
0000
0000
0000
0000
0000
0000
0003
,
2002
0000
0000
0000
0000
0000
0000
3003
,
2020
0000
0000
0000
0000
0000
0000
3030
,
0202
0303
0100
0000
0001
0000
0010
0000
,
0220
0000
0000
0330
2200
0000
0000
3300
,
2002
0000
0000
3003
0202
0000
0000
0303
,
0100
0001
0010
0100
,
10M0
0000
00M0
0000
01M0
0000
00M0
0000
10M0
0000
0000
0000
0001
0000
0000
0000
0100
0000
0000
0000
0000
0000
0000
0000
0002
0003
0000
0000
0000
0000
0000
0000
,
1000
0100
1000
0001
0010
0100
1000
0010
,
0100
0010
1000
0001
1000
0100
0010
0100
,
1000
0001
0100
0001
1000
0010
1000
0100
,
0010
0000
0001
0000
0100
0000
0010
0000
1000
0001
1000
0000
0010
0000
0100
0000
,
0010
1000
0001
0010
0001
1000
0100
1000
,
0010
0100
0010
1000
0001
0010
0001
1000
,
0100
0010
0001
1000
0001
0010
0001
0100
,
0010
0100
0001
1000
0010
1000
0001
0010
,
0100
1000
0001
0100
0001
1000
0100
1000
,
0010
0100
0001
1000
0100
1000
0001
0010
,
0100
1000
0001
0100
0010
0100
0001
1000
,
0100
0000
0010
0000
0001
0000
1000
0000
0010
0100
0010
0000
1000
0000
0001
0000
,
0010
0100
1000
0001
1000
0100
0010
0001
,
0100
0010
0100
0001
1000
0001
0010
0100
,
1000
0001
1000
0010
0100
0010
1000
0100
,
0010
0001
1000
0100
0010
0001
1000
0100
,
2000
0000
0000
3000
0001
0100
0010
0100
,
0001
0000
1000
0000
0100
0000
0010
0000
0001
1000
0001
0000
1000
0000
0100
0000
,
1000
0010
0100
0001
0100
0010
1000
0100
,
0010
0001
1000
0100
1000
0001
0100
0010
,
2000
0000
0000
0000
0000
0000
0000
0000
0000
3000
0000
0000
0001
0000
0100
0000
0001
0000
0010
0000
0100
0000
1000
0000
,
0010
0000
0000
0000
0100
0000
0000
0000
0010
0000
0000
0000
1000
0000
0000
0000
0100
0000
0000
0000
0010
0000
0000
0000
0001
0000
0000
1000
0000
0000
0001
0000
0000
0000
0000
0000
1000
0000
0000
0000
0000
0000
0100
0000
0000
0000
0000
0000
,
0010
0001
0100
0001
1000
0100
0010
0100
,
1000
0001
0100
0010
0100
0001
1000
0100
,
0010
0001
1000
0100
1000
0001
0100
0010
,
0100
0001
1000
0001
0010
0100
1000
0001
,
1000
0010
0100
0010
1000
0100
0010
0100
,
1000
0000
0010
0000
0100
0000
0001
0000
1000
0100
1000
0000
0001
0000
0010
0000
,
0100
0000
1000
0000
0001
0000
0100
0000
0010
0000
0100
0000
0001
0000
1000
0100
,
1000
0000
0001
0000
0010
0000
0100
0000
1000
0000
0001
0000
0100
0001
1000
0100
,
1000
0000
0001
0000
0100
0000
0010
0000
0100
0000
0001
1000
0001
0000
1000
0000
,
0010
1000
0100
0010
0001
1000
0010
0100
0010
1000
0100
0010
,
0002
0000
0000
0000
,
0000
0000
0000
0000
,
0000
0000
0000
0000
,
0000
0000
0000
0000
,
0003
0000
0000
0000
,
0000
0000
0000
0000
,
0000
0000
0000
0000
,
0000
0000
0000
0000
,
0002
0003
0000
0000
0000
0000
0000
0000
0000
0000
0002
0003
0000
0000
0000
0000
0000
0000
0000
0000
0000
0000
0000
0000
0000
0000
0000
0000
0000
0000
0000
0000
,
0000
0000
0000
0000
,
0020
0030
0000
0000
0000
0000
0000
0000
0000
0000
0020
0030
0000
0000
0000
0000
0000
0000
0000
0000
0000
0000
0000
0000
0000
0000
0000
0000
0000
0000
0000
0000
,
0000
0000
0000
0000
,
0200
0300
0000
0000
0000
0000
0000
0000
0000
0000
0200
0300
0000
0000
0000
0000
0000
0000
0000
0000
0000
0000
0000
0000
0000
0000
0000
0000
0000
0000
0000
0000
,
0000
0000
0000
0000
,
2000
3000
0000
0000
0000
0000
0000
0000
0000
0000
0000
0000
0000
0000
0000
0000
0000
0000
0000
0000
0000
0000
0000
0000
0000
0000
0000
0000
0000
0000
0000
0000
,
0002
0003
0000
0000
0000
0000
0000
0000
0000
0000
0000
0000
0000
0000
0000
0000
0000
0000
0000
0000
0000
0000
0000
0000
0000
0000
0000
0000
0000
0000
0000
0000
,
1000
0100
0010
0100
0000
1000
0001
1000
,
0010
0100
0010
1000
0000
0100
0010
0001
,
0100
0010
0100
0001
0000
0010
0100
1000
,
0010
0100
0010
1000
0000
0100
0010
0001
,
1000
0010
0100
0010
0000
1000
0100
0010
,
0100
1000
0010
0100
0000
0001
0100
0010
,
0100
0001
0010
0100
0000
1000
0100
1000
,
0010
0100
0001
0010
0000
0100
1000
0010
,
0100
0010
1000
0100
0000
0010
0001
0100
,
0010
0100
0001
0010
0000
0100
1000
0001
,
0100
0010
0100
0001
0000
1000
0010
0100
,
0001
0010
0100
1000
0000
0001
0100
0010
,
0100
0001
0010
0100
0000
1000
0010
0100
,
0010
1000
0001
0010
0000
0001
1000
0100
,
0010
0001
1000
0100
0000
1000
0100
1000
,
0001
0000
0000
0000
,
1002
1003
0001
0100
,
0010
0100
0001
0010
,
0200
1300
0001
0100
,
0010
0100
0001
1000
,
0002
0000
0103
0000
0010
0000
0100
0000
0001
0000
1000
0000
0001
0100
0001
1000
,
0100
0010
0001
1000
0010
0100
0001
0010
,
0100
0000
0000
0000
,
0000
0000
0000
0000
,
1000
0010
1000
0001
0100
0010
0100
0001
,
1000
0000
0001
0000
0010
0000
0100
0000
1000
0000
0001
0000
0100
0000
0001
1000
,
0100
0000
1000
0010
0000
0100
0001
0010
,
0100
0000
0000
0000
1000
0000
0001
0000
0000
0000
0100
0000
0001
1000
0001
0100
,
0001
1000
0100
0010
0100
1000
0010
0100
,
0001
1000
0001
0010
0100
1000
0001
0100
,
0001
0010
0100
0010
0000
0100
1000
0010
,
0100
0000
0001
0100
0000
0001
1000
0000
,
0100
0010
0001
1000
0010
0100
0010
1000
,
0001
0000
0010
0000
0100
0000
1000
0000
0001
0000
0100
0000
0010
0000
0100
0001
,
1000
0000
0001
0100
0000
0010
0100
0001
,
1000
0000
0000
0000
0100
0000
0010
0000
0000
0000
0001
0000
1000
0100
1000
0001
,
0100
0001
0010
0100
1000
0001
0100
0010
,
0100
0001
1000
0100
1000
0010
0100
0001
,
1000
0100
0010
0100
1000
0000
0001
0100
,
0001
0010
0100
1000
,
2002
0000
0000
0000
,
0000
0000
0000
0000
0000
0000
0000
3003
,
2002
0000
0000
0000
0000
0000
0000
3003
,
0202
0000
0000
0000
0000
0000
0000
0303
,
2020
0000
0000
3030
2002
0000
0000
3003
,
2200
0000
0000
3300
0220
0000
0000
0330
,
0020
0032
2003
3020
,
0130
0000
0001
0000
1000
0000
0001
0000
0010
0100
1000
0001
4000
0000
0000
3000
,
0000
0000
0000
0000
,
0000
0000
0000
0000
0001
0100
0001
1000
,
0010
1000
0010
0000
0100
0000
0001
1000
0001
0000
1000
0000
0100
0000
0010
0000
,
0001
1000
0100
0010
0100
1000
0001
0100
0010
0100
0001
1000
,
0010
1000
0100
0010
0001
0100
0010
0100
0001
0040
0000
0000
,
0130
1000
0010
0100
0010
1000
0100
0010
0001
0400
0000
0000
,
0304
0000
0000
0000
,
0000
0000
0000
0000
0000
0000
0000
0003
,
1001
0000
1000
0100
0000
1000
0001
0100
,
0010
0100
0001
1000
0000
0001
0100
0010
,
0100
0001
0010
0100
0000
1000
0100
1000
,
0010
0100
0001
0010
0000
0100
1000
0001
,
0100
0010
0100
0001
0000
1000
0100
0010
,
0100
1000
0001
0100
0000
0001
0100
0001
,
0010
0100
1000
0001
0000
0100
0010
0100
,
0001
1000
0100
0010
0000
0001
1000
0001
,
0100
0010
0100
0001
0000
1000
0100
1000
,
0001
0100
0001
0010
0000
0100
1000
0001
,
1000
0010
0100
0001
0000
1000
0100
1000
,
0001
0100
0001
1000
0000
0001
0010
0100
,
1000
0000
0000
0000
,
0000
0000
0000
0000
,
0000
0000
0000
0000
,
0000
0000
0000
0000
,
000M
0000
0000
0000
;
