#TITLE:Kinoko;
#SUBTITLE:(Instant);
#ARTIST:D3BU;
#TITLETRANSLIT:;
#SUBTITLETRANSLIT:;
#ARTISTTRANSLIT:;
#CREDIT:Owem;
#BANNER:../banner.png;
#BACKGROUND:../bg.png;
#LYRICSPATH:;
#CDTITLE:../cdtitleowem.png;
#MUSIC:D3BU - Kinoko (Instant).ogg;
#OFFSET:-0.052;
#SAMPLESTART:16.049;
#SAMPLELENGTH:29.999;
#SELECTABLE:YES;
#DISPLAYBPM:240.000;
#BPMS:0.000=240.000,192.000=137.144,196.000=240.000,198.000=137.144,202.000=120.000,203.000=240.000,209.000=160.000,211.000=240.000,212.000=160.000,213.000=480.000,214.000=240.000,217.000=230.007,218.000=225.000,219.000=210.000,220.000=205.005,222.000=195.003,223.000=185.009,224.000=175.000,225.000=165.004,226.000=158.008,227.000=144.000,228.000=137.006,229.000=121.004,230.000=109.001,231.000=92.003,232.000=73.001,233.000=47.686,234.000=240.000;
#STOPS:;
#BGCHANGES:;
// cache tags:
#FIRSTBEAT:0.000;
#LASTBEAT:451.500;
#SONGFILENAME:Songs/Owem's Simfiles 08 - 1.2/Kinoko (Instant) - [Owem] v1.0.2/Kinoko.sm;
#HASMUSIC:1;
#HASBANNER:1;
#MUSICLENGTH:120.111;
// end cache tags

//---------------dance-single - 19 (Owem)----------------
#NOTES:
     dance-single:
     19 (Owem):
     Challenge:
     19:
     1.000,1.000,0.175,0.991,1.000,1135.000,21.000,119.000,72.000,0.000:

1000
1000
0010
0100
0100
0001
1000
1000
,
0100
0000
0000
0000
0000
0000
0100
0000
0000
0000
0000
0000
0010
0000
0001
0000
0010
0000
0002
0000
0000
0000
0000
0000
2003
0000
0000
0000
0000
0000
3020
0000
0000
0000
0000
0000
0130
0000
0000
0001
0000
0000
0100
0000
0000
0001
0000
0000
,
1000
1000
0010
0100
0100
0001
0010
0010
,
0100
0000
0000
0000
0100
0000
0000
0000
1000
0000
0000
0000
0001
0000
0000
0000
1000
0000
0000
0000
0000
0000
0000
0000
0040
0000
0000
0000
0000
0000
0000
0030
,
0100
0100
0001
1000
1000
0100
0010
0010
,
0001
0000
0000
0000
0000
0000
0001
0000
0000
0000
0000
0000
1000
0000
0010
0000
1000
0000
0020
0000
0000
0000
0000
0000
0230
0000
0000
0000
0000
0000
0302
0000
0000
0000
0000
0000
1003
0000
0000
0100
0000
0000
1000
0000
0000
0100
0000
0000
,
0010
0010
0001
1000
1000
0010
0100
0001
,
2000
0000
0000
3000
0100
0000
0100
0000
0040
0030
0000
0000
0002
0000
0000
0000
,
1003
0100
0010
0001
1000
0001
0100
0010
1000
0001
0100
0001
0010
0100
1000
0001
,
0010
0001
0100
0010
1000
0001
0100
0001
1000
0100
0010
0001
1000
0100
1000
0001
,
0010
0001
0100
0010
1000
0001
0100
0001
0010
0100
1000
0001
0010
0001
0100
0010
,
1000
0001
0100
0010
0100
0001
1000
0010
1000
0001
1000
0100
0010
0001
1000
0100
,
1000
0001
0010
0001
0100
0010
1000
0001
0100
0010
0100
0001
1000
0100
0010
0001
,
1000
0100
1000
0001
0010
0001
0100
0010
1000
0001
0100
0001
0010
0100
1000
0001
,
0010
0001
1000
0100
0010
0001
0100
0001
1000
0010
0100
0001
1000
0100
1000
0010
,
010M
0000
0000
0001
0000
0000
2000
0000
0000
3000
0000
0000
0400
0000
0000
0300
,
0010
0001
1000
0001
0100
0010
1000
0001
0100
0010
0100
0001
1000
0100
0010
0100
,
1000
0001
1000
0010
0100
0001
1000
0100
0010
0001
1000
0100
1000
0010
0100
0001
,
1000
0100
1000
0001
0010
0001
0100
0010
1000
0001
0100
0001
0010
0100
1000
0001
,
0010
0001
0100
0010
1000
0001
0100
0010
0100
0001
1000
0100
0010
0001
1000
0100
,
1000
0001
0010
0001
0100
0010
1000
0001
0100
0001
1000
0100
0010
0001
1000
0010
,
0100
0001
1000
0010
1000
0001
0100
0010
0100
0001
1000
0100
0010
0001
1000
0100
,
1000
0001
0010
0001
0100
0010
1000
0001
0100
0001
0010
0100
1000
0001
0010
0001
,
0100
0010
1000
0001
0100
0010
0100
0001
1000
0100
0010
0001
1000
0100
1000
0001
,
0010
0001
0100
0010
1000
0001
0100
0001
1000
0100
0010
0100
1000
0001
0010
0001
,
0100
0010
1000
0001
0100
0001
1000
0001
0010
0100
1000
0100
0010
0001
1000
0100
,
1000
0001
0010
0001
0100
0010
1000
0001
0100
0001
1000
0010
0100
0001
0100
0010
,
1000
0001
0100
0001
0010
0100
1000
0001
0010
0001
0100
0010
1000
0001
0100
0010
,
0100
0001
1000
0100
0010
0001
1000
0100
1000
0010
0100
0001
1000
0001
0010
0100
,
1000
0001
1000
0001
0100
0010
1000
0001
0010
0100
1000
0100
0010
0001
1000
0001
,
0200
0000
0310
1000
0001
0000
0010
0100
,
1000
0001
0100
0010
0100
0001
1000
0010
1000
0001
0100
0010
1000
0001
0010
0100
,
1000
0100
0010
0001
1000
0100
1000
0001
0010
0001
1000
0001
0100
0010
1000
0001
,
0100
0010
1000
0100
1000
0001
0100
0001
0010
0100
1000
0001
0010
0001
0100
0010
,
1000
0001
0100
0001
1000
0100
0010
0001
1000
0100
1000
0010
0100
0001
1000
0100
,
1000
0001
0010
0001
0100
0010
1000
0001
0100
0010
0100
0001
1000
0100
0010
0001
,
1000
0100
1000
0001
0010
0001
0100
0010
1000
0001
0100
0001
0010
0100
1000
0100
,
0010
0001
1000
0100
1000
0001
1000
0010
0100
0001
1000
0100
1000
0001
0100
0001
,
0010
0100
1000
0001
0010
0001
0100
0010
1000
0001
0100
0010
0100
0001
1000
0100
,
0010
0001
1000
0100
1000
0001
0010
0001
0100
0010
1000
0001
0100
0010
0100
0001
,
1000
0100
0010
0100
1000
0001
1000
0100
0010
0100
1000
0001
0010
0001
0100
0001
,
1000
0010
0100
0001
1000
0100
1000
0001
0010
0001
0100
0010
1000
0001
0100
0010
,
0100
0001
1000
0100
0010
0001
1000
0001
0100
0010
0100
0001
1000
0100
0010
0001
,
1000
0100
1000
0100
0010
0001
1000
0001
0100
0010
1000
0001
0100
0001
0010
0100
,
1000
0001
0010
0001
0100
0010
1000
0001
0100
0010
0100
0001
1000
0100
0010
0001
,
1000
0100
1000
0001
0010
0001
0100
0010
1000
0001
0100
0001
1000
0100
0010
0001
,
1000
0100
1000
0001
0100
0010
0100
0001
1000
0010
1000
0001
0100
0001
0010
0100
,
1000
0001
0010
0001
0100
0010
1000
0001
1000
0100
0010
0100
1000
0001
1000
0010
,
020M
0000
0000
0000
0000
0000
0000
0000
0000
0300
0000
0000
0000
0000
0000
0000
0000
0000
0000
0000
0000
0000
0000
0000
0000
0000
0000
0000
0000
0000
0000
0000
0000
0000
0000
0000
0000
0000
0000
0000
0000
0000
0000
0000
0000
0000
0000
0000
0000
0000
0000
0000
0000
0000
0000
0000
0000
0000
0000
0000
0000
0000
0000
0000
,
0000
2MM2
3003
0000
,
0000
0000
0000
0000
2MM2
3003
0000
0000
,
1000
0010
1000
0001
0100
0000
0010
1000
0010
0000
0100
0000
0001
0010
0001
0000
,
1000
0000
0000
0000
0000
0000
0001
0000
0000
0000
0000
0000
2MM2
0000
0000
0000
0000
0000
0000
0000
3003
0000
0000
0000
0000
0000
0000
0000
0000
0000
0000
0000
0000
0000
0000
0000
1000
0000
0000
0010
0000
0000
1000
0000
0000
0010
0000
0000
,
M20M
0000
0000
0000
0000
0000
0000
0000
0300
0000
0000
0000
0000
0000
0000
0000
0000
0000
0000
0000
0000
0000
0000
0000
M2M2
0000
0000
0000
0000
0000
0000
0000
0000
0003
0000
0000
0310
0000
0000
1000
0000
0000
0010
0000
0000
1000
0000
0000
,
0M01
0100
0010
1000
0200
0000
0310
0001
,
2000
0000
3010
0100
0004
0000
1003
0100
,
0020
0031
2000
3001
0200
0000
0310
1000
,
0002
0000
0000
0000
0000
0000
0000
0000
0023
0000
0000
0000
0000
0000
0000
0000
0230
0000
0000
0000
0000
0000
0300
0000
2000
0000
0000
3000
0020
0000
0030
0000
,
0200
0000
0000
0000
0000
0300
0000
0000
0002
0000
0000
2003
0000
3000
0000
0000
1MM2
0000
0000
0000
0000
0000
0000
0000
1003
0000
0000
0000
0100
0000
0000
0000
,
0010
0001
1000
0010
0200
0300
0001
1000
,
0100
0010
0001
1000
0020
0030
0200
0301
,
2000
0000
3200
0320
0032
0003
2000
3010
,
0200
0301
1000
0001
0010
0100
1000
0001
,
0200
0000
0310
1000
0002
0003
0010
0100
,
2000
0000
3000
0000
0020
0000
0130
0001
,
2000
0000
0000
3000
0100
0000
0010
0000
0002
0000
0000
0000
1003
0000
0010
0000
,
0200
0000
0000
0300
M1M1
0001
1000
0100
,
0020
0030
0002
0003
2000
3000
0020
0030
,
0200
0000
0000
0000
0000
0300
0000
0000
0001
0000
1000
0000
0100
0000
0100
0000
,
0010
0001
2000
3020
0230
0300
0002
0003
,
2000
3010
1000
0010
0200
0300
0002
1003
,
0200
0000
0300
0000
0010
0000
0001
0000
2000
0000
0000
3000
0020
0000
0130
0000
,
0001
0000
1000
0000
0001
0000
0010
0000
0200
0000
0000
0300
1000
0000
0010
0000
,
0100
0001
1000
0100
0010
0001
0010
0001
,
2000
0000
0200
3000
0020
0300
0002
0033
2M01
0000
0000
0000
3010
0000
0100
0000
,
0001
1000
0000
0100
0010
0001
1000
0001
,
0100
0010
1000
0000
2MM1
3001
0200
0310
,
1000
0002
0203
0310
1000
0001
0010
0100
,
2000
0000
3000
0000
21MM
0000
3000
0010
,
0100
0001
0000
1000
2MM1
3001
0100
0010
,
1000
0001
0010
0100
11MM
1000
0010
0100
,
M1M1
0000
0001
0000
2000
0000
3010
0000
2MM2
0MM0
3MM3
MMMM
2MM2
0MM0
3MM3
MMMM
,
2MM2
0MM0
3MM3
MMM0
0MM1
1000
0001
1000
0100
0010
0001
1000
0010
0100
0001
1000
,
0100
1000
0010
0100
0001
1000
0010
1000
0100
0010
0001
1000
0100
1000
0001
0010
,
0001
0100
0010
1000
0001
0100
0010
0100
0001
1000
0100
0010
0100
1000
0001
0100
,
0001
0010
0100
1000
0001
0010
0001
0100
0010
1000
0001
1000
0100
0010
0100
1000
,
0001
0010
0001
0100
0010
1000
0001
0100
001M
0000
1000
0000
0001
0000
0010
0000
,
0200
0000
1300
0010
0200
0000
0301
1000
,
0200
0000
0000
0000
0310
0001
0010
0001
1M00
0010
0100
0001
1000
0100
1000
0001
,
0100
0001
0010
0100
1000
0001
0100
0010
1000
0001
0100
0001
0010
0100
1000
0001
,
0010
0001
0100
0010
1000
0001
1000
0100
M010
0000
0001
0000
1000
0000
0010
0000
,
0200
0000
0000
0300
0002
0000
0003
0000
2000
0000
0000
3000
0100
0000
0010
0000
,
0002
0000
0000
0003
0000
0000
2000
0000
0000
0000
3000
0000
1M2M
0000
0000
0000
0000
0000
0130
0000
0000
0001
0000
0000
,
2000
0000
3000
0000
0200
0000
0000
0300
0020
0000
0000
0030
0002
0000
0000
0003
,
2000
0000
0000
0000
0000
0000
0000
0000
0000
0000
0000
0000
0000
0000
0000
0000
0000
0000
0000
0000
0000
0000
0000
0000
0000
0000
0000
0000
0000
3000
0000
0000
0000
0000
0000
0000
0000
0000
0000
0000
0000
0000
0000
0000
0000
0000
0000
0000
0020
0000
0000
0000
0000
0000
0000
0000
0000
0000
0000
0000
0000
0000
0000
0000
0000
0000
0000
0000
0000
0000
0000
0000
0000
0000
0000
0000
0000
0000
0000
0000
0000
0000
0000
0000
0030
0000
0000
0000
0000
0000
0000
0000
0000
0000
0000
0000
M21M
0000
0000
0000
0000
0000
0000
0000
0000
0000
0000
0000
0000
0000
0000
0000
0000
0000
0000
0000
0000
0000
0000
0000
0000
0000
0000
0000
0000
0000
0000
0000
0000
0000
0000
0000
0000
0000
0000
0000
0000
0000
0000
0000
0000
0000
0000
0000
0301
0000
0000
0000
0000
0000
0000
0000
0000
0000
0000
0000
0000
0000
0000
0000
0000
0000
0000
0000
0000
0000
0000
0000
1000
0000
0000
0000
0000
0000
0000
0000
0000
0000
0000
0000
0000
0000
0000
0000
0000
0000
0000
0000
0000
0000
0000
0000
,
0400
0300
0040
0030
0004
0000
1003
0010
,
0200
0000
0300
0000
0002
0000
0000
0003
2000
0000
0000
0000
0000
0000
3000
0000
,
0200
0000
0000
0000
0000
0000
0000
0000
0000
0300
0000
0000
0020
0000
0000
0000
0000
0000
0000
0000
0000
0000
0030
0000
,
0002
0000
0000
0000
2003
0000
0000
3000
1M2M
0000
0000
0000
1030
0000
0001
0000
,
0010
0100
1000
0001
0100
0000
0010
0000
,
1000
0000
0001
0000
0100
0010
1000
0000
0001
0000
0010
0000
0100
0000
1000
0001
,
1000
0000
0000
0010
0000
0000
0100
0000
0000
0000
0000
0000
0001
0000
0000
1000
0000
0000
0200
0000
0000
0000
0000
0000
0320
0000
0000
0000
0030
0000
0000
0000
0000
0002
0000
0000
0003
0000
0000
0000
0000
0000
2000
0000
0000
0000
0000
0000
,
0000
3000
0000
0000
0000
0000
0020
0000
0000
0000
0000
0000
0130
0000
0000
0000
0000
0000
0001
0000
0000
1000
0000
0000
,
0100
0010
0001
1000
0010
0100
0001
1000
,
0200
0300
0010
0001
4000
0000
3010
0100
,
0001
1000
0001
0100
0010
1000
0001
0010
,
0100
0000
0000
0000
0000
0000
0100
0000
0000
0000
0000
0000
1000
0000
0000
0000
0000
0000
0001
0000
0100
0000
0001
0000
0200
0000
0000
0000
0000
0000
0000
0000
0000
0000
0000
0000
0310
0000
0000
0000
0000
0000
0000
0000
0000
1000
0000
0000
,
0001
0000
0010
0000
0100
0000
1000
0001
0100
0000
0010
0100
0001
1000
0100
0010
,
0001
0000
0000
1000
0000
0000
0010
0000
0100
0000
0010
0000
0100
0000
0000
0000
0000
0000
0001
0000
0000
1000
0000
0000
0200
0000
0000
0000
0000
0000
0000
0000
0000
0000
0000
0000
0310
0000
0000
0000
0000
0000
0001
0000
0000
0000
0000
0000
,
1000
0010
0100
0001
0100
0010
1000
0100
,
0010
0000
0001
0000
1000
0000
0010
0100
0002
0000
0000
0000
0003
0000
0000
0000
,
MMMM
0000
0000
0000
,
0000
0000
0000
0000
1000
0010
0200
0300
;

//---------------dance-single - 20 (Owem)----------------
#NOTES:
     dance-single:
     20 (Owem):
     Edit:
     20:
     1.000,1.000,0.167,0.966,1.000,1196.000,20.000,116.000,72.000,0.000:

1000
0000
0010
0100
0000
0001
1000
0000
,
0100
0000
0000
0000
0000
0000
0100
0000
0000
0000
0000
0000
0010
0000
0001
0000
0010
0000
0002
0000
0000
0000
0000
0000
2003
0000
0000
0000
0000
0000
3020
0000
0000
0000
0000
0000
0130
0000
0000
0001
0000
0000
0100
0000
0000
0001
0000
0000
,
1000
0000
0010
0100
0000
0001
0010
0000
,
0100
0000
0000
0000
0000
0000
0000
0000
1000
0000
0000
0000
0001
0000
0000
0000
1000
0000
0000
0000
0000
0000
0000
0000
0040
0000
0000
0000
0000
0000
0000
0030
,
0100
0000
0001
1000
0000
0100
0010
0000
,
0001
0000
0000
0000
0000
0000
0001
0000
0000
0000
0000
0000
1000
0000
0010
0000
1000
0000
0020
0000
0000
0000
0000
0000
0230
0000
0000
0000
0000
0000
0302
0000
0000
0000
0000
0000
1003
0000
0000
0100
0000
0000
1000
0000
0000
0100
0000
0000
,
0010
0000
0001
1000
0000
0010
0100
0010
,
2000
0000
0000
3000
0100
0000
0100
0000
0040
0030
0000
0000
0002
0000
0000
0000
,
1003
0100
0010
0001
1000
0001
0100
0010
1000
0001
0100
0001
0010
0100
1000
0001
,
0010
0001
0100
0010
1000
0001
0100
0001
1000
0100
0010
0001
1000
0100
1000
0001
,
0010
0001
0100
0010
1000
0001
0100
0001
0010
0100
1000
0001
0010
0001
0100
0010
,
1000
0001
0100
0010
0100
0001
1000
0010
1000
0001
1000
0100
0010
0001
1000
0100
,
1000
0001
0010
0001
0100
0010
1000
0001
0100
0010
0100
0001
1000
0100
0010
0001
,
1000
0100
1000
0001
0010
0001
0100
0010
1000
0001
0100
0001
0010
0100
1000
0001
,
0010
0001
1000
0100
0010
0001
0100
0001
1000
0010
0100
0001
1000
0100
1000
0010
,
010M
0000
0000
0001
0000
0000
2000
0000
0000
3000
0000
0000
0400
0000
0000
0300
,
0010
0001
1000
0001
0100
0010
1000
0001
0100
0010
0100
0001
1000
0100
0010
0100
,
1000
0001
1000
0010
0100
0001
1000
0100
0010
0001
1000
0100
1000
0010
0100
0001
,
1000
0100
1000
0001
0010
0001
0100
0010
1000
0001
0100
0001
0010
0100
1000
0001
,
0010
0001
0100
0010
1000
0001
0100
0010
0100
0001
1000
0100
0010
0001
1000
0100
,
1000
0001
0010
0001
0100
0010
1000
0001
0100
0001
1000
0100
0010
0001
1000
0010
,
0100
0001
1000
0010
1000
0001
0100
0010
0100
0001
1000
0100
0010
0001
1000
0100
,
1000
0001
0010
0001
0100
0010
1000
0001
0100
0001
0010
0100
1000
0001
0010
0001
,
0100
0010
1000
0001
0100
0010
0100
0001
1000
0100
0010
0001
1000
0100
1000
0001
,
0010
0001
0100
0010
1000
0001
0100
0001
1000
0100
0010
0100
1000
0001
0010
0001
,
0100
0010
1000
0001
0100
0001
1000
0001
0010
0100
1000
0100
0010
0001
1000
0100
,
1000
0001
0010
0001
0100
0010
1000
0001
0100
0001
1000
0010
0100
0001
0100
0010
,
1000
0001
0100
0001
0010
0100
1000
0001
0010
0001
0100
0010
1000
0001
0100
0010
,
0100
0001
1000
0100
0010
0001
1000
0100
1000
0010
0100
0001
1000
0001
0010
0100
,
1000
0001
1000
0001
0100
0010
1000
0001
0010
0100
1000
0100
0010
0001
1000
0001
,
0200
0000
0310
1000
0001
0000
0010
0100
,
1000
0000
0000
0000
0000
0000
0000
0000
0000
0000
0001
0000
0000
0000
0000
0000
0000
0000
0000
1000
0000
0000
0000
0000
0000
0000
0000
0000
0000
0010
0000
0000
0000
0000
0000
0000
0000
0000
0100
0000
0000
0000
0000
0000
0000
0000
0000
0000
0001
0000
0000
0000
0000
0000
0000
0000
0000
0000
1000
0000
0000
0000
0000
0000
0000
0000
0000
0010
0000
0000
0000
0000
0000
0000
0000
0000
0000
1000
0000
0000
0000
0000
0000
0000
0000
0000
0001
0000
0000
0000
0000
0000
0000
0000
0000
0000
0100
0000
0000
0000
0000
0000
0000
0000
0000
0000
0001
0000
0000
0000
0000
0000
0000
0000
0000
1000
0000
0000
0000
0000
0000
0000
0000
0000
0000
0100
0000
0000
0000
0000
0000
0000
0000
0000
0010
0000
0000
0000
0000
0000
0000
0000
0000
0000
0001
0000
0000
0000
0000
0000
0000
0000
0000
0000
1000
0000
0000
0000
0000
0000
0000
0000
0000
0010
0000
0000
0000
0000
0000
0000
0000
0000
0000
0100
0000
0000
0000
0000
0000
0000
0000
0000
0001
0000
0000
0000
0000
0000
0000
0000
0000
0000
,
1000
0100
0010
0001
1000
0100
1000
0001
0010
0001
1000
0001
0100
0010
1000
0001
,
0100
0010
1000
0100
1000
0001
0100
0001
0010
0100
1000
0001
0010
0001
0100
0010
,
1000
0001
0100
0001
1000
0100
0010
0001
1000
0100
1000
0010
0100
0001
1000
0100
,
1000
0001
0010
0001
0100
0010
1000
0001
0100
0010
0100
0001
1000
0100
0010
0001
,
1000
0100
1000
0001
0010
0001
0100
0010
1000
0001
0100
0001
0010
0100
1000
0100
,
0010
0001
1000
0100
1000
0001
1000
0010
0100
0001
1000
0100
1000
0001
0100
0001
,
0010
0100
1000
0001
0010
0001
0100
0010
1000
0001
0100
0010
0100
0001
1000
0100
,
0010
0001
1000
0100
1000
0001
0010
0001
0100
0010
1000
0001
0100
0010
0100
0001
,
1000
0100
0010
0100
1000
0001
1000
0100
0010
0100
1000
0001
0010
0001
0100
0001
,
1000
0010
0100
0001
1000
0100
1000
0001
0010
0001
0100
0010
1000
0001
0100
0010
,
0100
0001
1000
0100
0010
0001
1000
0001
0100
0010
0100
0001
1000
0100
0010
0001
,
1000
0100
1000
0100
0010
0001
1000
0001
0100
0010
1000
0001
0100
0001
0010
0100
,
1000
0001
0010
0001
0100
0010
1000
0001
0100
0010
0100
0001
1000
0100
0010
0001
,
1000
0100
1000
0001
0010
0001
0100
0010
1000
0001
0100
0001
1000
0100
0010
0001
,
1000
0100
1000
0001
0100
0010
0100
0001
1000
0010
1000
0001
0100
0001
0010
0100
,
1000
0001
0010
0001
0100
0010
1000
0001
1000
0100
0010
0100
1000
0001
1000
0010
,
020M
0000
0000
0000
0000
0000
0000
0000
0000
0300
0000
0000
0000
0000
0000
0000
0000
0000
0000
0000
0000
0000
0000
0000
0000
0000
0000
0000
0000
0000
0000
0000
0000
0000
0000
0000
0000
0000
0000
0000
0000
0000
0000
0000
0000
0000
0000
0000
0000
0000
0000
0000
0000
0000
0000
0000
0000
0000
0000
0000
0000
0000
0000
0000
,
0000
2MM2
3003
0000
,
0000
0000
0000
0000
2MM2
3003
0000
0000
,
1000
0010
1000
0001
0100
0000
0010
1000
0010
0000
0100
0000
0001
0010
0001
0000
,
1000
0000
0000
0000
0000
0000
0001
0000
0000
0000
0000
0000
2MM2
0000
0000
0000
0000
0000
0000
0000
3003
0000
0000
0000
0000
0000
0000
0000
0000
0000
0000
0000
0000
0000
0000
0000
1000
0000
0000
0010
0000
0000
1000
0000
0000
0010
0000
0000
,
M20M
0000
0000
0000
0000
0000
0000
0000
0300
0000
0000
0000
0000
0000
0000
0000
0000
0000
0000
0000
0000
0000
0000
0000
M2M2
0000
0000
0000
0000
0000
0000
0000
0000
0003
0000
0000
0310
0000
0000
1000
0000
0000
0010
0000
0000
1000
0000
0000
,
0M01
0100
0010
1000
0200
0000
0310
0001
,
2000
0000
3010
0100
0004
0000
1003
0100
,
0020
0031
2000
3001
0200
0000
0310
1000
,
0002
0000
0000
0000
0000
0000
0000
0000
0023
0000
0000
0000
0000
0000
0000
0000
0230
0000
0000
0000
0000
0000
0300
0000
2000
0000
0000
3000
0020
0000
0030
0000
,
0200
0000
0000
0000
0000
0300
0000
0000
0002
0000
0000
2003
0000
3000
0000
0000
1MM2
0000
0000
0000
0000
0000
0000
0000
1003
0000
0000
0000
0100
0000
0000
0000
,
0010
0001
1000
0010
0200
0300
0001
1000
,
0100
0010
0001
1000
0020
0030
0200
0301
,
2000
0000
3200
0320
0032
0003
2000
3010
,
0200
0301
1000
0001
0010
0100
1000
0001
,
0200
0000
0310
1000
0002
0003
0010
0100
,
2000
0000
3000
0000
0020
0000
0130
0001
,
2000
0000
0000
3000
0100
0000
0010
0000
0002
0000
0000
0000
1003
0000
0010
0000
,
0200
0000
0000
0300
M1M1
0001
1000
0100
,
0020
0030
0002
0003
2000
3000
0020
0030
,
0200
0000
0000
0000
0000
0300
0000
0000
0001
0000
1000
0000
0100
0000
0100
0000
,
0010
0001
2000
3020
0230
0300
0002
0003
,
2000
3010
1000
0010
0200
0300
0002
1003
,
0200
0000
0300
0000
0010
0000
0001
0000
2000
0000
0000
3000
0020
0000
0130
0000
,
0001
0000
1000
0000
0001
0000
0010
0000
0200
0000
0000
0300
1000
0000
0010
0000
,
0100
0001
1000
0100
0010
0001
0010
0001
,
2000
0000
0200
3000
0020
0300
0002
0033
2M01
0000
0000
0000
3010
0000
0100
0000
,
0001
1000
0000
0100
0010
0001
1000
0001
,
0100
0010
1000
0000
2MM1
3001
0200
0310
,
1000
0002
0203
0310
1000
0001
0010
0100
,
2000
0000
3000
0000
21MM
0000
3000
0010
,
0100
0001
0000
1000
2MM1
3001
0100
0010
,
1000
0001
0010
0100
11MM
1000
0010
0100
,
M1M1
0000
0001
0000
2000
0000
3010
0000
2MM2
0MM0
3MM3
MMMM
2MM2
0MM0
3MM3
MMMM
,
2MM2
0MM0
3MM3
MMM0
0MM1
1000
0001
1000
0100
0010
0001
1000
0010
0100
0001
1000
,
0100
1000
0010
0100
0001
1000
0010
1000
0100
0010
0001
1000
0100
1000
0001
0010
,
0001
0100
0010
1000
0001
0100
0010
0100
0001
1000
0100
0010
0100
1000
0001
0100
,
0001
0010
0100
1000
0001
0010
0001
0100
0010
1000
0001
1000
0100
0010
0100
1000
,
0001
0010
0001
0100
0010
1000
0001
0100
001M
0000
1000
0000
0001
0000
0010
0000
,
0200
0000
1300
0010
0200
0000
0301
1000
,
0200
0000
0000
0000
0310
0001
0010
0001
1M00
0010
0100
0001
1000
0100
1000
0001
,
0100
0001
0010
0100
1000
0001
0100
0010
1000
0001
0100
0001
0010
0100
1000
0001
,
0010
0001
0100
0010
1000
0001
1000
0100
M010
0000
0001
0000
1000
0000
0010
0000
,
0200
0000
0000
0300
0002
0000
0003
0000
2000
0000
0000
3000
0100
0000
0010
0000
,
0002
0000
0000
0003
0000
0000
2000
0000
0000
0000
3000
0000
1M2M
0000
0000
0000
0000
0000
0130
0000
0000
0001
0000
0000
,
2000
0000
3000
0000
0200
0000
0000
0300
0020
0000
0000
0030
0002
0000
0000
0003
,
2000
0000
0000
0000
0000
0000
0000
0000
0000
0000
0000
0000
0000
0000
0000
0000
0000
0000
0000
0000
0000
0000
0000
0000
0000
0000
0000
0000
0000
3000
0000
0000
0000
0000
0000
0000
0000
0000
0000
0000
0000
0000
0000
0000
0000
0000
0000
0000
0020
0000
0000
0000
0000
0000
0000
0000
0000
0000
0000
0000
0000
0000
0000
0000
0000
0000
0000
0000
0000
0000
0000
0000
0000
0000
0000
0000
0000
0000
0000
0000
0000
0000
0000
0000
0030
0000
0000
0000
0000
0000
0000
0000
0000
0000
0000
0000
M21M
0000
0000
0000
0000
0000
0000
0000
0000
0000
0000
0000
0000
0000
0000
0000
0000
0000
0000
0000
0000
0000
0000
0000
0000
0000
0000
0000
0000
0000
0000
0000
0000
0000
0000
0000
0000
0000
0000
0000
0000
0000
0000
0000
0000
0000
0000
0000
0301
0000
0000
0000
0000
0000
0000
0000
0000
0000
0000
0000
0000
0000
0000
0000
0000
0000
0000
0000
0000
0000
0000
0000
1000
0000
0000
0000
0000
0000
0000
0000
0000
0000
0000
0000
0000
0000
0000
0000
0000
0000
0000
0000
0000
0000
0000
0000
,
0400
0300
0040
0030
0004
0000
1003
0010
,
0200
0000
0300
0000
0002
0000
0000
0003
2000
0000
0000
0000
0000
0000
3000
0000
,
0200
0000
0000
0000
0000
0000
0000
0000
0000
0300
0000
0000
0020
0000
0000
0000
0000
0000
0000
0000
0000
0000
0030
0000
,
0002
0000
0000
0000
2003
0000
0000
3000
1M2M
0000
0000
0000
1030
0000
0001
0000
,
0010
0000
0100
0000
1000
0000
0001
0000
0100
0000
0000
0000
0010
1000
0001
1000
,
0100
0010
0001
1000
0010
0100
0001
1000
0001
0010
0100
1000
0010
1000
0100
1000
,
0001
0000
0000
0010
0000
0000
0100
0000
0000
1000
0000
0000
0001
0000
0000
1000
0000
0000
0200
0000
0000
0000
0000
0000
0320
0000
0000
0000
0030
0000
0000
0000
0000
0002
0000
0000
0003
0000
0000
0000
0000
0000
2000
0000
0000
0000
0000
0000
,
0000
0000
3000
0000
0000
0000
0000
0000
0000
0000
0000
0000
0020
0000
0000
0000
0000
0000
0000
0000
0000
0000
0000
0000
0130
0000
0000
0001
0000
0000
1000
0000
0000
0010
0000
0000
1000
0000
0000
0100
0000
0000
0010
0000
0000
0001
0000
0000
,
1000
0100
1000
0001
0100
0001
0010
0100
1000
0001
0010
0001
0100
0010
1000
0001
,
0100
0010
0100
0001
1000
0100
0010
0001
1000
0100
1000
0001
0010
0001
0100
0010
,
1000
0001
0100
0001
1000
0100
0010
0001
1000
0100
1000
0010
1000
0001
0100
0001
,
0010
0100
1000
0001
0010
0001
0100
0010
1000
0001
0100
0010
0100
0001
1000
0100
,
0010
0001
1000
0100
1000
0001
0010
0001
0100
0010
1000
0001
0100
0001
1000
0100
,
0010
0001
1000
0100
1000
0001
0010
0001
0100
0010
1000
0001
0100
0001
0010
0100
,
1000
0001
0010
0001
0100
0010
1000
0001
0100
0010
0100
0001
1000
0100
0010
0001
,
1000
0010
0100
0001
1000
0100
0010
0001
2000
0000
0000
0000
3000
0000
0000
0000
,
MMMM
0000
0000
0000
,
0000
0000
0000
0000
0100
0100
0020
0030
;
