#TITLE:Silhouette of My Mind;
#SUBTITLE:;
#ARTIST:ReR;
#TITLETRANSLIT:;
#SUBTITLETRANSLIT:;
#ARTISTTRANSLIT:;
#CREDIT:Arch0wl;
#BANNER:silhouetteofmymind-bn.png;
#BACKGROUND:silhouetteofmymind-bg.png;
#LYRICSPATH:;
#CDTITLE:!arch0wltitle.png;
#MUSIC:silhouetteofmymind.ogg;
#OFFSET:1.191;
#SAMPLESTART:47.910;
#SAMPLELENGTH:12.000;
#SELECTABLE:YES;
#BPMS:0.000=121.000;
#STOPS:;
#BGCHANGES:0.000=silhouetteofmymind-bg.png=1.000=0=0=1,
99999=-nosongbg-=1.000=0=0=0 // don't automatically add -songbackground-
;
// cache tags:
#FIRSTBEAT:3.000;
#LASTBEAT:234.000;
#SONGFILENAME:Songs/Archmage and Dark0wl Hammer of Thor UltraHyperMegaPack/Silhouette Of My Mind/silhouetteofmymind.sm;
#HASMUSIC:1;
#HASBANNER:1;
#MUSICLENGTH:105.000;
// end cache tags

//---------------dance-single - Arch0wl----------------
#NOTES:
     dance-single:
     Arch0wl:
     Medium:
     8:
     0.603,0.780,0.705,0.133,0.110,352.000,74.000,14.000,0.000,9.000:
0000
0000
0000
1000
,
0000
0100
0000
0000
,
0000
0100
1000
0001
,
0000
0010
0100
0001
,
0000
0100
1000
0010
,
0100
0010
0100
0001
,
1000
0000
0000
0000
0010
0000
1000
0100
,
0010
1000
0100
0010
1000
0100
0001
0010
,
0100
0001
0010
0100
1000
0000
0001
0001
,
0001
0001
0101
0000
0000
0000
0100
0100
,
0100
0100
0000
0000
0000
0000
0010
0010
,
0010
0010
0011
0000
0000
0000
1000
1000
,
1000
1000
0000
0000
0000
0000
1010
0110
,
1010
0110
1010
0110
1010
0110
1010
0110
,
1010
0110
1010
0110
1010
0110
0101
0011
,
0101
0011
0101
0011
0101
0011
0000
0000
,
0000
0000
0000
1100
,
1000
0000
1000
0000
1000
0100
0010
0001
,
1000
0010
0100
0001
1000
0000
0110
0000
,
0100
0000
0100
0000
0100
0010
0001
1000
,
0100
1000
0001
0010
0100
0000
0011
0000
,
0001
0000
0001
0000
0001
0010
0100
1000
,
0001
0100
0010
1000
0001
0000
1100
0000
,
0100
0100
0100
0110
,
1110
0000
1111
0000
0000
0000
1000
0100
,
0010
0100
1000
0100
0010
0100
1000
0010
,
0100
0010
1000
0010
0100
0010
1000
0100
,
0001
0100
0010
0100
1000
0100
0010
0100
,
0001
0100
0010
0100
1000
0100
0010
0100
,
1000
0010
0100
0010
0001
1000
0100
0010
,
1000
0100
0010
0001
0100
0010
1100
0100
,
1100
1100
1100
1100
1100
1100
0110
1100
,
0110
0110
0110
0110
0110
0110
0001
1000
,
0100
0010
0001
0100
0000
0010
0000
1000
,
0000
0010
0000
0100
0000
0001
1000
0010
,
0100
0001
0010
0100
0000
1000
0000
0001
,
0000
1000
0000
0100
0000
0010
0001
1000
,
0100
0010
0001
0100
0000
0010
0000
1000
,
0000
0000
0010
0000
0000
0000
0100
0000
0000
0000
0001
0000
0010
0000
0000
0001
,
0001
0000
0000
0010
0010
0000
0000
0100
0100
0000
0000
1000
1000
0000
0000
0010
,
0010
0000
0000
0100
0100
0000
0000
0001
0001
0000
0000
0000
1002
0000
0000
0000
,
1000
1000
1000
0123
,
0130
0102
0213
2310
,
0010
0010
3010
0012
,
0213
1320
2130
3021
,
0001
0000
0001
0130
0010
0002
0000
0003
,
1000
0000
0200
0000
0000
0000
0300
0000
0010
0000
0001
0000
1000
0100
1000
0100
,
1000
0100
1000
0100
1000
0100
1000
0100
1000
0100
1000
0100
0001
0010
0001
0010
,
0001
0010
0001
0010
0001
0010
0001
0010
0001
0010
0001
0010
1000
0000
0010
0000
,
0100
0010
1000
0010
0100
0010
0001
0100
,
0010
0100
0001
0100
0010
0100
0001
0010
,
1000
0010
0100
0010
0001
0010
0100
0010
,
1000
0010
0100
0010
0001
0010
0100
0010
,
0001
0100
0010
0100
1000
0001
0010
0100
,
0001
0010
0100
1000
0010
0100
0011
0010
,
0011
0011
0011
0011
0011
0011
0110
0011
,
0110
0110
0110
0110
0110
0110
2002
0000
,
0000
0000
0000
0000
,
0000
0000
3003
0000
;

//---------------dance-single - Arch0wl----------------
#NOTES:
     dance-single:
     Arch0wl:
     Hard:
     11:
     0.970,0.919,0.429,0.181,1.000,649.000,45.000,19.000,0.000,10.000:
0000
0000
0000
2000
,
0000
3110
0000
0000
,
0000
0001
1100
1001
,
0000
0010
0100
1001
,
0000
0100
1000
0011
,
0100
0010
0100
0011
,
1000
0000
0000
0000
0010
0000
1001
0100
,
0010
1000
0100
0010
1000
0100
1001
0010
,
0100
0001
0010
0100
2000
0000
3001
0001
,
0001
0001
1100
0000
0000
0000
0100
0100
,
0100
0100
0000
0000
0000
0000
0010
0010
,
0010
0010
1100
0000
0000
0000
1000
1000
,
1000
1000
0000
0000
0000
0000
1010
0110
,
1010
0110
1010
0110
1010
0110
1010
0110
,
1010
0110
1010
0110
1010
0110
0101
0011
,
0101
0011
0101
0011
0101
0011
0000
0002
,
0000
0000
0020
0000
0000
0000
0200
0000
1333
0000
0000
0000
1000
0010
0100
0001
,
1000
0010
0100
0001
1000
0010
0100
0001
1000
0100
0010
0100
1000
0100
0010
0001
,
0100
0010
1000
0001
0100
0001
1000
0001
0010
0100
0010
0100
1000
0001
0100
0010
,
1000
0001
0100
0010
1000
0001
0100
0010
0100
1000
0100
0010
0100
0001
0100
0001
,
1000
0100
1000
0010
0100
0001
1000
0010
1000
0001
1000
0001
0100
0010
1000
0001
,
0100
0010
1000
0001
0100
0010
1000
0001
0010
0100
1000
0100
0010
0100
1000
0001
,
0010
0100
1000
0010
0100
0010
1000
0010
0100
0001
0100
0001
1000
0100
1000
0100
,
1000
0100
0010
0001
0010
0001
0100
0010
1000
0100
0010
0001
1000
0100
0010
0001
,
1000
0100
0010
0001
1000
0100
0010
0001
1000
0100
0010
0001
1000
0010
0100
0010
,
1000
0100
0010
0100
1000
0001
0100
0010
0100
0001
1000
0010
1000
0001
0100
0010
,
1000
0100
1000
0100
0010
0001
0010
0100
0010
1000
0001
0100
1000
0010
0100
0001
,
1000
0100
0010
0001
1000
0010
0100
0001
1000
0100
0010
0001
1000
0010
0100
0001
,
1000
0100
0010
0001
1000
0010
0100
0001
1000
0100
0010
0001
1000
0010
0100
0001
,
1000
0100
0010
0100
1000
0010
0100
0010
1000
0100
1000
0010
0100
0001
0010
0100
,
1000
0100
0010
0001
0100
0010
1000
0001
1000
0001
0100
0010
1000
0001
1000
0001
,
0100
0010
1000
0001
0100
0010
1000
0001
0100
0010
1000
0001
0100
0010
0100
0010
,
1000
0001
1000
0001
0100
0010
0100
0010
1000
0001
1000
0001
1000
0010
0100
0010
,
1000
0100
0010
0100
1000
0001
0100
0010
0100
0001
1000
0010
1000
0001
0100
0010
,
1000
0100
1000
0100
0010
0001
0010
0100
0010
1000
0001
0100
1000
0010
0100
0001
,
1000
0100
0010
0001
1000
0010
0100
0001
1000
0100
0010
0001
1000
0010
0100
0001
,
1000
0100
0010
0001
1000
0010
0100
0001
1000
0100
0010
0001
1000
0010
0100
0001
,
1000
0100
0010
0100
1000
0010
0100
0010
1000
0100
1000
0010
0100
0001
0010
0100
,
1000
0100
0010
0001
0100
0010
1000
0001
1000
0001
1000
0001
0100
0010
0100
0010
,
0100
0010
0100
0010
0100
0010
0100
0010
0100
0010
0100
0010
1000
0100
1000
0100
,
1000
0100
1000
0100
0010
0001
0010
0001
0010
0001
0010
0001
1002
0000
0000
0000
,
1000
1000
1000
0123
,
0130
0102
0213
2310
,
0010
0010
3010
0012
,
0213
1320
2130
3021
,
0001
0000
0001
0130
0010
0002
0000
0003
,
1000
0000
0200
0000
0000
0000
0300
0000
0010
0000
0001
0000
1000
0100
1000
0100
,
1000
0100
1000
0100
1000
0100
1000
0100
1000
0100
1000
0100
0001
0010
0001
0010
,
0001
0010
0001
0010
0001
0010
0001
0010
0001
0010
0001
0010
1000
0100
0010
0100
,
1000
0010
0100
0010
1000
0001
0010
0100
0010
0001
1000
0100
1000
0001
0010
0100
,
1000
0010
1000
0010
0100
0001
0100
0010
0100
1000
0001
0010
1000
0100
0010
0001
,
1000
0010
0100
0001
1000
0100
0010
0001
1000
0010
0100
0001
1000
0100
0010
0001
,
1000
0010
0100
0001
1000
0100
0010
0001
1000
0010
0100
0001
1000
0100
0010
0001
,
1000
0010
0100
0010
1000
0100
0010
0100
1000
0010
1000
0100
0010
0001
0100
0010
,
1000
0010
0100
0001
0010
0100
1000
0001
1000
0001
0010
0100
1000
0001
1000
0001
,
0010
0100
1000
0001
0010
0100
1000
0001
0010
0100
1000
0001
0010
0100
0010
0100
,
1000
0001
1000
0001
0010
0100
0010
0100
1000
0001
1000
0001
2002
0000
0000
0000
,
0000
0000
0000
0000
,
0000
0000
3003
0000
;
