#TITLE:V1;
#SUBTITLE:;
#ARTIST:saxxonpike;
#TITLETRANSLIT:;
#SUBTITLETRANSLIT:;
#ARTISTTRANSLIT:;
#CREDIT:;
#BANNER:V1 - Banner.png;
#BACKGROUND:V1 - Background.png;
#LYRICSPATH:;
#CDTITLE:!tmm-cd.png;
#MUSIC:v1.ogg;
#OFFSET:-1.660;
#SAMPLESTART:29.020;
#SAMPLELENGTH:12.980;
#SELECTABLE:YES;
#BPMS:0.000=148.000,100.000=74.000,116.000=148.000;
#STOPS:;
#BGCHANGES:;
// cache tags:
#FIRSTBEAT:8.000;
#LASTBEAT:252.000;
#SONGFILENAME:Songs/toune 4/v1/V1.sm;
#HASMUSIC:1;
#HASBANNER:1;
#MUSICLENGTH:118.439;
// end cache tags

//---------------dance-single - Trick Master Mint----------------
#NOTES:
     dance-single:
     Trick Master Mint:
     Challenge:
     12:
     1.000,0.904,1.000,0.042,1.000,672.000,151.000,5.000,0.000,5.000:
0000
0000
0000
0000
,
0000
0000
0000
0000
,
1001
0000
1000
0100
0010
0000
0010
0100
0001
0000
0001
0100
1000
0000
1000
0010
,
0100
0000
0100
0010
1000
0000
1000
0001
0100
0000
0100
0010
0100
0000
0100
0001
,
0101
0000
0001
1000
0100
0000
0010
0001
0100
0000
0001
0100
0010
0000
1000
0100
,
0001
0000
0001
0100
0010
0000
0010
0001
0100
0000
0010
0100
0001
0000
0001
1000
,
0100
0000
1000
0001
0100
0000
0001
0100
0010
0000
0010
1000
0100
0000
0100
0010
,
0001
0000
0001
1000
0100
0000
0100
1000
1100
0000
1100
0000
0010
0001
0010
0001
,
2000
0000
0000
0000
0000
0000
0001
0000
0000
0000
0000
0000
0100
0000
0000
0000
0000
0000
3000
0000
0000
0100
0001
1000
,
0100
0000
0010
0101
0000
0100
0010
0000
0011
0000
0100
1010
0000
0010
0100
0000
,
0011
0000
1010
0000
1100
0000
0100
1000
0001
0100
0001
1000
0100
0010
0100
1000
,
0101
0000
0010
1100
0000
0100
0010
0000
1100
0000
0010
0101
0000
0001
0010
0000
,
0110
0000
1100
0000
0011
0000
1000
0101
0000
0000
1000
0100
0011
0000
0110
0000
,
1000
1100
0000
0001
1000
0100
0010
0001
0100
0001
1000
0100
0010
0100
1000
0010
,
0100
0001
0010
0100
1000
0001
1000
0100
0010
0100
1000
0010
0101
0000
1010
0000
,
0010
1100
0000
1000
0100
0010
0001
0100
0001
1000
0100
0010
0100
1000
0010
0100
,
0001
1000
0001
1000
0010
0100
0010
0100
0001
1000
0001
0100
0010
1000
0011
0000
,
1100
0000
0100
0011
0000
0010
0100
0000
1001
0000
1000
0011
0000
0010
1000
0000
,
1100
0000
0011
0000
0110
0000
0100
0011
0000
1000
0100
0010
0001
0000
0001
0100
,
1001
0000
0100
1010
0000
0010
0100
0000
0101
0000
0100
0011
0000
0001
0100
0000
,
0011
0000
1100
0000
0110
0000
0010
0101
0000
0001
1000
0010
0110
0000
1010
0000
,
1000
0101
0000
0001
1000
0100
0010
0001
0010
0100
1000
0100
0001
0100
1000
0010
,
0100
0010
0100
0001
1000
0010
0100
0010
1000
0100
0010
0001
0101
0000
1010
0000
,
1000
0101
0000
0010
1000
0001
0010
0001
0100
0001
1000
0100
0010
0001
0010
0100
,
1000
0000
0000
0010
0000
0000
0100
0000
0000
0010
0000
0000
1000
0000
0000
0001
0000
0000
1000
0000
0000
0001
0000
0000
0100
0000
0000
0010
0000
0000
1000
0000
0000
0001
0000
0000
0100
0000
0000
0001
0000
0000
1000
0000
0001
0000
1000
0000
,
0100
0000
0000
1010
0000
0000
0100
0000
1011
0000
0000
0101
0000
0000
0010
0000
,
1101
0000
0000
0000
0100
0000
0010
0000
1000
0000
0001
0100
0000
0100
0001
1000
,
0111
0000
0000
0000
0100
0000
0000
0000
1110
0000
0000
0001
0101
0000
0010
0000
,
2102
0000
0000
0000
3003
0000
0000
0000
1000
0000
0010
0101
0000
0010
1100
0000
,
0011
1000
0001
0101
1000
0010
0101
0010
,
0011
0001
0100
1010
1000
0100
1001
0010
,
0101
0010
1000
0100
1001
0001
1010
1000
,
0101
0010
1100
0101
0001
1100
0110
0001
,
1010
0100
0010
0100
1001
0010
1000
0001
,
0101
0100
0010
1001
0010
0100
0011
1000
,
0110
1000
0001
0100
0001
0010
0001
0100
,
1010
0001
1100
1100
0010
0101
1010
0001
,
1100
0000
0010
0001
1000
0000
1100
0000
0001
1000
0010
0000
0101
0000
0001
0000
,
0110
0000
0001
1000
0010
0000
1100
0000
0010
0100
0001
0000
1010
0000
0100
0000
,
1001
0000
0010
0001
1000
0001
0100
0000
1100
0000
0010
0000
0011
0000
0100
0000
,
1100
0010
1001
1100
0010
0101
0011
0100
,
0011
0000
1000
0001
0100
0000
0010
0000
1100
0000
0010
1000
0001
0000
0100
0000
,
0011
0000
0100
0001
0010
0000
1001
0000
0010
0100
1000
0000
0101
0000
1000
0000
,
0011
0000
1000
0001
0100
0001
0010
0000
0001
0010
0100
0010
0001
1000
0001
0000
,
1100
0000
0000
0001
0000
0000
0110
0000
0000
1010
0000
0000
0100
0000
0000
1010
0000
0000
0011
0000
0000
1000
0001
1000
,
0010
0000
0100
1010
0000
0010
0100
0000
1100
0000
0010
0101
0000
0100
0010
0000
,
1100
0000
0101
0000
0011
0000
0010
0001
1000
0010
1000
0001
0010
0100
0010
0001
,
1010
0000
0100
0011
0000
0010
0100
0000
0011
0000
0100
1010
0000
1000
0100
0000
,
0110
0000
0011
0000
1100
0000
0001
1010
0000
0000
0001
0010
1100
0000
0110
0000
,
0001
0011
0000
1000
0001
0010
0100
1000
0010
1000
0001
0010
0100
0010
0001
0100
,
0010
1000
0100
0010
0001
1000
0001
0010
0100
0010
0001
0100
1010
0000
0101
0000
,
0100
0011
0000
0001
0010
0100
1000
0010
1000
0001
0010
0100
0010
0001
0100
0010
,
1000
0001
1000
0001
0100
0010
0100
0010
1000
0001
1000
0010
0100
0001
1100
0000
,
0011
0000
0010
1100
0000
0100
0010
0000
1001
0000
0001
1100
0000
0100
0001
0000
,
0011
0000
1100
0000
0110
0000
0010
1100
0000
0001
0010
0100
1000
0000
1000
0010
,
1001
0000
0010
0101
0000
0100
0010
0000
1010
0000
0010
1100
0000
1000
0010
0000
,
1100
0000
0011
0000
0110
0000
0100
1010
0000
1000
0001
0100
0110
0000
0101
0000
,
0001
1010
0000
1000
0001
0010
0100
1000
0100
0010
0001
0010
1000
0010
0001
0100
,
0010
0100
0010
1000
0001
0100
0010
0100
0001
0010
0100
1000
1010
0000
0101
0000
,
0001
1010
0000
0100
0001
1000
0100
1000
0010
1000
0001
0010
0100
1000
0100
0010
,
0001
0100
0010
0100
0001
1000
0001
1000
0010
0100
0001
1000
0010
1000
0001
0100
,
0001
0100
0010
1000
0100
0010
0001
1000
0010
0100
0001
1000
0100
0010
0001
0100
,
2002
0000
0000
0000
,
3003
0000
0000
0000
;

//---------------dance-single - Trick Master Mint----------------
#NOTES:
     dance-single:
     Trick Master Mint:
     Hard:
     8:
     0.549,0.768,0.583,0.034,0.186,382.000,69.000,4.000,0.000,0.000:
0000
0000
0000
0000
,
0000
0000
0000
0000
,
0001
1000
0001
0000
0001
0000
0001
0000
,
0100
0000
0100
0000
0100
0000
1000
0001
,
1100
0010
0010
0010
,
1000
0010
0100
0101
,
1000
0001
0100
0001
0010
0001
1000
0000
,
0101
0000
0000
0000
1000
0000
0100
0000
1000
0000
0010
0000
1000
0001
1000
0001
,
0200
0000
0000
0000
0000
0000
0300
0001
,
1000
0000
0000
1010
0000
0000
0001
0000
1000
0000
0000
0011
0000
0000
0100
0000
,
0001
0000
1000
0000
0100
0000
0010
0001
0000
0000
0000
0000
1000
0000
0001
0000
,
0100
0000
0000
0101
0000
0000
1000
0000
0010
0000
0000
0110
0000
0000
1000
0000
,
0001
0000
0100
0000
0001
0000
1000
0100
0000
0000
0000
0000
0110
0000
0100
0000
,
0010
1000
0000
0000
0001
0000
0100
0000
0001
0000
0000
0000
1000
0000
0100
0000
,
0001
0000
0010
1000
0010
0000
0110
0010
,
0100
0010
0000
0000
1000
0000
0010
0000
0100
0000
0000
0000
0001
0000
0100
0000
,
0010
0000
1000
0001
0010
0000
1000
0001
,
0100
0000
0000
0101
0000
0000
1000
0000
0001
0000
0000
1100
0000
0000
0010
0000
,
1000
0000
0001
0000
0010
0000
0100
1000
0000
0000
0000
0000
0001
0000
1000
0000
,
0010
0000
0000
1010
0000
0000
0001
0000
0100
0000
0000
0110
0000
0000
0001
0000
,
1000
0000
0010
0000
1000
0000
0001
0010
0000
0000
0000
0000
0110
0000
0010
0000
,
0100
0001
0000
0000
1000
0000
0010
0000
1000
0000
0000
0000
0001
0000
0010
0000
,
1000
0000
0100
0001
0100
0000
0110
0100
,
0010
0100
0000
0000
0001
0000
0100
0000
0010
0000
0000
0000
1000
0000
0010
0000
,
0100
0000
0001
1000
0100
0000
0001
0010
,
0101
0000
0000
1001
0000
0000
1100
0000
0110
0000
0000
0011
0000
0000
0110
0000
,
1001
0000
0000
0000
1100
0000
0110
0000
1001
0000
0101
0101
0000
0010
1000
0100
,
1100
0000
0000
0000
0101
0000
0000
0000
0110
0000
0000
1001
1001
0000
1100
0000
,
0120
0000
0100
0000
0130
0000
0100
0000
0101
0000
0011
0011
0000
1100
1100
0000
,
0011
0000
0010
0001
0010
0000
0001
1000
,
0001
0000
1000
0100
1000
0000
0010
0100
,
0010
0000
1000
0100
0010
0000
0001
0100
,
0010
0000
1000
0100
0001
0000
0001
0100
,
1001
0000
0100
0010
1000
0000
0100
0001
,
0010
0000
1000
0100
0010
0000
0001
0100
,
0001
0000
1000
0100
1000
0000
1000
0010
,
0100
0010
0100
0001
0100
0010
1001
0000
,
1010
0000
0010
1000
0100
0000
0001
1000
,
1001
0000
0100
0010
0001
0000
1000
0100
,
1010
0000
0100
0010
0011
0010
0100
0100
,
1001
0100
0100
1000
0000
0100
1000
1000
,
1100
0000
1000
0001
1010
0000
1000
0100
,
0110
0000
0010
1000
0001
0000
0010
1000
,
0011
0000
0100
0001
1000
0000
0010
0001
,
0100
0000
1000
1100
0000
0001
0101
0010
,
1001
0000
0000
0101
0000
0000
1000
0000
0001
0000
0000
1100
0000
0000
0010
0000
,
1000
0000
0001
0000
0010
0000
0100
1000
0000
0000
0000
0000
0001
0000
1000
0100
,
0010
0000
0000
1010
0000
0000
0001
0000
0100
0000
0000
0110
0000
0000
0001
0000
,
1000
0000
0010
0000
1000
0000
0001
0010
0000
0000
0000
0000
0110
0000
0010
0000
,
0100
0001
0000
0000
1000
0000
0010
0000
1000
0000
0000
0000
0001
0000
0010
0000
,
1000
0000
0100
0001
0100
0000
0110
0100
,
0010
0100
0000
0000
0001
0000
0100
0000
0010
0000
0000
0000
1000
0000
0010
0000
,
0100
0000
0001
1000
0100
0000
0001
1000
,
0010
0000
0000
1010
0000
0000
0001
0000
1000
0000
0000
0011
0000
0000
0100
0000
,
0001
0000
1000
0000
0100
0000
0010
0001
0000
0000
0000
0000
1000
0000
0001
0010
,
0100
0000
0000
0101
0000
0000
1000
0000
0010
0000
0000
0110
0000
0000
1000
0000
,
0001
0000
0100
0000
0001
0000
1000
0100
0000
0000
0000
0000
0110
0000
0100
0000
,
0010
1000
0000
0000
0001
0000
0100
0000
0001
0000
0000
0000
1000
0000
0100
0000
,
0001
0000
0010
1000
0010
0000
0110
0010
,
0100
0010
0000
0000
1000
0000
0010
0000
0100
0000
0000
0000
0001
0000
0100
0000
,
0010
0000
1000
0001
0010
0000
1000
0100
,
0010
0000
1000
0100
0011
0000
1001
0100
,
2002
0000
0000
3003
;

//---------------dance-single - Trick Master Mint----------------
#NOTES:
     dance-single:
     Trick Master Mint:
     Medium:
     6:
     0.423,0.477,0.236,0.296,0.000,288.000,28.000,35.000,0.000,0.000:
0000
0000
0000
0000
,
0000
0000
0000
0000
,
0100
0100
0100
0000
,
0100
0100
0100
0000
,
1000
0001
1000
0001
,
0100
0010
0100
0010
,
1000
1000
1000
1000
,
0001
0001
0001
0001
,
0200
0000
0000
0300
,
0010
0000
1000
0100
1000
0000
0001
0100
,
0001
1000
0001
0100
,
0010
0000
1000
0100
1000
0000
0001
0100
,
0001
0100
0010
1000
,
2200
3300
0022
0033
,
0202
0303
2020
3030
,
2200
3300
0022
0033
,
0220
0330
2002
3003
,
0010
0000
1000
0100
1000
0000
0001
0100
,
0001
1000
0001
0100
,
0010
0000
1000
0100
1000
0000
0001
0100
,
0001
0100
0010
1000
,
2200
3300
0022
0033
,
0202
0303
2020
3030
,
2200
3300
0022
0033
,
0220
0330
2002
3003
,
1000
0001
0100
0001
1000
0100
1000
0010
,
0100
0010
0100
0001
0010
0100
1000
0010
,
0100
0010
0100
0001
1000
0001
0100
0001
,
1000
0010
0100
0001
1000
0100
0010
0100
,
1001
0001
0100
0010
,
0100
0001
1000
0100
,
0010
0001
0100
1000
,
0100
0001
0010
0100
,
0100
0001
1000
0100
,
0100
1000
0010
0010
,
0100
0001
0001
1000
,
0100
0010
0100
1000
,
0001
0100
0001
1000
0001
0000
0100
0000
,
0010
1000
0100
1000
0010
0000
0100
0000
,
0001
1000
0100
1000
0001
0000
0100
0000
,
0001
1000
0010
0010
0100
0000
1000
0000
,
0100
0001
1000
0100
0010
0000
0100
0000
,
1000
0010
0100
0001
0010
0000
0100
0000
,
1000
0100
0001
0100
1000
0000
0010
0000
,
0100
0010
0100
0010
0100
0010
0100
0010
,
1001
0000
0001
1000
0010
0000
0001
1000
,
0100
0000
0100
0010
0100
0000
0010
0000
,
0010
0000
1000
0010
1000
0000
0100
0001
,
0010
0100
0010
0001
,
1000
0001
0100
0000
0001
1000
0100
0000
,
1000
0010
0001
0000
0001
0010
1000
0000
,
1000
0100
0001
0000
0001
0100
1000
0000
,
1100
0110
0011
0110
,
1001
0000
1000
0001
0100
0000
1000
0001
,
0010
0000
0010
0100
0010
0000
0100
0000
,
0100
0000
0001
0100
0001
0000
0010
1000
,
0100
0010
0100
1000
,
0001
1000
0010
0000
1000
0001
0010
0000
,
0001
0100
1000
0000
1000
0100
0001
0000
,
0001
0010
1000
0000
1000
0010
0001
0000
,
0011
0110
1100
0110
,
1000
0100
0010
0001
1000
0100
0010
0001
,
2002
0000
0000
3003
;

//---------------dance-single - Trick Master Mint----------------
#NOTES:
     dance-single:
     Trick Master Mint:
     Easy:
     4:
     0.283,0.291,0.186,0.118,0.000,199.000,22.000,14.000,0.000,0.000:
0000
0000
0000
0000
,
0000
0000
0000
0000
,
1000
0100
0001
0000
,
0001
0100
1000
0000
,
0010
1000
0100
0000
,
0010
0001
0100
0000
,
1000
0001
0100
0001
,
1000
0100
0010
0100
,
2002
0000
3003
0000
,
1000
0010
0100
0010
,
1000
0001
0200
0300
,
0001
0010
0100
1000
,
0010
0100
0002
0003
,
1000
1000
1000
0100
,
0010
0001
0001
0100
,
0010
0100
0001
0001
,
1000
0100
0110
0000
,
1000
0001
0010
0001
,
0100
0100
0200
0300
,
0001
1000
0010
0100
,
0010
1000
0002
0003
,
0100
1000
0100
0001
,
0010
0001
0100
0100
,
1000
0000
1100
0000
,
0011
0001
1000
0100
,
0110
0000
0110
0000
,
1001
0000
0100
0010
,
1001
0000
1100
0000
,
0011
0000
0110
0001
,
1001
1000
0100
1000
,
0010
0000
0100
0001
,
0010
0100
1000
0001
,
1001
0000
0110
0000
,
1000
0100
0001
0100
,
1000
0000
0010
0000
,
0100
0010
1000
0001
,
0100
0000
0100
0000
,
0010
0001
1000
0001
,
0010
1000
0100
0001
,
0010
0000
0100
0000
,
1001
0110
1001
0000
,
1000
0001
0010
0100
,
1000
0000
0010
0000
,
0100
0100
0001
0010
,
2002
0000
0000
3003
,
1000
0010
0100
0010
,
1000
0001
0200
0300
,
0001
0010
0100
1000
,
0010
0100
0002
0003
,
1000
1000
1000
0100
,
0010
0001
0001
0100
,
0010
0100
0001
0001
,
1000
0100
0110
0000
,
1000
0001
0010
0001
,
0100
0100
0200
0300
,
0001
1000
0010
0100
,
0010
1000
0002
0003
,
0100
1000
0100
0001
,
0010
0001
0100
0100
,
1000
0000
1100
0000
,
0011
0001
1000
0100
,
0010
0010
0100
0010
,
2002
0000
0000
3003
;

//---------------dance-single - Trick Master Mint----------------
#NOTES:
     dance-single:
     Trick Master Mint:
     Beginner:
     1:
     0.158,0.183,0.101,0.000,0.000,119.000,12.000,0.000,0.000,0.000:
0000
0000
0000
0000
,
0000
0000
0000
0000
,
1000
0000
1000
0000
,
0001
0000
0001
0000
,
0100
0000
0100
0000
,
0010
0000
0010
0000
,
1000
0000
0100
0000
,
0001
0000
0100
0000
,
1001
0000
0000
0000
,
1000
0000
0001
0000
,
0100
0100
0100
0000
,
0010
0000
0100
0000
,
0001
0001
0001
0000
,
1000
0000
0001
0000
,
1000
0000
0001
0000
,
0010
0000
0100
0000
,
0010
0000
0100
0000
,
1000
0000
0100
0000
,
0010
0010
0010
0000
,
0001
0000
0100
0000
,
0010
0010
0010
0000
,
1000
0000
0001
0000
,
1000
0000
0100
0000
,
0010
0000
0100
0000
,
1000
0000
0001
0000
,
0110
0000
0000
0000
,
1001
0000
0000
0000
,
0110
0000
0000
0000
,
1001
0000
0000
0000
,
0110
0000
0000
0000
,
1001
0000
0000
0000
,
1001
0000
0000
0000
,
0110
0000
0000
0000
,
1000
0000
0100
0000
,
0001
0000
0100
0000
,
1000
0000
0100
0000
,
1001
0000
0000
0000
,
0100
0000
0010
0000
,
1000
0000
0001
0000
,
0010
0000
0001
0000
,
0100
0000
0010
0000
,
1000
0000
0100
0000
,
0100
0000
1000
0000
,
0001
0000
0010
0000
,
0100
0000
0100
0000
,
0010
0000
1000
0000
,
0001
0001
0001
0000
,
0100
0000
0001
0000
,
1000
1000
1000
0000
,
0010
0000
1000
0000
,
0010
0000
1000
0000
,
0100
0000
0001
0000
,
0100
0000
0001
0000
,
0010
0000
0001
0000
,
0100
0100
0100
0000
,
1000
0000
0001
0000
,
0100
0100
0100
0000
,
0010
0000
1000
0000
,
0010
0000
0001
0000
,
0100
0000
0001
0000
,
0010
0000
1000
0000
,
1001
0000
0100
0000
,
1001
0000
0000
0000
;
