#TITLE:World End's Yama Xanadu;
#SUBTITLE:;
#ARTIST:t+pazolite;
#TITLETRANSLIT:;
#SUBTITLETRANSLIT:;
#ARTISTTRANSLIT:;
#CREDIT:;
#BANNER:../banner.png;
#BACKGROUND:../bg.png;
#LYRICSPATH:;
#CDTITLE:;
#MUSIC:World End's Yama Xanadu.ogg;
#OFFSET:2.537;
#SAMPLESTART:143.990;
#SAMPLELENGTH:20.420;
#SELECTABLE:YES;
#DISPLAYBPM:190.000;
#BPMS:0.000=190.001;
#STOPS:;
#BGCHANGES:;
// cache tags:
#FIRSTBEAT:8.000;
#LASTBEAT:1046.000;
#SONGFILENAME:Songs/Cirque du Lykan/World End's Yama Xanadu - [Zaia]/World End's Yama Xanadu.sm;
#HASMUSIC:1;
#HASBANNER:1;
#MUSICLENGTH:328.015;
// end cache tags

//---------------dance-single - Zaia - 17(mid-high)----------------
#NOTES:
     dance-single:
     Zaia - 17(mid-high):
     Challenge:
     17:
     1.000,1.000,0.055,0.058,1.000,3642.000,18.000,19.000,0.000,0.000:
0000
0000
0000
0000
,
0000
0000
0000
0000
,
1001
0001
0100
0001
1000
0100
1000
0001
,
0100
0010
1000
0001
0010
0100
1000
0010
,
1000
0001
1000
0100
0010
0001
1000
0010
,
1000
0001
0010
0001
1000
0001
0010
0001
,
1000
0001
0100
0010
0100
0001
1000
0100
,
1000
0001
0010
0001
1000
0010
0100
0001
,
0010
0100
1000
0010
1000
0001
0100
0010
,
1000
0001
0010
0100
0010
0001
0100
0010
,
1010
0000
1000
0000
0001
1000
0000
0001
0000
0010
0000
0100
0000
1000
0000
0001
,
0100
0000
0010
0000
1000
0000
0001
0100
0010
0000
1000
0000
0001
0010
0001
0010
,
0100
0000
1000
0000
0010
0100
0000
0001
0000
1000
0000
0100
0000
0010
0000
0001
,
1000
0000
0001
0000
0010
0000
0100
0000
1000
0000
0100
0000
1000
0001
1000
0001
,
0010
0000
0100
0000
1000
0001
0000
0100
0000
0001
0000
1000
0000
0100
0000
0010
,
0001
0000
1000
0000
0010
0000
0100
0001
1000
0000
0100
0000
0010
0001
0010
0001
,
1000
0000
0010
0000
0100
0000
0001
1000
0010
0000
0100
0000
0001
0000
1000
0100
,
0010
0011
1001
1010
,
0001
0100
0010
1000
0001
1000
0100
1000
0001
0100
0010
1000
0010
0100
0001
1000
,
0100
0010
0001
1000
0001
0010
0001
1000
0100
0010
0100
1000
0001
1000
0010
0100
,
0001
0010
0100
1000
0001
1000
0100
1000
0001
0100
0010
0100
0001
1000
0001
0010
,
0001
1000
0010
1000
0001
0100
0010
1000
0001
1000
0100
1000
0001
0010
0001
0100
,
0010
1000
0001
1000
0010
0100
0001
1000
0100
0010
0100
1000
0001
0100
0001
1000
,
0010
1000
0001
0010
0100
1000
0001
1000
0100
1000
0001
0100
0001
1000
0010
0100
,
0001
1000
0001
0010
0100
0010
0001
1000
0001
0100
0001
1000
0100
0010
0100
1000
,
0010
0100
0001
0100
0010
1000
0001
1000
0100
1000
0001
1000
0100
0010
0001
1000
,
0001
0010
0100
0010
0001
1000
0001
1000
0010
0100
0001
1000
0100
1000
0001
0010
,
0100
1000
0001
1000
0010
1000
0001
0100
0001
1000
0100
0010
0001
0010
0100
1000
,
0001
0100
0010
0100
0001
1000
0010
1000
0001
1000
0100
0010
0100
1000
0001
0010
,
0100
1000
0001
0100
0001
1000
0100
0010
0001
1000
0010
0100
0001
1000
0001
1000
,
0100
0010
0100
1000
0001
0100
0010
0100
0001
1000
0100
1000
0001
1000
0010
0100
,
0001
1000
0010
1000
0001
0100
0001
1000
0001
0010
0100
1000
0010
0100
0010
0100
,
0001
1000
0100
1000
0001
0100
0010
0100
0001
1000
0100
1000
0001
0100
0010
1000
,
0001
0100
0001
0100
0010
1000
0001
0010
0100
1000
0001
0100
0010
1000
0001
0010
,
0001
0010
0100
1000
0001
1000
0010
1000
0001
0010
0100
1000
0100
0010
0001
1000
,
0010
0100
0001
1000
0001
0100
0001
1000
0010
0100
0010
1000
0001
1000
0100
0010
,
0001
0100
0010
1000
0001
1000
0010
1000
0001
0010
0100
0010
0001
1000
0001
0100
,
0001
1000
0100
1000
0001
0010
0100
1000
0001
1000
0010
1000
0001
0100
0001
0010
,
0100
1000
0001
1000
0100
0010
0001
1000
0010
0100
0010
1000
0001
0010
0001
1000
,
0100
1000
0001
0100
0010
1000
0001
1000
0010
1000
0001
0010
0001
1000
0100
0010
,
0001
1000
0001
0100
0010
0100
0001
1000
0001
0010
0001
1000
0010
0100
0010
1000
,
0100
0010
0001
0010
0100
1000
0001
1000
0010
1000
0001
1000
0010
0100
0001
1000
,
0001
0100
0010
0100
0001
1000
0001
1000
0100
0010
0001
1000
0010
1000
0001
0100
,
0010
1000
0001
1000
0100
1000
0001
0010
0001
1000
0010
0100
0001
0100
0010
1000
,
0001
0010
0100
0010
0001
1000
0100
1000
0001
1000
0010
0100
0010
1000
0001
0100
,
0010
1000
0001
0010
0001
1000
0010
0100
0001
1000
0100
0010
0001
1000
0001
1000
,
0010
0100
0010
1000
0001
0010
0100
0010
0001
1000
0010
1000
0001
1000
0100
0010
,
0001
1000
0100
1000
0001
0010
0001
1000
0001
0100
0010
1000
0100
0010
0100
0010
,
0001
1000
0010
1000
0001
0010
0100
0010
0001
1000
0010
1000
0001
0010
0100
1000
,
0001
0010
0001
0010
0100
1000
0001
0100
0010
1000
0001
0010
0100
1000
0001
0100
,
0001
1000
0001
0100
0010
1000
0001
1000
0010
1000
0001
0100
0001
1000
0001
1000
,
0100
0010
0001
0010
0100
1000
0001
1000
0010
1000
0001
0010
0100
1000
0100
1000
,
0001
0100
0010
1000
0010
0100
0001
1000
0010
0100
0001
1000
0001
0010
0001
0010
,
0100
1000
0001
0100
0010
1000
0001
1000
0010
0100
0001
1000
0010
0100
0010
0100
,
0001
1000
0100
1000
0001
0010
0100
0010
0001
1000
0001
0010
0001
1000
0001
1000
,
0010
0100
0001
1000
0001
0100
0010
1000
0010
0100
0001
1000
0001
0100
0001
0100
,
0010
1000
0001
1000
0100
0010
0100
1000
0001
0010
0100
0010
0001
1000
0001
1000
,
0010
0100
0001
1000
0010
0100
0010
1000
0001
0100
0001
1000
0010
0100
0010
0100
,
0001
1000
0001
0010
0100
1000
0001
1000
0100
1000
0001
0010
0001
1000
0001
1000
,
0010
0100
0001
0100
0010
1000
0001
1000
0100
1000
0001
0100
0010
1000
0010
1000
,
0001
0010
0100
1000
0100
0010
0001
1000
0100
0010
0001
1000
0001
0100
0001
0100
,
0010
1000
0001
0010
0100
1000
0001
1000
0100
0010
0001
1000
0100
0010
0100
0010
,
0001
1000
0010
1000
0001
0100
0010
0100
0001
1000
0001
0100
0001
1000
0001
1000
,
0100
0010
0001
1000
0001
0010
0100
1000
0100
0010
0001
1000
0001
0010
0001
0010
,
0100
1000
0001
1000
0010
0100
0010
1000
0001
0100
0010
0100
0001
1000
0001
1000
,
0100
0010
0001
1000
0100
0010
0100
1000
0001
0100
0001
1000
0010
1000
0001
1000
,
0001
0100
0010
1000
0001
1000
0100
1000
0001
0100
0010
1000
0010
0100
0001
1000
,
0100
0010
0001
1000
0001
0010
0001
1000
0100
0010
0100
1000
0001
1000
0010
0100
,
0001
0010
0100
1000
0001
1000
0100
1000
0001
0100
0010
0100
0001
1000
0001
0010
,
0001
1000
0010
1000
0001
0100
0010
1000
0001
1000
0100
1000
0001
0010
0001
0100
,
0010
1000
0001
1000
0010
0100
0001
1000
0100
0010
0100
1000
0001
0100
0001
1000
,
0010
1000
0001
0010
0100
1000
0001
1000
0100
1000
0001
0100
0001
1000
0010
0100
,
0001
1000
0001
0010
0100
0010
0001
1000
0001
0100
0001
1000
0100
0010
0100
1000
,
0010
0100
0001
0100
0010
1000
0001
1000
0100
1000
0001
1000
0100
0010
0001
1000
,
0001
0010
0100
0010
0001
1000
0001
1000
0010
0100
0001
1000
0100
1000
0001
0010
,
0100
1000
0001
1000
0010
1000
0001
0100
0001
1000
0100
0010
0001
0010
0100
1000
,
0001
0100
0010
0100
0001
1000
0010
1000
0001
1000
0100
0010
0100
1000
0001
0010
,
0100
1000
0001
0100
0001
1000
0100
0010
0001
1000
0010
0100
0001
1000
0001
1000
,
0100
0010
0100
1000
0001
0100
0010
0100
0001
1000
0100
1000
0001
1000
0010
0100
,
0001
1000
0010
1000
0001
0100
0001
1000
0001
0010
0100
1000
0010
0100
0010
0100
,
0001
1000
0100
1000
0001
0100
0010
0100
0001
1000
0100
1000
0001
0100
0010
1000
,
0001
0100
0001
0100
0010
1000
0001
0010
0100
1000
0001
0100
0010
1000
0001
0010
,
0002
0000
0000
0023
0000
0000
0130
0000
,
1200
0000
0000
2300
0000
0000
3001
0000
,
0102
0000
0000
0000
,
2003
0000
0000
0000
0000
0000
3100
0010
,
0002
0000
0000
2003
0000
0000
3010
0000
,
0120
0000
0000
0230
0000
0000
0301
0000
,
0021
0000
0000
0000
,
0230
0000
0000
0000
0000
0000
1300
0001
,
0010
0000
0000
0000
0010
0000
0000
0000
0010
0000
0000
0001
0000
0000
1000
0000
,
0000
0000
0010
0000
1000
0000
0000
0000
0001
0000
0000
1000
0000
0000
0001
0000
,
0100
0000
0000
0000
0010
0000
0000
0000
0100
0000
0000
0010
0000
0000
0100
0000
,
0002
0000
0000
0000
0000
0000
1003
0100
,
0020
0000
0000
0230
0000
0000
1300
0000
,
2001
0000
0000
3002
0000
0000
0103
0000
,
0120
0000
0000
0000
,
0000
0000
0000
0000
,
1030
0001
0100
0001
1000
0010
0100
0001
,
1000
0100
1000
0001
0010
0100
1000
0001
,
1000
0010
0100
0001
1000
0010
0100
0010
,
1000
0100
0010
0100
1000
0001
0010
0001
,
1000
0010
0100
0001
1000
0100
0010
0001
,
1000
0010
1000
0001
0010
0001
1000
0001
,
0100
0010
0100
0001
1000
0100
0010
0001
,
1000
0001
1000
0010
0100
0001
1000
0010
,
0110
0100
0001
0010
0100
1000
0001
0010
,
0001
1000
0010
0100
0001
1000
0010
0100
,
0101
0001
0100
0010
0100
0001
1000
0100
,
1000
0001
0010
0001
1000
0001
0100
0010
,
1010
1000
0001
1000
0010
1000
0001
1000
,
1100
0100
0010
0001
0100
0010
0100
0001
,
0110
0000
1001
1001
,
0001
0000
0000
0000
0000
0000
0100
0000
0000
0000
0000
0000
0001
0000
0000
0000
0000
0000
0100
0000
0000
0000
0000
0000
0010
0000
0000
0100
0000
0000
0010
0000
0000
0100
0000
0000
0001
0000
1000
0000
0001
0000
1000
0000
0001
0000
1000
0000
,
0010
0000
0000
0000
,
0000
0000
0000
0000
,
1000
0010
1000
0010
1000
0001
1000
0100
1000
0001
1000
0010
0100
0001
1000
0001
,
0010
0100
0010
0001
1000
0010
1000
0001
0100
0001
1000
0001
0010
0001
1000
0100
,
1000
0001
0010
0001
0010
0001
1000
0001
0100
0001
1000
0001
0010
0100
1000
0001
,
0100
0010
0100
0001
1000
0001
0010
0100
1000
0001
0010
0001
1000
0010
0100
0001
,
0010
0001
1000
0001
1000
0010
0100
0001
0100
0010
1000
0001
1000
0010
1000
0100
,
0010
0100
1000
0010
0100
0001
1000
0010
1000
0100
0010
0001
0100
0001
1000
0001
,
0010
0100
0010
0001
1000
0010
0100
0010
1000
0001
0010
0001
1000
0010
0100
0001
,
0010
0100
1000
0001
1000
0010
0100
0001
1000
0010
1000
0100
0010
0001
0010
0100
,
1000
0001
1000
0001
1000
0010
1000
0001
1000
0010
1000
0100
0010
0001
1000
0001
,
0100
0010
0100
0001
1000
0100
1000
0001
0010
0001
1000
0001
0100
0001
1000
0010
,
1000
0001
0100
0001
0100
0001
1000
0001
0010
0001
1000
0001
0100
0010
1000
0001
,
0010
0100
0010
0001
1000
0001
0100
0010
1000
0001
0100
0001
1000
0100
0010
0001
,
0100
0001
1000
0001
1000
0100
0010
0001
0010
0100
1000
0001
1000
0100
1000
0010
,
0100
0010
1000
0100
0010
0001
1000
0100
1000
0010
0100
0001
0010
0001
1000
0001
,
0100
0010
0100
0001
1000
0100
0010
0100
1000
0001
0100
0001
1000
0100
0010
0001
,
0100
0010
1000
0001
1000
0100
0010
0001
1000
0100
1000
0010
0100
0001
0100
0010
,
1000
0001
0010
0001
1000
0010
1000
0001
0010
0100
1000
0001
0100
0010
1000
0001
,
1000
0100
0010
0100
0010
0001
1000
0010
0100
0010
1000
0001
0010
0100
1000
0001
,
1000
0010
0100
0001
1000
0100
1000
0001
0010
0001
1000
0010
0100
0001
0010
0001
,
0100
0010
0100
0001
1000
0001
0010
0100
1000
0010
0100
0001
1000
0001
0010
0100
,
1000
0001
0100
0001
1000
0010
0100
0001
0010
0100
1000
0001
0100
0010
1000
0001
,
1000
0010
0100
0001
1000
0010
1000
0001
0100
0010
1000
0001
0010
0100
1000
0001
,
0010
0100
0010
0001
1000
0010
0100
0001
0010
0100
1000
0001
0100
0010
1000
0001
,
1000
0010
1000
0001
1000
0100
0010
0001
0100
0010
1000
0001
0010
0100
1000
0001
,
1000
0001
0100
0001
1000
0100
1000
0001
0100
0010
1000
0001
0010
0100
1000
0001
,
1000
0010
0100
0010
0100
0001
1000
0100
0010
0100
1000
0001
0100
0010
1000
0001
,
1000
0100
0010
0001
1000
0010
1000
0001
0100
0001
1000
0100
0010
0001
0100
0001
,
0010
0100
0010
0001
1000
0001
0100
0010
1000
0100
0010
0001
1000
0001
0100
0010
,
1000
0001
0010
0001
1000
0100
0010
0001
0100
0010
1000
0001
0010
0100
1000
0001
,
1000
0100
0010
0001
1000
0010
1000
0001
0010
0100
1000
0001
0100
0010
1000
0001
,
0100
0010
0100
0001
1000
0100
0010
0001
0100
0010
1000
0001
0010
0100
1000
0001
,
1000
0100
1000
0001
1000
0010
0100
0001
0010
0100
1000
0001
0100
0010
1000
0001
,
1000
0000
0000
0000
,
0001
1000
0001
1000
0010
0100
0001
1000
0100
0010
0100
1000
0001
0100
0010
0100
,
0001
1000
0100
1000
0001
0100
0010
1000
0001
1000
0100
0010
0001
1000
0010
1000
,
0001
0010
0100
1000
0010
1000
0001
0100
0001
1000
0001
0010
0100
1000
0001
0100
,
0010
0100
0010
1000
0001
0010
0100
0010
0001
0100
0010
0100
0001
1000
0100
1000
,
0001
0100
0010
1000
0001
1000
0100
1000
0001
0100
0010
0100
0001
1000
0001
0010
,
0100
1000
0001
1000
0010
0100
0001
0100
0010
1000
0100
1000
0001
1000
0001
0010
,
0100
0010
0001
1000
0010
1000
0001
0100
0001
1000
0100
0010
0001
1000
0001
0010
,
0100
0010
0001
1000
0010
1000
0001
0100
0010
1000
0100
1000
0001
0010
0001
1000
,
0100
0010
0100
1000
0010
0100
0001
1000
0010
0100
0010
1000
0001
0010
0100
0010
,
0001
1000
0010
1000
0001
0010
0100
1000
0001
1000
0010
0100
0001
1000
0100
1000
,
0001
0100
0010
1000
0100
1000
0001
0010
0001
1000
0001
0100
0010
1000
0001
0010
,
0100
0010
0100
1000
0001
0100
0010
0100
0001
0010
0100
0010
0001
1000
0010
1000
,
0001
0010
0100
1000
0001
1000
0010
1000
0001
0010
0100
0010
0001
1000
0001
0100
,
0010
1000
0001
1000
0100
0010
0001
0010
0100
1000
0010
1000
0001
1000
0001
0100
,
0010
0100
0001
1000
0100
1000
0001
0010
0001
1000
0010
0100
0001
1000
0001
0100
,
0010
0100
0001
1000
0100
1000
0001
0010
0100
1000
0010
1000
0001
0100
0001
1000
,
0001
1000
0010
1000
0001
0010
0001
1000
0010
0100
0001
1000
0100
0010
0001
1000
,
0001
0100
0010
0100
0010
1000
0001
0010
0100
0010
0001
1000
0010
0100
0001
1000
,
0001
0010
0100
1000
0001
0100
0001
1000
0010
1000
0001
0010
0100
1000
0010
1000
,
0100
0010
0100
1000
0001
1000
0010
0100
0001
0010
0100
1000
0001
1000
0010
0100
,
0001
1000
0100
1000
0001
0010
0100
1000
0010
0100
0001
1000
0100
0010
0001
1000
,
0001
0010
0100
1000
0001
0010
0001
1000
0100
0010
0001
1000
0010
0100
0001
1000
,
0010
0100
0010
1000
0001
0010
0100
1000
0010
0100
0001
1000
0100
0010
0001
1000
,
0001
0010
0001
1000
0001
0100
0010
1000
0100
0010
0001
1000
0010
0100
0001
1000
,
0001
1000
0100
1000
0001
0100
0001
1000
0100
0010
0001
1000
0010
0100
0001
1000
,
0001
0010
0100
0010
0100
1000
0001
0100
0010
0100
0001
1000
0100
0010
0001
1000
,
0001
0100
0010
1000
0001
0010
0001
1000
0100
1000
0001
0100
0010
1000
0100
1000
,
0010
0100
0010
1000
0001
1000
0100
0010
0001
0100
0010
1000
0001
1000
0100
0010
,
0001
1000
0010
1000
0001
0100
0010
1000
0100
0010
0001
1000
0010
0100
0001
1000
,
0001
0010
0100
1000
0001
0100
0001
1000
0010
0100
0001
1000
0100
0010
0001
1000
,
0100
0010
0100
1000
0001
0100
0010
1000
0100
0010
0001
1000
0010
0100
0001
1000
,
0001
0100
0010
1000
0001
0010
0100
1000
0001
0100
0010
0100
0001
1000
0001
1000
,
0001
0100
0010
1000
0001
1000
0100
1000
0001
0100
0010
1000
0010
0100
0001
1000
,
0100
0010
0001
1000
0001
0010
0001
1000
0100
0010
0100
1000
0001
1000
0010
0100
,
0001
0010
0100
1000
0001
1000
0100
1000
0001
0100
0010
0100
0001
1000
0001
0010
,
0001
1000
0010
1000
0001
0100
0010
1000
0001
1000
0100
1000
0001
0010
0001
0100
,
0010
1000
0001
1000
0010
0100
0001
1000
0100
0010
0100
1000
0001
0100
0001
1000
,
0010
1000
0001
0010
0100
1000
0001
1000
0100
1000
0001
0100
0001
1000
0010
0100
,
0001
1000
0001
0010
0100
0010
0001
1000
0001
0100
0001
1000
0100
0010
0100
1000
,
0010
0100
0001
0100
0010
1000
0001
1000
0100
1000
0001
1000
0100
0010
0001
1000
,
0001
0010
0100
0010
0001
1000
0001
1000
0010
0100
0001
1000
0100
1000
0001
0010
,
0100
1000
0001
1000
0010
1000
0001
0100
0001
1000
0100
0010
0001
0010
0100
1000
,
0001
0100
0010
0100
0001
1000
0010
1000
0001
1000
0100
0010
0100
1000
0001
0010
,
0100
1000
0001
0100
0001
1000
0100
0010
0001
1000
0010
0100
0001
1000
0001
1000
,
0100
0010
0100
1000
0001
0100
0010
0100
0001
1000
0100
1000
0001
1000
0010
0100
,
0001
1000
0010
1000
0001
0100
0001
1000
0001
0010
0100
1000
0010
0100
0010
0100
,
0001
1000
0100
1000
0001
0100
0010
0100
0001
1000
0100
1000
0001
0100
0010
1000
,
0001
0100
0001
0100
0010
1000
0001
0010
0100
1000
0001
0100
0010
0100
0001
1000
,
0001
0100
0001
1000
0001
0100
0010
1000
0010
0100
0001
1000
0001
0100
0001
0100
,
0010
1000
0001
1000
0100
0010
0100
1000
0001
0010
0100
0010
0001
1000
0001
1000
,
0010
0100
0001
1000
0010
0100
0010
1000
0001
0100
0001
1000
0010
0100
0010
0100
,
0001
1000
0001
0010
0100
1000
0001
1000
0100
1000
0001
0010
0001
1000
0001
1000
,
0010
0100
0001
0100
0010
1000
0001
1000
0100
1000
0001
0100
0010
1000
0010
1000
,
0001
0010
0100
1000
0100
0010
0001
1000
0100
0010
0001
1000
0001
0100
0001
0100
,
0010
1000
0001
0010
0100
1000
0001
1000
0100
0010
0001
1000
0100
0010
0100
0010
,
0001
1000
0010
1000
0001
0100
0010
0100
0001
1000
0001
0100
0010
0100
0010
1000
,
0001
0010
0001
1000
0001
0010
0100
1000
0100
0010
0001
1000
0001
0010
0001
0010
,
0100
1000
0001
1000
0010
0100
0010
1000
0001
0100
0010
0100
0001
1000
0001
1000
,
0100
0010
0001
1000
0100
0010
0100
1000
0001
0010
0001
1000
0100
0010
0100
0010
,
0001
1000
0001
0100
0010
1000
0001
1000
0010
1000
0001
0100
0001
1000
0001
1000
,
0100
0010
0001
0010
0100
1000
0001
1000
0010
1000
0001
0010
0100
1000
0100
1000
,
0001
0100
0010
1000
0010
0100
0001
1000
0010
0100
0001
1000
0001
0010
0001
0010
,
0100
1000
0001
0100
0010
1000
0001
1000
0010
0100
0001
1000
0010
0100
0010
0100
,
0001
1000
0100
1000
0001
0010
0100
0010
0001
1000
0001
0010
0001
1000
0001
1000
,
0010
0100
0010
1000
0001
1000
0010
1000
0001
0010
0100
1000
0100
0010
0001
1000
,
0010
0100
0001
1000
0001
0100
0001
1000
0010
0100
0010
1000
0001
1000
0100
0010
,
0001
0100
0010
1000
0001
1000
0010
1000
0001
0010
0100
0010
0001
1000
0001
0100
,
0001
1000
0100
1000
0001
0010
0100
1000
0001
1000
0010
1000
0001
0100
0001
0010
,
0100
1000
0001
1000
0100
0010
0001
1000
0010
0100
0010
1000
0001
0010
0001
1000
,
0100
1000
0001
0100
0010
1000
0001
1000
0010
1000
0001
0010
0001
1000
0100
0010
,
0001
1000
0001
0100
0010
0100
0001
1000
0001
0010
0001
1000
0010
0100
0010
1000
,
0100
0010
0001
0010
0100
1000
0001
1000
0010
1000
0001
1000
0010
0100
0001
1000
,
0001
0100
0010
0100
0001
1000
0001
1000
0100
0010
0001
1000
0010
1000
0001
0100
,
0010
1000
0001
1000
0100
1000
0001
0010
0001
1000
0010
0100
0001
0100
0010
1000
,
0001
0010
0100
0010
0001
1000
0100
1000
0001
1000
0010
0100
0010
1000
0001
0100
,
0010
1000
0001
0010
0001
1000
0010
0100
0001
1000
0100
0010
0001
1000
0001
1000
,
0010
0100
0010
1000
0001
0010
0100
0010
0001
1000
0010
1000
0001
1000
0100
0010
,
0001
0100
0001
0100
0010
1000
0010
0100
0001
1000
0001
1000
0100
1000
0001
0010
,
0100
1000
0001
1000
0010
1000
0001
0100
0001
1000
0100
0010
0001
0010
0100
1000
,
0001
0100
0010
0100
0001
1000
0010
1000
0001
1000
0100
0010
0100
1000
0001
1000
,
0001
0100
0001
0100
0001
1000
0001
0010
0001
1000
0001
0100
0010
1000
0001
1000
,
0100
0010
0100
1000
0001
0100
0001
1000
0010
1000
0001
1000
0100
1000
0001
0010
,
0001
1000
0100
1000
0100
1000
0001
1000
0010
1000
0001
1000
0100
0010
0001
1000
,
0010
0100
0010
1000
0001
1000
0100
0010
0001
1000
0100
1000
0001
0100
0010
1000
,
0100
1000
0001
1000
0001
0100
0010
1000
0010
0100
0001
1000
0001
0100
0001
0010
,
0100
0010
0001
0100
0010
1000
0001
0100
0001
0010
0100
1000
0010
1000
0001
1000
,
0100
0010
0100
1000
0001
0100
0010
0100
0001
1000
0100
1000
0001
0100
0010
1000
,
0100
0010
0001
1000
0001
0100
0010
1000
0001
0100
0001
0010
0100
1000
0100
0010
,
0001
1000
0001
1000
0001
0100
0001
1000
0001
0100
0001
0010
0100
1000
0001
1000
,
0010
0100
0010
1000
0001
0010
0001
1000
0100
1000
0001
1000
0010
1000
0001
0100
,
0001
1000
0010
1000
0010
1000
0001
1000
0100
1000
0001
1000
0010
0100
0001
1000
,
0100
0010
0100
1000
0001
1000
0010
0100
0001
1000
0010
1000
0001
0010
0100
1000
,
0010
1000
0001
1000
0001
0010
0100
1000
0100
0010
0001
1000
0001
0010
0001
0100
,
0010
0100
0001
0010
0100
1000
0001
0010
0001
0100
0010
1000
0100
1000
0001
1000
,
0010
0100
0010
1000
0001
0010
0100
0010
0001
1000
0010
1000
0001
0010
0100
1000
,
0010
0100
0001
1000
0001
0010
0100
1000
0001
0010
0001
0100
0010
1000
0010
0100
,
0001
1000
0100
1000
0001
0100
0001
1000
0100
0010
0001
1000
0010
0100
0001
1000
,
0001
0010
0100
0010
0100
1000
0001
0100
0010
0100
0001
1000
0100
0010
0001
1000
,
0001
0100
0010
1000
0001
0010
0001
1000
0100
1000
0001
0100
0010
1000
0100
1000
,
0010
0100
0010
1000
0001
1000
0100
0010
0001
0100
0010
1000
0001
1000
0100
0010
,
0001
1000
0010
1000
0001
0100
0010
1000
0100
0010
0001
1000
0010
0100
0001
1000
,
0001
0010
0100
1000
0001
0100
0001
1000
0010
0100
0001
1000
0100
0010
0001
1000
,
0100
0010
0100
1000
0001
0100
0010
1000
0100
0010
0001
1000
0010
0100
0001
1000
,
0001
0100
0001
1000
0001
0010
0100
1000
0010
0100
0001
1000
0100
0010
0001
1000
,
0001
1000
0010
1000
0001
0010
0001
1000
0010
0100
0001
1000
0100
0010
0001
1000
,
0001
0100
0010
0100
0010
1000
0001
0010
0100
0010
0001
1000
0010
0100
0001
1000
,
0001
0010
0100
1000
0001
0100
0001
1000
0010
1000
0001
0010
0100
1000
0010
1000
,
0100
0010
0100
1000
0001
1000
0010
0100
0001
0010
0100
1000
0001
1000
0010
0100
,
0001
1000
0100
1000
0001
0010
0100
1000
0010
0100
0001
1000
0100
0010
0001
1000
,
0001
0010
0100
1000
0001
0010
0001
1000
0100
0010
0001
1000
0010
0100
0001
1000
,
0010
0100
0010
1000
0001
0010
0100
1000
0010
0100
0001
1000
0100
0010
0001
1000
,
0001
0010
0001
1000
0001
0100
0010
1000
0100
0010
0001
1000
0010
0100
0001
1000
,
0002
0000
0003
0000
;

//---------------dance-single - Zaia - 16(mid)----------------
#NOTES:
     dance-single:
     Zaia - 16(mid):
     Hard:
     16:
     1.000,1.000,0.058,0.058,1.000,3270.000,19.000,19.000,0.000,0.000:
0000
0000
0000
0000
,
0000
0000
0000
0000
,
1001
0001
0100
0001
1000
0100
1000
0001
,
0100
0010
1000
0001
0010
0100
1000
0010
,
1000
0001
1000
0100
0010
0001
1000
0010
,
1000
0001
0010
0001
1000
0001
0010
0001
,
1000
0001
0100
0010
0100
0001
1000
0100
,
1000
0001
0010
0001
1000
0010
0100
0001
,
0010
0100
1000
0010
1000
0001
0100
0010
,
1000
0001
0010
0100
0010
0001
0100
0010
,
1010
0000
1000
0000
0001
1000
0000
0001
0000
0010
0000
0100
0000
1000
0000
0001
,
0100
0000
0010
0000
1000
0000
0001
0100
0010
0000
1000
0000
0001
0010
0001
0010
,
0100
0000
1000
0000
0010
0100
0000
0001
0000
1000
0000
0100
0000
0010
0000
0001
,
1000
0000
0001
0000
0010
0000
0100
0000
1000
0000
0100
0000
1000
0001
1000
0001
,
0010
0000
0100
0000
1000
0001
0000
0100
0000
0001
0000
1000
0000
0100
0000
0010
,
0001
0000
1000
0000
0010
0000
0100
0001
1000
0000
0100
0000
0010
0001
0010
0001
,
1000
0000
0010
0000
0100
0000
0001
1000
0010
0000
0100
0000
0001
0000
1000
0100
,
0010
0011
1001
1010
,
0001
0100
0010
1000
0001
1000
0100
1000
0001
0100
0010
1000
0010
0100
0001
1000
,
0100
0010
0001
1000
0001
0010
0001
1000
0100
0010
0100
1000
0001
1000
0010
0100
,
0001
0010
0100
1000
0001
1000
0100
1000
0001
0100
0010
0100
0001
1000
0001
0010
,
0001
1000
0010
1000
0001
0100
0010
1000
0001
1000
0100
1000
0001
0010
0001
0100
,
0010
1000
0001
1000
0010
0100
0001
1000
0100
0010
0100
1000
0001
0100
0001
1000
,
0010
1000
0001
0010
0100
1000
0001
1000
0100
1000
0001
0100
0001
1000
0010
0100
,
0001
1000
0001
0010
0100
0010
0001
1000
0001
0100
0001
1000
0100
0010
0100
1000
,
0010
0100
0001
0100
0010
1000
0001
1000
0100
1000
0001
1000
0100
0010
0001
1000
,
0001
0010
0100
0010
0001
1000
0001
1000
0010
0100
0001
1000
0100
1000
0001
0010
,
0100
1000
0001
1000
0010
1000
0001
0100
0001
1000
0100
0010
0001
0010
0100
1000
,
0001
0100
0010
0100
0001
1000
0010
1000
0001
1000
0100
0010
0100
1000
0001
0010
,
0100
1000
0001
0100
0001
1000
0100
0010
0001
1000
0010
0100
0001
1000
0001
1000
,
0100
0010
0100
1000
0001
0100
0010
0100
0001
1000
0100
1000
0001
1000
0010
0100
,
0001
1000
0010
1000
0001
0100
0001
1000
0001
0010
0100
1000
0010
0100
0010
0100
,
0001
1000
0100
1000
0001
0100
0010
0100
0001
1000
0100
1000
0001
0100
0010
1000
,
0001
0100
0001
0100
0010
1000
0001
0010
0100
1000
0001
0100
0010
1000
0001
0010
,
0001
0010
0100
1000
0001
1000
0010
1000
0001
0010
0100
1000
0100
0010
0001
1000
,
0010
0100
0001
1000
0001
0100
0001
1000
0010
0100
0010
1000
0001
1000
0100
0010
,
0001
0100
0010
1000
0001
1000
0010
1000
0001
0010
0100
0010
0001
1000
0001
0100
,
0001
1000
0100
1000
0001
0010
0100
1000
0001
1000
0010
1000
0001
0100
0001
0010
,
0100
1000
0001
1000
0100
0010
0001
1000
0010
0100
0010
1000
0001
0010
0001
1000
,
0100
1000
0001
0100
0010
1000
0001
1000
0010
1000
0001
0010
0001
1000
0100
0010
,
0001
1000
0001
0100
0010
0100
0001
1000
0001
0010
0001
1000
0010
0100
0010
1000
,
0100
0010
0001
0010
0100
1000
0001
1000
0010
1000
0001
1000
0010
0100
0001
1000
,
0001
0100
0010
0100
0001
1000
0001
1000
0100
0010
0001
1000
0010
1000
0001
0100
,
0010
1000
0001
1000
0100
1000
0001
0010
0001
1000
0010
0100
0001
0100
0010
1000
,
0001
0010
0100
0010
0001
1000
0100
1000
0001
1000
0010
0100
0010
1000
0001
0100
,
0010
1000
0001
0010
0001
1000
0010
0100
0001
1000
0100
0010
0001
1000
0001
1000
,
0010
0100
0010
1000
0001
0010
0100
0010
0001
1000
0010
1000
0001
1000
0100
0010
,
0001
1000
0100
1000
0001
0010
0001
1000
0001
0100
0010
1000
0100
0010
0100
0010
,
0001
1000
0010
1000
0001
0010
0100
0010
0001
1000
0010
1000
0001
0010
0100
1000
,
0001
0010
0001
0010
0100
1000
0001
0100
0010
1000
0001
0010
0100
1000
0001
0100
,
0001
1000
0000
0001
0000
1000
0000
0100
,
0000
0010
0000
0100
0000
1000
0000
0001
,
0000
0100
0000
0010
0000
0100
0000
0001
,
0000
1000
0000
0010
0000
1000
0000
0001
,
0000
0010
0000
0001
0000
0100
0000
0010
,
0000
0100
0000
0001
0000
1000
0000
0001
,
0000
0010
0000
0100
0000
0010
0000
0001
,
0000
1000
0000
0010
0000
0100
0000
0001
,
1001
1000
0000
0010
0000
0100
0001
0010
,
0100
0000
0000
1000
0000
0000
0001
0000
0000
0100
0000
0000
0010
0000
0100
0000
,
0001
0000
0000
1000
0000
0000
0100
0000
0000
0010
0000
0000
0100
0000
1000
0000
,
0001
0000
0000
0100
0000
0000
0010
0000
0000
1000
0000
0000
0010
0000
0100
0000
,
0001
0000
0000
0010
0000
0000
0100
0000
0000
1000
0000
0000
0100
0000
0010
0000
,
0001
0000
0000
0100
0000
0000
0001
0000
0000
0000
0010
0000
0100
0000
1000
0000
,
0001
0000
0000
1000
0000
0000
0010
0000
0000
0000
0100
0000
0001
0000
1000
0000
,
0010
0000
0000
0100
0000
0000
0001
0000
0000
1000
0000
0000
0001
0000
0010
0000
,
0001
1000
0010
1000
0001
1000
0100
1000
0001
0100
0010
1000
0010
0100
0001
1000
,
0100
0010
0001
1000
0001
0010
0001
1000
0100
0010
0100
1000
0001
1000
0010
0100
,
0001
0010
0100
1000
0001
1000
0100
1000
0001
0100
0010
0100
0001
1000
0001
0010
,
0001
1000
0010
1000
0001
0100
0010
1000
0001
1000
0100
1000
0001
0010
0001
0100
,
0010
1000
0001
1000
0010
0100
0001
1000
0100
0010
0100
1000
0001
0100
0001
1000
,
0010
1000
0001
0010
0100
1000
0001
1000
0100
1000
0001
0100
0001
1000
0010
0100
,
0001
1000
0001
0010
0100
0010
0001
1000
0001
0100
0001
1000
0100
0010
0100
1000
,
0010
0100
0001
0100
0010
1000
0001
1000
0100
1000
0001
1000
0100
0010
0001
1000
,
0001
0010
0100
0010
0001
1000
0001
1000
0010
0100
0001
1000
0100
1000
0001
0010
,
0100
1000
0001
1000
0010
1000
0001
0100
0001
1000
0100
0010
0001
0010
0100
1000
,
0001
0100
0010
0100
0001
1000
0010
1000
0001
1000
0100
0010
0100
1000
0001
0010
,
0100
1000
0001
0100
0001
1000
0100
0010
0001
1000
0010
0100
0001
1000
0001
1000
,
0100
0010
0100
1000
0001
0100
0010
0100
0001
1000
0100
1000
0001
1000
0010
0100
,
0001
1000
0010
1000
0001
0100
0001
1000
0001
0010
0100
1000
0010
0100
0010
0100
,
0001
1000
0100
1000
0001
0100
0010
0100
0001
1000
0100
1000
0001
0100
0010
1000
,
0001
0100
0001
0100
0010
1000
0001
0010
0100
1000
0001
0100
0010
1000
0001
0010
,
0002
0000
0000
0023
0000
0000
0130
0000
,
1200
0000
0000
2300
0000
0000
3001
0000
,
0102
0000
0000
0000
,
2003
0000
0000
0000
0000
0000
3100
0010
,
0002
0000
0000
2003
0000
0000
3010
0000
,
0120
0000
0000
0230
0000
0000
0301
0000
,
0021
0000
0000
0000
,
0230
0000
0000
0000
0000
0000
1300
0001
,
0010
0000
0000
0000
0010
0000
0000
0000
0010
0000
0000
0001
0000
0000
1000
0000
,
0000
0000
0010
0000
1000
0000
0000
0000
0001
0000
0000
1000
0000
0000
0001
0000
,
0100
0000
0000
0000
0010
0000
0000
0000
0100
0000
0000
0010
0000
0000
0100
0000
,
0002
0000
0000
0000
0000
0000
1003
0100
,
0020
0000
0000
0230
0000
0000
1300
0000
,
2001
0000
0000
3002
0000
0000
0103
0000
,
0120
0000
0000
0000
,
0000
0000
0000
0000
,
1030
0001
0100
0001
1000
0010
0100
0001
,
1000
0100
1000
0001
0010
0100
1000
0001
,
1000
0010
0100
0001
1000
0010
0100
0010
,
1000
0100
0010
0100
1000
0001
0010
0001
,
1000
0010
0100
0001
1000
0100
0010
0001
,
1000
0010
1000
0001
0010
0001
1000
0001
,
0100
0010
0100
0001
1000
0100
0010
0001
,
1000
0001
1000
0010
0100
0001
1000
0010
,
0110
0100
0001
0010
0100
1000
0001
0010
,
0001
1000
0010
0100
0001
1000
0010
0100
,
0101
0001
0100
0010
0100
0001
1000
0100
,
1000
0001
0010
0001
1000
0001
0100
0010
,
1010
1000
0001
1000
0010
1000
0001
1000
,
1100
0100
0010
0001
0100
0010
0100
0001
,
0110
0000
1001
1001
,
0001
0000
0000
0000
0000
0000
0100
0000
0000
0000
0000
0000
0001
0000
0000
0000
0000
0000
0100
0000
0000
0000
0000
0000
0010
0000
0000
0100
0000
0000
0010
0000
0000
0100
0000
0000
0001
0000
1000
0000
0001
0000
1000
0000
0001
0000
1000
0000
,
0010
0000
0000
0000
,
0000
0000
0000
0000
,
1000
0010
1000
0010
1000
0001
1000
0100
1000
0001
1000
0010
0100
0001
1000
0001
,
0010
0100
0010
0001
1000
0010
1000
0001
0100
0001
1000
0001
0010
0001
1000
0100
,
1000
0001
0010
0001
0010
0001
1000
0001
0100
0001
1000
0001
0010
0100
1000
0001
,
0100
0010
0100
0001
1000
0001
0010
0100
1000
0001
0010
0001
1000
0010
0100
0001
,
0010
0001
1000
0001
1000
0010
0100
0001
0100
0010
1000
0001
1000
0010
1000
0100
,
0010
0100
1000
0010
0100
0001
1000
0010
1000
0100
0010
0001
0100
0001
1000
0001
,
0010
0100
0010
0001
1000
0010
0100
0010
1000
0001
0010
0001
1000
0010
0100
0001
,
0010
0100
1000
0001
1000
0010
0100
0001
1000
0010
1000
0100
0010
0001
0010
0100
,
1000
0001
1000
0001
1000
0010
1000
0001
1000
0010
1000
0100
0010
0001
1000
0001
,
0100
0010
0100
0001
1000
0100
1000
0001
0010
0001
1000
0001
0100
0001
1000
0010
,
1000
0001
0100
0001
0100
0001
1000
0001
0010
0001
1000
0001
0100
0010
1000
0001
,
0010
0100
0010
0001
1000
0001
0100
0010
1000
0001
0100
0001
1000
0100
0010
0001
,
0100
0001
1000
0001
1000
0100
0010
0001
0010
0100
1000
0001
1000
0100
1000
0010
,
0100
0010
1000
0100
0010
0001
1000
0100
1000
0010
0100
0001
0010
0001
1000
0001
,
0100
0010
0100
0001
1000
0100
0010
0100
1000
0001
0100
0001
1000
0100
0010
0001
,
0100
0010
1000
0001
1000
0100
0010
0001
1000
0100
1000
0010
0100
0001
0100
0010
,
1000
0000
0001
0000
1000
0000
0001
0000
0010
0100
1000
0001
1000
0010
0100
0001
,
1000
0000
0010
0000
0100
0001
0100
0010
1000
0001
0010
0100
1000
0001
1000
0010
,
0100
0000
0010
0000
0100
0000
0010
0000
1000
0001
0100
0001
1000
0100
0010
0001
,
1000
0000
0010
0000
1000
0001
1000
0001
0100
0010
0100
0001
1000
0001
0010
0100
,
1000
0000
0001
0000
1000
0000
0001
0000
0100
0010
1000
0001
1000
0010
1000
0001
,
0010
0000
0100
0000
1000
0001
1000
0010
0100
0001
1000
0001
1000
0100
0010
0001
,
1000
0000
0010
0000
1000
0000
0001
0000
0100
0001
1000
0100
0010
0100
1000
0001
,
0100
0000
0010
0000
0100
0001
1000
0100
0010
0100
1000
0001
1000
0010
0100
0001
,
1000
0000
0001
0000
1000
0000
0001
0000
0100
0010
1000
0001
1000
0100
0010
0001
,
1000
0000
0100
0000
0010
0001
0010
0100
1000
0001
0100
0010
1000
0001
1000
0100
,
0010
0000
0100
0000
0010
0000
0100
0000
1000
0001
0010
0001
1000
0010
0100
0001
,
1000
0000
0100
0000
1000
0001
1000
0001
0010
0100
0010
0001
1000
0001
0100
0010
,
1000
0000
0001
0000
1000
0000
0001
0000
0010
0100
1000
0001
1000
0100
1000
0001
,
0100
0000
0010
0000
1000
0001
1000
0100
0010
0001
1000
0001
1000
0010
0100
0001
,
1000
0000
0100
0000
1000
0000
0001
0000
0010
0001
1000
0010
0100
0010
1000
0001
,
0010
0000
0100
0000
0010
0001
1000
0010
0100
0010
1000
0001
1000
0100
0010
0001
,
1000
0000
0000
0000
,
0001
0100
0001
0000
1000
0100
1000
0000
0001
0000
0010
0000
0100
1000
0100
0000
,
1000
0001
1000
0000
0001
0100
0001
0000
1000
0000
0010
0000
0100
0001
0100
0000
,
0001
1000
0001
0000
1000
0010
1000
0000
0001
0000
0010
0000
0100
0010
0100
0000
,
1000
0100
1000
0000
0001
0100
0001
0000
1000
0000
0001
0000
0100
0010
0100
0000
,
0010
1000
0010
0000
0100
0001
0100
0000
0001
0000
1000
0000
0100
0010
0100
0000
,
1000
0001
1000
0000
0010
0100
0010
0000
1000
0000
0001
0000
1000
0100
1000
0000
,
0001
0100
0001
0000
1000
0010
1000
0000
0001
0000
1000
0000
0010
1000
0010
0000
,
1000
0001
1000
0000
0001
0010
0001
0000
0100
0000
0010
0000
1000
0001
1000
0000
,
0001
0100
0001
0000
1000
0100
1000
0000
0001
0000
0010
0000
0100
1000
0100
0000
,
1000
0001
1000
0000
0001
0100
0001
0000
1000
0000
0010
0000
0100
0001
0100
0000
,
0001
1000
0001
0000
1000
0010
1000
0000
0001
0000
0010
0000
0100
0010
0100
0000
,
1000
0100
1000
0000
0001
0100
0001
0000
1000
0000
0001
0000
0100
0010
0100
0000
,
0010
1000
0010
0000
0100
0001
0100
0000
0001
0000
1000
0000
0100
0010
0100
0000
,
1000
0001
1000
0000
0010
0100
0010
0000
1000
0000
0001
0000
1000
0100
1000
0000
,
0001
0100
0001
0000
1000
0010
1000
0000
0001
0000
1000
0000
0010
1000
0010
0000
,
1000
0001
1000
0001
0010
0001
1000
0001
1000
0010
1000
0001
0100
0010
1000
0001
,
0010
0000
0001
0000
1000
0000
0001
0000
0010
0100
1000
0001
1000
0010
0100
0001
,
1000
0000
0010
0000
0100
0001
0100
0010
1000
0001
0010
0100
1000
0001
1000
0010
,
0100
0000
0010
0000
0100
0000
0010
0000
1000
0001
0100
0001
1000
0100
0010
0001
,
1000
0000
0010
0000
1000
0001
1000
0001
0100
0010
0100
0001
1000
0001
0010
0100
,
1000
0000
0001
0000
1000
0000
0001
0000
0100
0010
1000
0001
1000
0010
1000
0001
,
0010
0000
0100
0000
1000
0001
1000
0010
0100
0001
1000
0001
1000
0100
0010
0001
,
1000
0000
0010
0000
1000
0000
0001
0000
0100
0001
1000
0100
0010
0100
1000
0001
,
0100
0000
0010
0000
0100
0001
1000
0100
0010
0100
1000
0001
1000
0010
0100
0001
,
1000
0000
0001
0000
1000
0000
0001
0000
0100
0010
1000
0001
1000
0100
0010
0001
,
1000
0000
0100
0000
0010
0001
0010
0100
1000
0001
0100
0010
1000
0001
1000
0100
,
0010
0000
0100
0000
0010
0000
0100
0000
1000
0001
0010
0001
1000
0010
0100
0001
,
1000
0000
0100
0000
1000
0001
1000
0001
0010
0100
0010
0001
1000
0001
0100
0010
,
1000
0000
0001
0000
1000
0000
0001
0000
0010
0100
1000
0001
1000
0100
1000
0001
,
0100
0000
0010
0000
1000
0001
1000
0100
0010
0001
1000
0001
1000
0010
0100
0001
,
1000
0000
0100
0000
1000
0000
0001
0000
0010
0001
1000
0010
0100
0010
1000
0001
,
0010
0000
0100
0000
1000
0000
0010
0100
0010
0000
1000
0001
1000
0001
1000
0001
,
1000
0010
0100
0001
1000
0001
0010
0001
1000
0010
0100
0001
0100
0010
1000
0001
,
0010
0100
1000
0001
1000
0100
1000
0001
0010
0100
0010
0001
1000
0001
0100
0010
,
1000
0100
0010
0001
1000
0001
0010
0001
1000
0010
0100
0010
1000
0001
1000
0100
,
1000
0001
0100
0001
1000
0010
0100
0001
1000
0001
0010
0001
1000
0100
1000
0010
,
0100
0001
1000
0001
0100
0010
1000
0001
0010
0100
0010
0001
1000
0010
1000
0001
,
0100
0001
1000
0100
0010
0001
1000
0001
0010
0001
1000
0010
1000
0001
0100
0010
,
1000
0001
1000
0100
0010
0100
1000
0001
1000
0010
1000
0001
0010
0100
0010
0001
,
0100
0010
1000
0010
0100
0001
1000
0001
0010
0001
1000
0001
0010
0100
1000
0001
,
1000
0100
0010
0100
1000
0001
1000
0001
0100
0010
1000
0001
0010
0001
1000
0100
,
0010
0001
1000
0001
0100
0001
1000
0010
1000
0001
0010
0100
1000
0100
0010
0001
,
1000
0010
0100
0010
1000
0001
0100
0001
1000
0001
0010
0100
0010
0001
1000
0100
,
0010
0001
1000
0010
1000
0001
0010
0100
1000
0001
0100
0010
1000
0001
1000
0001
,
0010
0100
0010
0001
1000
0010
0100
0010
1000
0001
0010
0001
1000
0001
0100
0010
,
1000
0001
0100
0001
1000
0010
1000
0001
1000
0100
0010
0001
0100
0010
0100
0010
,
1000
0001
0010
0001
1000
0010
0100
0010
1000
0001
0010
0001
1000
0010
0100
0001
,
1000
0010
1000
0010
0100
0001
1000
0100
0010
0001
1000
0010
0100
0010
1000
0001
,
1000
0010
1000
0001
1000
0010
0100
0001
0100
0010
1000
0001
1000
0010
1000
0010
,
0100
0001
1000
0001
0010
0100
0010
0001
1000
0100
0010
0100
1000
0001
1000
0001
,
0100
0010
1000
0001
0100
0010
0100
0001
1000
0010
1000
0001
0100
0010
0100
0010
,
1000
0001
1000
0100
0010
0001
1000
0001
0010
0001
1000
0100
1000
0001
1000
0001
,
0100
0010
1000
0010
0100
0001
1000
0001
0010
0001
1000
0010
0100
0001
0100
0001
,
1000
0100
0010
0001
0010
0100
1000
0001
0010
0100
1000
0001
1000
0010
1000
0010
,
0100
0001
1000
0100
0010
0001
1000
0001
0010
0100
1000
0001
0010
0100
0010
0100
,
1000
0001
0100
0001
1000
0010
0100
0010
1000
0001
1000
0010
0100
0010
0100
0001
,
1000
0100
1000
0001
1000
0100
0010
0001
0010
0100
1000
0001
1000
0100
1000
0100
,
0010
0001
1000
0001
0100
0010
0100
0001
1000
0010
0100
0010
1000
0001
1000
0001
,
0010
0100
1000
0001
0010
0100
0010
0001
1000
0100
1000
0001
0010
0100
0010
0100
,
1000
0001
1000
0010
0100
0001
1000
0001
0100
0001
1000
0010
1000
0001
1000
0001
,
0010
0100
1000
0100
0010
0001
1000
0001
0100
0001
1000
0100
0010
0001
0010
0001
,
1000
0010
0100
0001
0100
0010
1000
0001
0100
0010
1000
0001
1000
0100
1000
0100
,
0010
0001
1000
0010
0100
0001
1000
0001
0100
0010
1000
0001
0100
0010
0100
0010
,
1000
0001
0010
0001
1000
0100
0010
0100
1000
0001
1000
0100
1000
0001
1000
0001
,
0100
0010
0100
0001
1000
0001
0100
0001
1000
0100
0010
0001
0010
0100
1000
0001
,
0100
0010
1000
0001
1000
0010
1000
0001
0100
0010
0100
0001
1000
0001
0010
0100
,
1000
0010
0100
0001
1000
0001
0100
0001
1000
0100
0010
0100
1000
0001
1000
0010
,
1000
0001
0010
0001
1000
0100
0010
0001
1000
0001
0100
0001
1000
0010
1000
0100
,
0010
0001
1000
0001
0010
0100
1000
0001
0100
0010
0100
0001
1000
0100
1000
0001
,
0010
0001
1000
0010
0100
0001
1000
0001
0100
0001
1000
0100
1000
0001
0010
0100
,
1000
0001
1000
0010
0100
0010
1000
0001
1000
0100
1000
0001
0100
0010
0100
0001
,
0010
0100
1000
0100
0010
0001
1000
0001
0100
0001
1000
0001
0100
0010
1000
0001
,
1000
0010
0100
0010
1000
0001
1000
0001
0010
0100
1000
0001
0100
0001
1000
0010
,
0100
0001
1000
0001
0010
0001
1000
0100
1000
0001
0100
0010
1000
0010
0100
0001
,
1000
0100
0010
0100
1000
0001
0010
0001
1000
0001
0100
0010
0100
0001
1000
0010
,
0100
0001
1000
0100
1000
0001
0100
0010
1000
0001
0010
0100
1000
0001
1000
0001
,
0100
0010
0100
0001
1000
0100
0010
0100
1000
0001
0100
0001
1000
0001
0010
0100
,
1000
0010
1000
0010
0100
0001
0100
0010
1000
0001
1000
0001
0010
0001
1000
0100
,
0010
0001
1000
0001
0100
0001
1000
0010
1000
0001
0010
0100
1000
0100
0010
0001
,
1000
0010
0100
0010
1000
0001
0100
0001
1000
0001
0010
0100
0010
0001
1000
0001
,
1000
0010
1000
0010
1000
0001
1000
0100
1000
0001
1000
0010
0100
0001
1000
0001
,
0010
0100
0010
0001
1000
0010
1000
0001
0100
0001
1000
0001
0010
0001
1000
0100
,
1000
0001
0010
0001
0010
0001
1000
0001
0100
0001
1000
0001
0010
0100
1000
0001
,
0100
0010
0100
0001
1000
0001
0010
0100
1000
0001
0010
0001
1000
0010
0100
0001
,
0010
0001
1000
0001
1000
0010
0100
0001
0100
0010
1000
0001
1000
0010
1000
0100
,
0010
0100
1000
0010
0100
0001
1000
0010
1000
0100
0010
0001
0100
0001
1000
0001
,
0010
0100
0010
0001
1000
0010
0100
0010
1000
0001
0010
0001
1000
0010
0100
0001
,
0010
0100
1000
0001
1000
0010
0100
0001
1000
0010
1000
0100
0010
0001
0010
0100
,
1000
0001
1000
0001
1000
0010
1000
0001
1000
0010
1000
0100
0010
0001
1000
0001
,
0100
0010
0100
0001
1000
0100
1000
0001
0010
0001
1000
0001
0100
0001
1000
0010
,
1000
0001
0100
0001
0100
0001
1000
0001
0010
0001
1000
0001
0100
0010
1000
0001
,
0010
0100
0010
0001
1000
0001
0100
0010
1000
0001
0100
0001
1000
0100
0010
0001
,
0100
0001
1000
0001
1000
0100
0010
0001
0010
0100
1000
0001
1000
0100
1000
0010
,
0100
0010
1000
0100
0010
0001
1000
0100
1000
0010
0100
0001
0010
0001
1000
0001
,
0100
0010
0100
0001
1000
0100
0010
0100
1000
0001
0100
0001
1000
0100
0010
0001
,
0100
0010
1000
0001
1000
0100
0010
0001
1000
0100
1000
0010
0100
0001
0100
0010
,
1000
0000
0001
0000
1000
0000
0001
0000
0010
0100
1000
0001
1000
0010
0100
0001
,
1000
0000
0010
0000
0100
0001
0100
0010
1000
0001
0010
0100
1000
0001
1000
0010
,
0100
0000
0010
0000
0100
0000
0010
0000
1000
0001
0100
0001
1000
0100
0010
0001
,
1000
0000
0010
0000
1000
0001
1000
0001
0100
0010
0100
0001
1000
0001
0010
0100
,
1000
0000
0001
0000
1000
0000
0001
0000
0100
0010
1000
0001
1000
0010
1000
0001
,
0010
0000
0100
0000
1000
0001
1000
0010
0100
0001
1000
0001
1000
0100
0010
0001
,
1000
0000
0010
0000
1000
0000
0001
0000
0100
0001
1000
0100
0010
0100
1000
0001
,
0100
0000
0010
0000
0100
0001
1000
0100
0010
0100
1000
0001
1000
0010
0100
0001
,
1000
0001
0100
0001
1000
0100
1000
0001
0100
0010
1000
0001
0010
0100
1000
0001
,
1000
0010
0100
0010
0100
0001
1000
0100
0010
0100
1000
0001
0100
0010
1000
0001
,
1000
0100
0010
0001
1000
0010
1000
0001
0100
0001
1000
0100
0010
0001
0100
0001
,
0010
0100
0010
0001
1000
0001
0100
0010
1000
0100
0010
0001
1000
0001
0100
0010
,
1000
0001
0010
0001
1000
0100
0010
0001
0100
0010
1000
0001
0010
0100
1000
0001
,
1000
0100
0010
0001
1000
0100
1000
0001
0010
0100
1000
0001
0100
0010
1000
0001
,
0100
0010
0100
0001
1000
0100
0010
0001
0100
0010
1000
0001
0010
0100
1000
0001
,
1000
0100
1000
0001
1000
0010
0100
0001
0010
0100
1000
0001
0100
0010
1000
0001
,
2000
0000
3000
0000
;
