#TITLE:Strong and Strike;
#SUBTITLE:Ninja Battle;
#ARTIST:Naruto;
#TITLETRANSLIT:;
#SUBTITLETRANSLIT:;
#ARTISTTRANSLIT:;
#CREDIT:Jekefka;
#BANNER:;
#BACKGROUND:Naruto Background 2.jpg;
#LYRICSPATH:;
#CDTITLE:;
#MUSIC:Strong and Strike.mp3;
#OFFSET:-6.000;
#SAMPLESTART:100.000;
#SAMPLELENGTH:12.000;
#SELECTABLE:YES;
#BPMS:0.000=87.850,22.000=99.500,24.000=88.050,104.250=86.050,120.000=88.750,128.000=88.700,134.000=100.000,136.000=88.040;
#STOPS:;
#BGCHANGES:;
// cache tags:
#FIRSTBEAT:0.000;
#LASTBEAT:173.625;
#SONGFILENAME:Songs/toune 1 (2010)/Strong and Strike/Strong and Strike.sm;
#HASMUSIC:1;
#HASBANNER:0;
#MUSICLENGTH:127.559;
// end cache tags

//---------------dance-single - ----------------
#NOTES:
     dance-single:
     :
     Challenge:
     1:
     0.766,0.783,1.000,0.753,0.811,428.000,160.000,96.000,4.000,3.000:
1001
0000
0010
0001
0000
0010
0001
0000
0010
0001
0000
0010
1001
0000
0100
0000
,
1001
0000
0100
1000
0000
0100
1000
0000
0100
1000
0000
0100
1001
0000
0020
0000
,
1031
0100
1000
0010
0001
0100
1000
0010
0001
0100
1000
0010
1001
0010
1000
0100
,
1001
0100
1000
0010
0001
0100
1000
0010
0001
0010
1000
0100
1001
0100
1000
0010
,
1001
0010
0100
1001
0100
0010
1001
0010
0100
1001
0100
0010
1001
0000
0110
0000
,
1001
0000
0000
0000
0100
0000
0000
0000
0010
0000
0000
0000
1001
0000
0000
0000
0010
0000
0000
0000
0100
0000
0000
0000
1001
0000
0000
0000
0000
0000
0000
0000
0000
0000
0000
0000
0000
0001
0000
0000
0000
0010
0000
0000
0000
0001
0000
0000
0000
0100
0000
0000
0000
0000
1000
0000
0000
0000
0100
0000
0000
0000
0000
0000
,
2002
3003
0010
0100
1000
0100
0010
0100
2002
3003
0100
0010
0001
0010
0100
0010
,
2002
0000
0000
0000
0000
0000
0000
0000
0000
0000
0000
0000
0000
0000
0000
0000
0000
0000
0000
0000
0000
0000
0000
0000
3003
0000
0000
0000
0000
0000
0000
0220
0000
0000
0000
0000
0000
0000
0000
0000
0330
0000
0000
0000
0000
0000
0000
2002
0000
0000
0000
0000
0000
0000
0000
0000
3003
0000
0000
0000
0000
0000
0000
2020
,
0000
3030
0001
0010
0100
1000
0100
0010
0202
0303
1000
0100
0010
0001
0010
0100
,
2002
0000
0000
0000
0000
0000
0000
0000
3003
0000
0000
0000
0000
0000
0000
2200
0000
0000
0000
0000
0000
0000
0000
0000
3300
0000
0000
0000
0000
0000
0000
0022
0000
0000
0000
0000
0000
0000
0000
0000
0000
0000
0000
0000
0000
0000
0000
0000
0033
0000
0000
0000
0000
0000
0000
0000
0110
0000
0000
0000
0000
0000
0000
0000
,
1001
0000
1010
0101
0000
0011
1100
0000
1100
0110
0000
0011
0000
1100
0000
0110
,
2002
0000
0000
0000
0000
0000
0000
0000
0000
0000
0000
0000
0000
0000
0000
0000
0000
0000
0000
0000
0000
0000
0000
0000
3003
0000
0000
0000
0000
0000
0000
0022
0000
0000
0000
0000
0000
0000
0000
0000
0033
0000
0000
0000
0000
0000
0000
2200
0000
0000
0000
0000
0000
0000
0000
0000
3300
0000
0000
0000
0000
0000
0000
0000
,
2002
3003
0010
0100
1000
0010
0001
0100
2002
3003
0100
0010
0001
0100
1000
0010
,
2002
0000
0000
0000
0000
0000
0000
0000
3003
0000
0000
0000
0000
0000
0000
2200
0000
0000
0000
0000
0000
0000
0000
0000
3300
0000
0000
0000
0000
0000
0000
0022
0000
0000
0000
0000
0000
0000
0000
0000
0000
0000
0000
0000
0000
0000
0000
0000
0033
0000
0000
0000
0000
0000
0000
0000
1001
0000
0000
0000
0000
0000
0000
0000
,
1001
0000
0010
0100
1000
0010
0100
1000
0010
0100
1000
0001
0100
1000
0010
1000
,
0022
0033
1010
1010
2200
3300
0101
0101
0022
0033
1001
1001
0110
0000
0110
0000
,
1001
0000
0100
0010
0001
0100
0010
0001
0100
0010
0001
1000
0010
0001
0100
0001
,
2200
3300
0101
0101
0022
0033
1010
1010
2200
3300
1100
2200
3300
0001
0010
0100
,
1000
0101
0000
0010
1010
0000
0100
0101
0000
0010
1010
0000
0010
1001
0000
1001
,
0010
1001
0000
0100
1100
0000
0010
0011
0000
0100
1100
0000
0010
1001
0100
1001
,
0010
1001
0000
0100
0110
0000
0010
1001
0000
0100
0110
0000
0010
1001
0000
1001
,
0000
0000
0000
2000
0000
0000
0000
0000
0000
0000
0000
0000
0000
0000
0000
0200
0000
0000
0000
0000
0000
0000
0000
0000
0000
0000
0000
0002
0000
0000
0000
0000
3303
0000
0000
0000
0000
0000
0000
0000
1001
0000
0000
0000
0000
0000
0000
0000
0000
0000
0000
0000
1001
0000
0000
0000
0010
0000
0000
0000
1001
0000
0000
0000
,
0100
1001
0000
0010
1010
0000
0100
0101
0000
0010
1010
0000
0010
1001
0000
1001
,
0100
1001
0000
0100
1100
0000
0010
0011
0000
0100
1100
0000
0010
1001
0100
1001
,
0010
1001
0000
0100
0110
0000
0010
1001
0000
0100
0110
0000
0010
1001
0000
1001
,
0000
1000
0100
0001
2000
0000
0000
0010
0000
0000
0100
0000
0000
0001
0000
3001
,
0000
1001
0000
0000
0000
0000
0000
0000
0000
0000
0000
0000
0000
0000
0000
0000
,
2001
000M
0001
3001
0000
0000
0000
0000
0000
0000
0000
0000
0000
0000
0000
0000
,
1002
0000
M000
0000
0000
0000
0000
1003
0000
0000
0000
0000
0000
0000
0000
0000
0000
0000
0000
0000
0000
0000
0000
0000
0000
0000
0000
0000
0000
0000
1001
0000
,
M00M
1001
1001
0000
0000
0000
0000
0000
0000
0000
0000
0000
0000
0000
0020
0000
,
1031
0100
1000
0010
0001
0100
1000
0010
0001
0100
1000
0010
1001
0010
1000
0100
,
1001
0100
1000
0010
0001
0100
1000
0010
0001
0010
1000
0100
1001
0100
1000
0010
,
1001
0010
0100
1001
0100
0010
1001
0010
0100
1001
0100
0010
1001
0000
0110
0000
,
1001
0000
0000
0000
0100
0000
0000
0000
0010
0000
0000
0000
1001
0000
0000
0000
0010
0000
0000
0000
0100
0000
0000
0000
1001
0000
0000
0000
0000
0000
0000
0000
0000
0000
0000
0000
0001
0000
0000
0000
0000
0010
0000
0000
0000
0000
0001
0000
0000
0000
1000
0000
0000
0000
0100
0000
0000
0000
0000
1000
0000
0000
0000
0000
,
2002
3003
0010
0100
1000
0100
0010
0100
2002
3003
0100
0010
0001
0010
0100
0010
,
2002
0000
0000
3003
0220
0330
2002
3003
,
2020
3030
0001
0010
0100
1000
0100
0010
0202
0303
1000
0100
0010
0001
0010
0100
,
2002
3003
2200
3300
0022
0000
0033
0110
,
1001
0000
0000
0000
0000
0000
1010
0000
0000
0100
0000
0000
1000
0000
0000
1010
0000
0000
0000
0000
0000
0011
0000
0000
1100
0000
0000
0000
0000
0000
1100
0000
0000
0000
0000
0000
0110
0000
0000
1100
0000
0000
0000
0101
0000
0000
0000
0000
,
2002
0000
0000
3003
0022
0033
2200
3300
,
2002
3003
0010
0100
1000
0010
0001
0100
2002
3003
0100
0010
0001
0100
1000
0010
,
2002
3003
2200
3300
0002
0000
0000
2000
,
3003
1001
0000
0000
0110
0000
0000
1001
0000
0000
1001
0010
0100
1001
0100
0010
,
0100
0000
2002
0000
0000
0000
0000
0000
0000
0000
0000
0000
0000
3003
0000
0000
0000
0000
0000
0000
0000
0000
0000
0000
0000
0000
0000
0000
0000
0000
0000
0000
;
