#TITLE:Enjoy your life;
#SUBTITLE:;
#ARTIST:Mr. T plus H;
#TITLETRANSLIT:;
#SUBTITLETRANSLIT:;
#ARTISTTRANSLIT:;
#CREDIT:;
#BANNER:EnjoyYourLife-BNR.PNG;
#BACKGROUND:EnjoyYourLife-BG.PNG;
#LYRICSPATH:;
#CDTITLE:pannpann.png;
#MUSIC:Enjoy your life.mp3;
#OFFSET:0.160;
#SAMPLESTART:37.480;
#SAMPLELENGTH:12.000;
#SELECTABLE:YES;
#BPMS:0.000=160.000;
#STOPS:;
#BGCHANGES:;
// cache tags:
#FIRSTBEAT:2.500;
#LASTBEAT:292.000;
#SONGFILENAME:Songs/Bemani.se Megapack/(forehead) Enjoy Your Life/Enjoyyourlife.sm;
#HASMUSIC:1;
#HASBANNER:1;
#MUSICLENGTH:110.320;
// end cache tags

//---------------dance-single - HEAVY----------------
#NOTES:
     dance-single:
     HEAVY:
     Challenge:
     11:
     1.000,1.000,1.000,1.000,0.938,697.000,126.000,139.000,0.000,17.000:











0000
0000
0000
0000
0000
0002
0023
0230
,
1301
0000
0100
0000
0001
0000
0000
0010
,
0101
0000
0000
0000
0000
0000
0002
0020
0003
0030
0000
0000
0200
0000
0000
0300
2000
0000
0000
0000
3000
0000
0000
0000
0000
0000
0000
0000
0000
0000
0000
0000
,
0011
0000
0100
0000
0010
0000
0000
1000
,
0110
0000
0000
0000
0000
0000
0010
2020
0000
3030
0000
0000
0020
0000
0000
0000
1030
0000
0000
0000
0002
0000
0000
0000
0023
0000
0000
0000
0230
0000
0000
0000
,
1301
0000
0110
0000
0101
0000
0000
0100
,
1010
0000
0000
0000
0000
0000
0020
0200
0000
0030
0300
0000
0200
0000
0300
0000
0020
0000
0000
0000
0030
0000
0000
0000
0000
0000
0000
0000
0000
0000
0000
0000
,
0101
0000
0110
0000
0101
0000
0000
0001
,
1000
0000
0000
0000
0001
0000
0000
0000
0001
0000
0000
0000
0010
0000
0001
0000
0010
0100
0010
0100
1000
0100
1000
0100
1000
0100
1000
0100
1000
0000
0000
0000
,
1000
0000
0010
0101
0000
1000
1100
0000
,
0001
1010
0100
0110
1010
1000
1001
0100
,
0011
0000
0110
0110
0000
1010
1100
0000
,
1100
0000
0000
0000
0010
0000
0000
0000
0110
0000
0000
0000
1010
0000
0000
0000
1010
0000
0000
0000
1010
0000
0000
0000
0001
0010
0001
0010
0001
0010
0100
1000
,
0100
0000
1000
0101
0000
0010
1010
0100
,
0011
0000
0000
0000
0000
0000
0000
0000
0000
0000
0000
0000
0000
0000
0000
0000
0000
0000
0000
0000
0000
0000
0000
0000
1100
0000
0000
0000
0000
0000
0000
0000
0000
0000
0000
0000
0000
0000
0000
0000
0000
0000
0000
0000
0000
0000
0000
0000
0010
0000
0000
0000
0000
0000
0100
0000
0000
0000
0000
0000
0010
0000
0000
0000
0000
0000
0100
0000
0000
0000
0000
0000
0001
0000
0000
0000
0000
0000
0000
0000
0000
0000
0000
0000
0000
0000
0000
0000
0000
0000
0000
0000
0000
0000
0000
0000
1100
0000
0000
0000
0000
0000
0000
0000
0000
0000
0000
0000
0000
0000
0000
0000
0000
0000
0000
0000
0000
0000
0000
0000
0010
0000
0000
0000
0000
0000
0000
0000
0000
0000
0000
0000
0000
0000
0000
0000
0000
0000
0000
0000
0000
0000
0000
0000
1000
0000
0000
0000
0000
0000
0000
0000
0100
0000
0000
0000
0000
0000
0000
0000
0000
0000
0000
0000
0000
0000
0000
0000
1000
0000
0000
0000
0000
0000
0000
0000
0100
0000
0000
0000
0000
0000
0000
0000
1000
0000
0000
0000
0000
0000
0000
0000
,
1001
0000
0000
0000
0110
0000
0011
0000
0000
0000
0110
0000
1100
0100
1000
0100
,
0010
0000
0000
0000
0001
0010
0100
1000
0100
0000
0000
0000
0110
0000
0000
0000
1000
0100
0010
0001
0010
0000
0000
0000
0101
0000
0000
0000
0000
0000
0000
0000
,
2100
0000
0000
3002
0000
0000
0023
0000
0000
0230
0000
0300
2100
0000
0000
3200
0000
0000
0302
0000
0000
0203
0000
0000
,
0321
0000
0000
0032
0000
0000
2003
0000
0000
3020
0000
0000
0231
0000
0000
0302
0000
0000
2003
0000
0000
3200
0000
0300
,
0120
0032
0203
2300
3210
0320
2030
3002
,
1203
0320
0231
0320
2031
3200
0321
0230
,
2300
3020
0230
0320
0032
0023
2030
3020
,
0032
0023
0230
0302
0023
0230
0320
2030
,
3020
0032
0023
2030
3020
0032
0203
2300
,
3200
0302
0023
0032
0203
0320
0032
0023
,
1030
0000
1010
0000
0101
0000
0000
0011
,
0110
1001
1010
0000
,
1100
0000
0011
0000
0110
0000
0000
0101
,
0110
1100
0101
0000
,
1100
0000
1010
0000
0011
0000
0000
0101
,
0110
0000
1100
0000
0110
0000
0011
0001
,
1000
0000
0000
0000
0011
0000
0100
0000
1000
0100
0010
0100
1000
0100
0010
0100
,
1000
0000
0110
0000
1100
0000
0110
0000
0101
0001
0010
0001
0010
0001
0010
0100
,
1000
0000
0000
0000
0000
0000
0100
1000
0010
0000
0000
0001
0000
0000
0010
0000
,
1100
0000
0000
0000
0000
0000
0100
0010
0100
0000
0100
0000
0001
0000
0100
0000
,
1100
0000
0000
0000
0000
0000
0001
0010
0001
0000
0000
0100
0000
0000
1100
0000
,
1010
1001
0101
0011
,
1000
0000
0001
0010
0100
1000
0100
0010
0002
0000
0023
0000
0032
0000
2003
0000
,
3020
0000
0030
0200
0000
0300
0002
0000
1003
0100
0010
0100
1000
0010
0100
0001
,
0020
0000
0031
0010
0100
0010
0001
0100
0020
0030
0020
0200
0032
0300
0013
0000
,
0200
0000
0300
2000
0000
3000
1000
0000
0010
0100
0001
0010
0100
1000
0010
0100
,
0010
0000
1000
0001
0001
0000
0010
0100
0100
0000
0100
1000
1000
0000
0010
0000
,
1000
0000
0000
0001
0000
0000
0100
0000
0010
0000
0000
0000
0100
0000
0000
0000
,
1001
0000
0100
1000
0010
0100
0010
1000
0100
0010
0001
0010
0100
0010
0001
0010
,
0001
0010
0100
1000
0010
0100
0001
0010
0100
1000
0100
1000
0001
0100
0010
1000
,
0100
0000
1000
0010
0010
0000
0100
0001
0001
0000
0010
0001
0001
0000
1000
0010
,
0100
0001
1000
0010
0100
0001
0010
0100
0010
0100
1000
0100
0010
0001
0100
0010
,
1000
0100
1000
0100
1000
0001
1000
0100
1000
0001
0010
0001
0100
0001
1000
0001
,
1000
0100
0010
0001
0010
0001
0010
0001
0010
0100
1000
0100
0010
0001
0010
0100
0110
0000
0000
0000
1100
0000
0000
0000
1100
0000
0000
0000
0000
0000
0000
0000
,
0102
0000
0000
0203
0000
0000
0320
0000
0000
2030
0000
3000
1200
0000
0000
0302
0000
0000
0203
0000
0000
0320
0000
0000
,
0132
0000
0000
0203
0000
0000
0302
0000
0000
0023
0000
0030
0210
0000
0000
0320
0000
0000
2030
0000
0000
3020
0000
0000
,
1032
2003
3020
0230
0312
0023
0230
2300
,
3120
0000
0000
0230
0000
0000
1320
0000
0000
2030
0000
0000
3210
0000
0000
0320
0000
0030
0012
0000
0000
0000
0000
0000
,
0113
0001
0001
0010
0101
0100
0010
0110
,
0011
0100
1010
0100
0101
0010
0001
1000
,
1100
0000
0010
0000
1001
0000
0100
0000
0001
0000
0001
0010
0100
0010
0100
1000
,
0010
0100
0001
0010
0100
1000
0100
0010
0100
1000
0100
0010
0001
0100
0010
1000
,
2100
0000
0010
0000
3100
1000
0010
0000
1020
0000
0100
0030
0001
1000
0100
0000
,
2010
0000
0001
0000
3001
0100
0010
0000
1002
0000
0100
0003
0001
1000
0100
0000
,
1020
0000
1000
0030
0010
0100
0001
0000
0021
0000
0001
0030
1000
0001
1000
0000
,
2000
0010
0010
0000
3200
0010
0010
0000
0320
1000
1000
0000
0032
0100
0100
0000
,
1003
0100
0010
0001
0010
0100
1000
1100
0010
1000
0010
0100
0001
0010
0100
1000
,
0010
0100
0010
1000
0100
0010
0001
1000
1001
0010
0100
1000
0010
0100
0010
1000
,
0010
0100
0001
1000
0010
0100
0001
1000
1001
0001
0010
0100
0010
0001
0010
0100
,
1000
0001
0010
0100
1000
0010
1000
0001
1001
1000
0100
0010
0001
0010
0100
1000
,
0100
0000
0100
0000
1000
0010
0101
0000
0010
1000
0100
1000
0010
0000
0010
1000
,
0100
0000
0110
0000
0001
0100
1010
0000
0010
0100
0001
0010
0001
0000
0100
0001
,
0010
0000
0011
0000
1000
0001
1001
0000
1000
0010
0100
0010
1000
0000
0100
1000
,
0001
0000
0110
0000
0011
0100
1000
0000
0100
1000
0010
0100
0001
0000
0010
0100
,
1000
0000
0101
0000
0010
0100
0101
0000
0001
1000
0010
1000
0100
0000
1000
0001
,
0010
0000
0011
0000
0010
0100
0010
0000
0001
0100
0010
1000
0100
0000
1000
0010
,
1010
1000
0100
0010
0100
1000
0010
0100
0001
0010
0100
1000
0001
1000
0100
0010
,
0001
1000
0001
0010
0100
1000
0010
0100
0010
1000
0020
0000
0200
0030
2000
0000
,
3300
0000
0000
0000
;

//---------------dance-single - Blank----------------
#NOTES:
     dance-single:
     Blank:
     Hard:
     10:
     1.000,1.000,0.780,1.000,0.730,634.000,86.000,151.000,0.000,3.000:

0000
0000
0000
0000
0000
0002
0023
0230
,
1301
0000
0100
0000
0001
0000
0000
0010
,
0101
0000
0000
0000
0000
0000
0002
0020
0003
0030
0000
0000
0200
0000
0000
0300
2000
0000
0000
0000
3000
0000
0000
0000
0000
0000
0000
0000
0000
0000
0000
0000
,
0011
0000
0100
0000
0010
0000
0000
1000
,
0110
0000
1001
0000
0000
0002
0023
0230
,
1301
0000
0110
0000
0101
0000
0000
0100
,
1010
0000
0000
0000
0000
0000
0020
0200
0000
0030
0300
0000
0200
0000
0300
0000
0020
0000
0000
0000
0030
0000
0000
0000
0000
0000
0000
0000
0000
0000
0000
0000
,
0101
0000
0110
0000
0101
0000
0000
0001
,
1000
0000
0001
0000
0001
0000
0010
0001
0110
0000
1100
0000
0101
0000
1010
0000
,
1000
0000
0010
0101
0000
1000
1100
0000
,
0001
0110
1000
0110
1010
1000
1001
0100
,
0011
0000
0110
0110
0000
1010
1100
0000
,
1100
0000
0010
0000
0110
0000
1010
0000
1010
0000
1010
0000
0002
0203
0302
0103
,
0001
0000
1000
0101
0000
0010
1010
0100
,
0011
0000
0000
0000
0000
0000
1100
0000
0000
0000
0000
0000
0002
0000
0000
0013
0000
0000
0002
0000
0000
0013
0000
0000
0100
0000
0000
0000
0000
0000
1000
0000
0000
0000
0000
0000
1000
0000
0100
0000
0000
0000
1000
0000
0100
0000
1000
0000
,
0001
0000
0000
0000
0110
0000
0011
0000
0000
0000
0110
0000
1000
0100
1000
0100
,
0010
0000
0000
0000
0001
0010
0001
0000
0010
0000
0000
0000
0110
0000
0000
0000
0010
1000
0010
0000
1000
0000
0000
0000
1010
0000
0000
0000
0000
0000
0000
0000
,
2100
3020
0230
0302
2003
3200
0302
0203
,
0320
0000
0000
0032
0000
0000
2003
0000
0000
3020
0000
0000
0230
0000
0000
0302
0000
0000
2003
0000
0000
3200
0000
0300
,
0020
0032
0203
2300
3200
0320
2030
3002
,
0203
0320
0230
0320
2030
3200
0320
0230
,
2300
3020
0230
0320
0032
0023
2030
3020
,
0032
0023
0230
0302
0023
0230
0320
2030
,
3020
0032
0023
2030
3020
0032
0203
2300
,
3200
0302
0023
0032
0203
0320
0032
0023
,
2030
0000
0000
0000
0000
0000
0000
3000
0201
0000
0000
0000
0000
0000
0000
0300
,
0120
0000
0000
0000
0000
0000
0000
0030
1200
0000
0000
0000
0000
0000
0000
0300
,
1020
0000
0000
0000
0000
0000
0000
0030
0012
0000
0000
0000
0000
0000
0000
0003
,
0220
0000
0000
0330
0202
0000
0000
0303
2020
0000
0000
3030
0220
0000
0000
0330
,
1010
0000
1010
0100
0101
0000
0000
0101
,
1010
0000
0100
0010
0101
0000
0001
0001
,
1000
0000
1000
0100
0010
0000
0100
0010
,
0001
0000
0110
0000
1100
0000
0011
0000
0100
1000
0100
1000
0001
0010
0100
1000
,
0100
0000
0000
0000
0000
0000
0010
1000
0100
0000
0000
0010
0000
0000
0100
0000
,
0011
0000
0000
0000
0000
0000
0001
0010
0100
0000
1000
0000
0010
0000
0100
0000
,
0101
0000
0000
0000
0000
0000
0001
0010
0001
0000
0000
0100
0000
0000
1010
0000
,
0110
1001
0011
1100
,
1000
0000
0001
0010
0100
1000
0100
0010
0002
0000
0023
0000
0032
0000
2003
0000
,
3020
0000
0030
0200
0000
0300
0002
0000
1003
0100
0010
0100
1000
0010
0100
0001
,
0020
0000
0031
0010
0100
0010
0001
0100
0020
0030
0020
0200
0032
0300
0013
0000
,
0200
0000
0300
2000
0000
3000
1000
0000
0010
0100
0001
0010
0100
1000
0010
0100
,
0010
0000
1000
0100
1000
0000
0010
0100
0010
0000
0001
0100
0001
0000
0010
0000
,
0100
0000
0000
1000
0000
0000
0010
0000
0100
0000
0000
0000
0001
0000
0000
0000
,
1001
0000
0100
1000
0010
0100
0010
1000
0100
0010
0001
0010
0100
0010
0001
0010
,
0001
0010
0100
1000
0010
0100
0001
0010
0100
1000
0100
1000
0001
0100
0010
1000
,
0100
0000
0010
1000
0010
0000
0100
0001
0100
0000
0001
0010
0001
0000
1000
0010
,
0100
0001
1000
0010
0100
0001
0010
0100
0010
0100
1000
0100
0010
0001
0100
0010
,
1000
0100
1000
0100
1000
0001
1000
0100
1000
0001
0010
0001
0100
0001
1000
0000
,
1001
2002
0000
0000
0000
0000
0000
3003
0110
0000
0000
0000
0000
0000
0000
0000
,
0002
0000
0000
0023
0000
0000
0230
0000
0000
2300
0000
3000
0200
0000
0000
0302
0000
0000
0203
0000
0000
0320
0000
0000
,
0032
0000
0000
0203
0000
0000
0302
0000
0000
0023
0000
0030
0200
0000
0000
0320
0000
0000
0032
0000
0000
0023
0000
0000
,
0032
2003
3020
0230
0302
0023
0230
2300
,
3020
0000
0000
0230
0000
0000
0320
0000
0000
2030
0000
0000
3200
0000
0000
0320
0000
0030
0002
0000
0000
0000
0000
0000
,
0103
0001
0001
0010
0101
0100
0010
0110
,
0011
0100
1010
0100
0101
0010
0001
1000
,
1100
0000
0010
0000
1001
0000
0100
0000
0001
0000
0001
0010
0100
0010
0100
1000
,
0010
0100
0001
0010
0100
1000
0100
0010
0100
1000
0100
0010
0001
0100
0010
1000
,
0100
0000
0010
0000
0100
1000
0010
0000
0010
0000
0100
0000
0001
0010
0100
0000
,
1000
0000
0010
0000
0100
0001
0100
0000
0001
0000
0010
0000
0001
0100
0010
0000
,
0010
0000
1000
0000
0010
0100
0001
0000
0010
0000
0001
0000
1000
0001
1000
0000
,
2000
3200
0320
0032
,
1003
0100
0010
0001
0010
0000
0000
1010
1010
0000
0001
0010
0001
0010
0100
1000
,
0010
0100
0010
1000
0100
0000
0000
1001
1001
0000
0100
1000
0010
0100
0010
1000
,
0010
0100
0001
1000
0010
0000
0000
0101
0101
0000
0010
0001
0010
0001
0010
0100
,
1000
0001
0010
0100
1000
0000
0000
1001
1001
0000
0100
0010
0001
0010
0100
1000
,
0100
0000
0100
0000
1000
0010
0100
0000
0010
1000
0100
1000
0010
0000
0010
1000
,
0100
0000
0010
0000
0001
0100
0010
0000
1000
0100
0010
0001
0010
0000
0100
1000
,
0010
0000
0100
0000
0001
0010
0100
0000
1000
0010
0100
0010
1000
0000
0100
1000
,
0001
0000
0001
0000
0010
0100
1000
0000
0100
1000
0010
0100
0001
0000
0010
0100
,
1000
0000
0001
0000
0100
0001
0010
0000
0001
1000
0010
1000
0100
0000
1000
0001
,
0010
0000
0001
0000
0010
0100
0010
0000
0001
0100
0010
1000
0100
0000
0100
1000
,
0010
1000
0100
0010
0100
1000
0010
0100
0001
0010
0100
1000
0001
1000
0100
0010
,
0001
1000
0001
0010
0100
1000
0010
0100
0010
1000
0002
0000
0023
0000
0200
0000
,
0330
0000
0000
0000
;
