#TITLE:#56;
#SUBTITLE:;
#ARTIST:Beatdrop;
#TITLETRANSLIT:;
#SUBTITLETRANSLIT:;
#ARTISTTRANSLIT:;
#CREDIT:;
#BANNER:;
#BACKGROUND:;
#LYRICSPATH:;
#CDTITLE:cynic.png;
#MUSIC:#56.mp3;
#OFFSET:-0.035;
#SAMPLESTART:41.696;
#SAMPLELENGTH:12.000;
#SELECTABLE:YES;
#BPMS:0.000=143.998;
#STOPS:;
#BGCHANGES:;
// cache tags:
#FIRSTBEAT:8.000;
#LASTBEAT:212.000;
#SONGFILENAME:Songs/Community Keyboard Megapack - Volume 3/(Cynic) #56/#56.sm;
#HASMUSIC:1;
#HASBANNER:0;
#MUSICLENGTH:93.394;
// end cache tags

//---------------dance-single - ----------------
#NOTES:
     dance-single:
     :
     Hard:
     8:
     0.676,0.703,0.535,0.300,0.139,364.000,50.000,28.000,0.000,0.000:  // measure 1
0000
0000
0000
0000
,  // measure 2
0000
0000
0000
0000
,  // measure 3
0100
0020
0000
0000
0000
0000
0000
0000
0000
0000
0000
0000
0000
0000
0030
0000
,  // measure 4
2002
0000
0000
3003
0220
0000
0000
0330
,  // measure 5
0100
0010
0000
0000
1000
0000
0000
0000
1100
0000
0000
0000
1010
0000
0000
0000
,  // measure 6
0010
0100
0000
0000
0001
0000
0000
0000
0101
0000
0000
0000
0011
0000
0000
0000
,  // measure 7
0010
0100
0000
1000
0000
0000
0001
0000
0100
0010
0000
1000
0000
0000
0100
0000
,  // measure 8
0010
0000
0000
0100
0010
0000
0000
0010
0100
0000
0000
0100
1000
0000
0001
1000
,  // measure 9
0002
0000
0100
0003
0010
0000
0100
0000
2000
0000
0100
3000
0010
0000
0100
0000
,  // measure 10
1000
0000
1010
0000
0100
0001
1000
0100
,  // measure 11
0010
0000
0011
0000
0001
0100
0001
0010
,  // measure 12
0100
0000
1100
0000
1000
0010
0100
0001
,  // measure 13
2000
0000
0100
3000
0010
0000
0100
0000
0002
0000
0100
0003
0010
0000
0100
0000
,  // measure 14
1000
0000
1010
0000
0010
0100
0001
0010
,  // measure 15
0100
0000
0110
0000
0010
0001
1000
0010
,  // measure 16
0100
0000
0000
0100
0010
0000
0000
0010
0100
0000
0000
0100
0001
0000
1000
0001
,  // measure 17
1000
0100
1000
0010
1000
0010
0100
0001
,  // measure 18
1000
0100
1000
0010
1000
0010
0100
0001
,  // measure 19
0010
0100
1000
0001
0100
0010
0100
0001
,  // measure 20
1000
0100
0010
0001
0100
0001
0100
0010
,  // measure 21
1000
0010
1010
0000
0100
0001
0101
0000
,  // measure 22
1000
0100
1100
0000
0010
0001
0011
0000
,  // measure 23
0010
0100
0110
0100
1000
0010
1010
0010
,  // measure 24
0100
0001
0101
0001
0010
0100
0110
0100
,  // measure 25
1002
0100
0103
0000
0001
0100
0010
1000
,  // measure 26
0200
1000
1300
0000
1000
0100
0010
0100
,  // measure 27
0020
0100
0130
0000
0010
0001
0100
0001
,  // measure 28
2000
0001
3001
0000
1100
0100
1000
0010
,  // measure 29
1001
1000
0100
0000
0010
0001
0100
0010
,  // measure 30
1010
0010
0100
0000
0100
0001
2000
0000
,  // measure 31
3001
0010
0100
0000
1100
1000
0010
0100
,  // measure 32
0002
0000
0100
0000
0010
0003
0100
0000
1000
0000
0001
0000
0100
0000
0010
0000
,  // measure 33
1001
0001
0100
0010
1010
1010
2000
0100
,  // measure 34
3001
0001
0100
0001
0101
0101
1002
0100
,  // measure 35
0103
0010
0100
1000
1100
1100
0012
1000
,  // measure 36
0103
0000
0100
0000
0001
1000
0000
1000
0001
0000
0002
0000
1000
0000
1003
0000
,  // measure 37
1001
1000
0010
0100
0101
0101
0002
0010
,  // measure 38
1003
1000
0010
1000
1010
1010
2001
0010
,  // measure 39
3010
0100
0010
0001
0011
0011
2100
0001
,  // measure 40
3010
0000
0010
0000
1000
0001
0000
0001
1000
0000
2000
0000
0001
0000
3001
0000
,  // measure 41
0001
1000
0001
0000
0100
0000
0100
0000
0010
0000
0010
0000
2000
0000
0000
0000
,  // measure 42
3100
0000
0100
0000
0010
0000
0100
0000
1000
0000
1000
0000
0002
0000
0000
0003
,  // measure 43
0100
0010
0100
0000
0001
0000
0010
0000
0100
0000
0100
0000
2000
0000
0000
3000
,  // measure 44
0001
0100
0001
0000
1000
0100
0000
0100
0010
0000
0010
0000
0001
0000
1000
0001
,  // measure 45
1000
0100
1000
0010
1000
0010
0100
0001
,  // measure 46
1000
0100
1000
0010
1000
0010
0100
0001
,  // measure 47
0010
0100
1000
0001
0100
0010
0100
0001
,  // measure 48
1000
0100
0010
0001
0100
0001
0100
0010
,  // measure 49
1000
0010
1010
0000
0100
0001
0101
0000
,  // measure 50
1000
0100
1100
0000
0010
0001
0011
0000
,  // measure 51
0010
0100
0110
0100
1000
0010
1010
0010
,  // measure 52
0100
0001
0101
0001
0010
0100
0110
0100
,  // measure 53
2000
0002
0000
0000
0000
0000
0000
0000
3003
0000
0000
0000
0000
0000
0000
0000
;

//---------------dance-single - ----------------
#NOTES:
     dance-single:
     :
     Challenge:
     11:
     1.000,1.000,1.000,0.161,1.000,611.000,102.000,15.000,0.000,0.000:  // measure 1
0000
0000
0000
0000
,  // measure 2
0000
0000
0000
0000
,  // measure 3
0000
0000
0000
0000
,  // measure 4
0000
0000
0000
0000
,  // measure 5
0100
0020
0000
1000
0000
0000
1000
0000
0001
0000
0000
0100
0000
0000
1030
1000
,  // measure 6
0200
0000
0000
0001
0000
0000
0001
0000
0010
0000
0000
0001
0000
0000
1300
1000
,  // measure 7
0010
0200
0000
0010
0000
0000
0310
0000
0010
0200
0000
0010
0000
0000
0310
0010
,  // measure 8
1001
0000
0000
0001
1010
0000
0000
1000
0011
0000
0000
0001
0110
0100
0100
0100
,  // measure 9
1001
0100
0001
0100
0010
1000
0010
0001
1000
0100
0001
0010
0100
1000
0010
0100
,  // measure 10
1000
0100
0000
0100
0001
0000
0101
0000
0100
0001
0010
0100
1000
0001
0100
1000
,  // measure 11
0001
0010
0000
0010
1000
0000
1100
0000
0100
1000
0010
0100
0001
0010
1000
0001
,  // measure 12
0100
1000
0000
1000
0010
0000
1010
0000
1000
0010
0100
0001
0010
0100
0010
0001
,  // measure 13
1000
0100
1000
0010
0100
0001
0010
0010
0001
0100
1000
0001
0000
0010
0000
1000
,  // measure 14
0001
0000
0001
0010
0100
0000
0011
0000
1100
0000
1000
0010
0100
0001
0100
0001
,  // measure 15
0010
0000
1000
0100
1000
0000
1010
0000
0010
0100
0001
1000
0100
0000
0110
0000
,  // measure 16
1001
0000
0000
1000
0011
0000
0000
0001
1010
0000
0000
1000
0110
0010
0010
0010
,  // measure 17
1000
0100
1000
0000
0001
0100
0001
0000
1000
0010
1000
0001
0010
0100
1000
0010
,  // measure 18
0100
0001
0100
0000
0010
1000
0010
0000
0001
0010
0001
0010
0100
1000
0001
0100
,  // measure 19
0010
1000
0010
1000
0001
0100
0001
0000
1000
0100
0001
1000
0010
0001
0100
0010
,  // measure 20
1000
0100
1000
0100
0010
0001
0010
0000
0100
1000
0010
0001
1000
0100
0001
0010
,  // measure 21
0100
1000
0100
1000
0010
0010
0100
0001
1000
1000
0100
0010
0001
0100
0010
1000
,  // measure 22
0100
0010
0001
0100
0010
0010
1000
0100
0010
0010
0001
0100
0001
1000
0100
0010
,  // measure 23
0001
0100
1000
0001
0010
0010
1000
0100
0001
0001
1000
0010
0001
0100
0010
1000
,  // measure 24
0001
0100
1000
0001
0010
0010
1000
0100
0001
0001
1000
0010
0001
0001
0001
0001
,  // measure 25
0110
0010
1000
0100
0011
0000
1100
0000
1001
0100
0010
1000
0100
0010
0001
0001
,  // measure 26
1100
1000
0100
0010
0101
0000
1010
0000
1001
0100
0010
1000
0100
0010
0001
0001
,  // measure 27
0110
0100
0001
0010
1100
0000
0011
0000
1001
0010
0100
0001
0010
0100
1000
1000
,  // measure 28
0011
0001
0010
0100
1010
0000
0101
0000
1001
0010
0100
0001
0010
0100
1000
1000
,  // measure 29
0110
0010
1000
0100
0011
0000
1100
0000
1001
0100
0010
1000
0100
0010
0001
0001
,  // measure 30
1100
1000
0100
0010
0101
0000
1010
0000
1001
0100
0010
1000
0100
0010
0001
0001
,  // measure 31
0110
0100
0001
0010
1100
0000
0011
0000
1001
0010
0100
0001
0010
0100
1000
1000
,  // measure 32
0011
0001
0010
0100
1010
0000
0101
0000
1001
0010
0100
0001
0010
0100
1000
1000
,  // measure 33
0110
0210
0001
1300
1100
1100
0101
0011
,  // measure 34
1100
0000
1100
0000
0102
0000
0013
0001
1000
0000
1100
0000
0011
0000
0101
0000
,  // measure 35
1010
0000
1020
0000
1030
0001
1000
0100
0010
0000
0011
0000
0101
0000
0110
0000
,  // measure 36
2001
0000
3001
0100
0010
0100
0001
1000
0100
0000
0110
0000
0011
0000
1100
0000
,  // measure 37
1002
0000
0100
0000
1003
0100
0010
0001
1100
0000
1100
0000
0011
0000
0011
0000
,  // measure 38
2001
0000
0100
0000
3001
0010
0100
1000
0101
0000
0101
0000
1010
0000
1010
0000
,  // measure 39
1001
0000
1001
0000
0100
0010
1000
0100
1001
0000
0110
0000
0110
0000
1001
0000
,  // measure 40
0011
0000
0021
0000
0031
0100
0010
1000
0100
0000
0011
0000
1100
0100
0000
0100
,  // measure 41
1001
0100
0001
0100
0010
1000
0010
1000
0100
0000
0200
0000
0010
0000
0310
0010
,  // measure 42
0001
0010
0001
0010
0100
1000
0100
1000
0010
0000
0200
0000
0010
0000
0310
0010
,  // measure 43
1000
0100
1000
0100
0010
0001
0010
0001
0100
0010
1000
0100
0001
1000
0010
0001
,  // measure 44
0100
0010
0100
0010
1000
0001
1000
0001
0010
0100
1000
0100
0001
0100
1000
0010
,  // measure 45
1001
0010
1000
0010
0100
0001
0100
1000
0001
0010
1000
0100
0010
0001
0100
0010
,  // measure 46
0001
0010
0000
0010
1000
0000
1010
0000
0010
1000
0100
0010
0001
1000
0010
0001
,  // measure 47
1000
0100
0000
0100
0001
0000
0011
0000
0010
0001
0100
0010
1000
0100
0001
1000
,  // measure 48
0010
0001
0000
0001
0100
0000
0101
0000
0001
0100
0010
1000
0100
0010
0100
1000
,  // measure 49
0001
0010
0001
0100
0010
1000
0100
0100
1000
0010
0001
1000
0000
0100
0000
0001
,  // measure 50
1000
0000
1000
0100
0010
0000
1100
0000
0011
0000
0001
0100
0010
1000
0010
1000
,  // measure 51
0100
0000
0001
0010
0001
0000
0101
0000
0100
0010
1000
0001
0010
0000
0110
0000
,  // measure 52
1001
0000
0000
0001
1100
0000
0000
1000
0101
0000
0000
0001
0110
0100
0100
0100
,  // measure 53
0200
0020
0000
0000
0330
0000
0000
0000
0000
0000
0000
0000
0000
0000
0000
0000
;

//---------------dance-single - ----------------
#NOTES:
     dance-single:
     :
     Medium:
     6:
     0.496,0.478,0.257,0.193,0.016,282.000,24.000,18.000,0.000,0.000:  // measure 1
0000
0000
0000
0000
,  // measure 2
0000
0000
0000
0000
,  // measure 3
0000
0000
0000
0000
,  // measure 4
0000
0000
0000
0000
,  // measure 5
1001
0000
0100
0000
0010
1000
0010
0000
,  // measure 6
0200
1000
0301
1000
,  // measure 7
0001
0000
0100
0010
0100
0000
0010
1000
,  // measure 8
0001
1001
0110
1001
,  // measure 9
1000
0010
0100
0001
1000
0000
0100
0000
,  // measure 10
0110
0000
0010
0001
1000
0000
0010
0000
,  // measure 11
1010
0000
1000
0001
0100
0000
0010
0000
,  // measure 12
0110
0000
0100
0000
0001
1000
0002
0000
,  // measure 13
1003
0100
1000
0000
0001
0100
0001
0100
,  // measure 14
0010
0000
1010
0000
1000
0000
0001
0010
,  // measure 15
0100
0110
0010
0001
,  // measure 16
1001
0000
0110
0000
1001
0000
0001
0001
,  // measure 17
1000
0100
1000
0000
0010
0100
0001
1000
,  // measure 18
0100
0010
0100
0000
0010
0001
0100
0010
,  // measure 19
1000
0001
1000
0000
0001
0100
0001
0000
,  // measure 20
1000
0010
1000
0000
0010
0100
0001
0000
,  // measure 21
1000
1000
0001
0000
0010
0010
0001
0000
,  // measure 22
0100
0100
0010
0000
0100
0100
0001
0000
,  // measure 23
1000
1000
0001
0010
0100
0010
0001
0000
,  // measure 24
0100
0100
0010
1000
0100
0010
0100
0000
,  // measure 25
2001
0000
3001
0000
0100
0010
0100
0001
,  // measure 26
0020
0000
0130
0000
1000
0010
0100
0000
,  // measure 27
1002
0000
1003
0000
0010
0100
0010
1000
,  // measure 28
0200
0000
0310
0000
0001
0100
0010
0000
,  // measure 29
0120
0000
0130
0000
0001
1000
0100
0010
,  // measure 30
0002
0000
1003
0000
0100
1000
0010
0000
,  // measure 31
0210
0000
0310
0000
1000
0001
0010
0100
,  // measure 32
2000
0000
3001
0000
0010
0001
0200
0000
,  // measure 33
0310
0010
0100
0001
1000
1000
0010
0000
,  // measure 34
0100
0100
0001
0010
0100
0100
0010
0000
,  // measure 35
0100
0100
0010
0001
1000
1000
0001
0000
,  // measure 36
0100
0100
0010
1000
0001
0001
0010
0000
,  // measure 37
0001
0001
1000
0100
1000
0010
0100
0000
,  // measure 38
0001
0001
1000
0010
0100
0001
0010
0000
,  // measure 39
0100
0100
1000
0001
0100
0010
1000
0000
,  // measure 40
0010
0000
0010
0000
0100
0000
0001
0000
1000
0000
0001
0000
0100
0010
0000
0010
,  // measure 41
0200
0000
1000
0000
0001
0001
0001
0300
,  // measure 42
0020
0000
0001
0000
1000
1000
1000
0030
,  // measure 43
2000
0001
0001
3001
1000
0100
0010
0000
,  // measure 44
0002
1000
1000
0003
1000
0010
0100
0000
,  // measure 45
0001
0100
0010
1000
0001
0000
0010
0000
,  // measure 46
0110
0000
0100
1000
0001
0000
0100
0000
,  // measure 47
0101
0000
0001
1000
0010
0000
0100
0000
,  // measure 48
0110
0000
0010
0000
1000
0001
2000
0000
,  // measure 49
3001
0010
0001
0000
1000
0010
1000
0010
,  // measure 50
0100
0000
0101
0000
0001
0000
1000
0100
,  // measure 51
0010
0110
0100
1000
,  // measure 52
1001
0000
0110
0000
1001
0000
1000
1000
,  // measure 53
0200
0020
0000
0000
0000
0000
0000
0000
0330
0000
0000
0000
0000
0000
0000
0000
;

//---------------dance-single - ----------------
#NOTES:
     dance-single:
     :
     Easy:
     3:
     0.259,0.312,0.171,0.043,0.005,149.000,16.000,4.000,0.000,0.000:  // measure 1
0000
0000
0000
0000
,  // measure 2
0000
0000
0000
0000
,  // measure 3
0000
0000
0000
0000
,  // measure 4
0000
0000
0000
0000
,  // measure 5
0001
0000
0100
0100
,  // measure 6
0010
0000
1000
1000
,  // measure 7
0001
0000
1000
0000
,  // measure 8
1001
0000
0110
0000
,  // measure 9
1001
1000
1000
0000
,  // measure 10
0010
0000
0100
0010
,  // measure 11
0100
0000
0001
0000
,  // measure 12
1000
0100
0010
0000
,  // measure 13
0001
0000
0001
1000
,  // measure 14
0100
0000
0100
1000
,  // measure 15
0010
0000
0010
0100
,  // measure 16
0010
0000
0110
0000
,  // measure 17
1002
0100
0103
0000
,  // measure 18
0010
0010
0100
0000
,  // measure 19
0102
1000
1003
0000
,  // measure 20
1000
0001
0001
0000
,  // measure 21
0010
0001
0001
0100
,  // measure 22
0010
1000
1000
0001
,  // measure 23
1000
0100
0010
0001
,  // measure 24
1000
1000
0010
0100
,  // measure 25
0110
0000
0001
1000
,  // measure 26
0100
0000
0010
0100
,  // measure 27
0010
0000
0001
1000
,  // measure 28
1001
0000
0010
0100
,  // measure 29
0001
0000
1000
0100
,  // measure 30
0010
0000
0001
0010
,  // measure 31
0100
0000
1000
0001
,  // measure 32
1000
0000
0010
0000
,  // measure 33
0100
0100
0010
0000
,  // measure 34
1000
0001
1000
0100
,  // measure 35
0010
0010
0001
0000
,  // measure 36
1000
0010
0100
0001
,  // measure 37
1000
0000
0100
0010
,  // measure 38
0100
0000
1000
0010
,  // measure 39
1000
0000
0010
0100
,  // measure 40
0001
0000
1000
1000
,  // measure 41
0100
0000
0100
0100
,  // measure 42
0010
0000
0010
0010
,  // measure 43
0001
0000
0001
1000
,  // measure 44
0100
0000
1000
0010
,  // measure 45
1010
0000
0101
0001
,  // measure 46
1000
0000
1000
0100
,  // measure 47
1100
0000
0010
0001
,  // measure 48
0011
0000
0001
0100
,  // measure 49
0101
0000
0001
0100
,  // measure 50
0110
0000
0010
1000
,  // measure 51
1000
0100
1000
0010
,  // measure 52
0110
0010
1001
0001
,  // measure 53
0200
0020
0000
0000
0000
0000
0000
0000
0000
0000
0000
0000
0000
0000
0000
0000
,  // measure 54
0330
0000
0000
0000
;

//---------------dance-single - ----------------
#NOTES:
     dance-single:
     :
     Beginner:
     1:
     0.142,0.199,0.139,0.011,0.000,79.000,13.000,1.000,0.000,0.000:  // measure 1
0000
0000
0000
0000
,  // measure 2
0000
0000
0000
0000
,  // measure 3
0000
0000
0000
0000
,  // measure 4
0000
0000
0000
0000
,  // measure 5
0010
0000
0000
0000
,  // measure 6
0100
0000
0000
0000
,  // measure 7
0001
0000
0000
0000
,  // measure 8
1000
0000
0010
0000
,  // measure 9
0010
0000
0000
0000
,  // measure 10
0100
0000
0001
0000
,  // measure 11
1000
0000
0000
0000
,  // measure 12
0001
0000
0010
0000
,  // measure 13
0100
0000
1000
0000
,  // measure 14
0001
0000
0000
0000
,  // measure 15
0010
0000
0000
0000
,  // measure 16
0100
0000
0100
0000
,  // measure 17
0110
0000
0000
0000
,  // measure 18
1001
0000
0000
0000
,  // measure 19
0110
0000
0000
0000
,  // measure 20
1001
0000
0000
0000
,  // measure 21
1000
0000
0010
0000
,  // measure 22
0100
0000
0001
0000
,  // measure 23
1000
0000
0001
0000
,  // measure 24
1000
0000
0000
0000
,  // measure 25
0110
0000
0100
0000
,  // measure 26
0010
0000
0000
0000
,  // measure 27
1001
0000
0001
0000
,  // measure 28
1000
0000
0000
0000
,  // measure 29
0001
0000
0100
0000
,  // measure 30
0010
0000
1000
0000
,  // measure 31
0001
0000
0010
0000
,  // measure 32
0100
0000
0100
0000
,  // measure 33
0110
0000
0000
0000
,  // measure 34
1001
0000
0100
0000
,  // measure 35
1001
0000
0000
0000
,  // measure 36
0110
0000
0001
0000
,  // measure 37
0101
0000
0000
0000
,  // measure 38
1000
0000
0100
0000
,  // measure 39
1000
0000
0000
0000
,  // measure 40
0010
0000
0100
0100
,  // measure 41
0010
0000
0000
0000
,  // measure 42
0010
0000
0000
0100
,  // measure 43
0010
0000
0000
0000
,  // measure 44
1001
0000
0000
0000
,  // measure 45
1001
0000
0100
0000
,  // measure 46
0010
0000
0000
0100
,  // measure 47
0010
0000
1000
0000
,  // measure 48
0001
0000
0000
0010
,  // measure 49
0100
0000
1000
0000
,  // measure 50
0001
0000
1000
0000
,  // measure 51
0010
0000
0100
0000
,  // measure 52
0001
1000
0100
0010
,  // measure 53
0200
0000
0000
0000
,  // measure 54
0300
0000
0000
0000
;
