#TITLE:Let it Go;
#SUBTITLE:Sexuality Violation;
#ARTIST:Idina Menzel;
#TITLETRANSLIT:;
#SUBTITLETRANSLIT:;
#ARTISTTRANSLIT:;
#CREDIT:Jack Nicholson;
#BANNER:Let it go-BN.png;
#BACKGROUND:Let it go-BG.png;
#LYRICSPATH:;
#CDTITLE:;
#MUSIC:Let it Go.ogg;
#OFFSET:-0.867;
#SAMPLESTART:120.879;
#SAMPLELENGTH:14.622;
#SELECTABLE:YES;
#BPMS:0.000=137.000;
#STOPS:;
#BGCHANGES:;
// cache tags:
#FIRSTBEAT:16.000;
#LASTBEAT:488.000;
#SONGFILENAME:Songs/Sexuality Violation 2/Let It Go - [sudzi781]/Let it Go.sm;
#HASMUSIC:1;
#HASBANNER:1;
#MUSICLENGTH:221.729;
// end cache tags

//---------------dance-single - Sudzi781----------------
#NOTES:
     dance-single:
     Sudzi781:
     Challenge:
     15:
     1.000,1.000,0.036,0.122,1.000,1632.000,8.000,27.000,3.000,0.000:
0000
0000
0000
0000
,
0000
0000
0000
0000
,
0000
0000
0000
0000
,
0000
0000
0000
0000
,
0001
0010
0100
0010
0000
0001
0000
0000
,
0100
0001
1000
0010
0000
0100
0000
0001
,
0010
0100
1000
0001
0000
1000
0000
0010
,
0100
0000
0000
0000
0001
0000
0000
1000
,
0200
0000
0320
0000
0032
0000
0103
0010
,
0100
0001
1000
0010
0000
0000
1000
0100
,
0010
0000
0000
0002
0000
0000
0000
0000
0000
0000
0000
0000
0000
0000
0013
0000
0000
0100
0000
0000
1000
0000
0000
0000
,
0001
0000
0000
0000
0100
0000
0000
0010
,
1000
0001
1000
0200
0000
0000
0310
0002
,
0000
0203
0000
0000
0000
0000
0310
1000
,
0100
0020
0000
0000
0000
0130
1000
0002
,
0200
0003
0320
0000
,
1030
0000
0100
1000
0000
0001
0000
0010
,
0000
0001
0000
0100
0000
0010
0000
0100
,
0000
0001
0000
1000
0000
0100
0000
0020
,
0001
0000
0000
0000
0100
0000
0000
0001
,
0031
0000
1000
0001
1000
0010
0000
0100
,
0000
0000
0000
0000
0000
0000
0000
0000
0000
0000
0010
0000
0000
0000
0000
0000
0000
0000
0000
1000
0000
0000
0000
0000
0000
0000
0000
0100
0000
0000
0000
0000
0000
0000
0000
0000
0000
0000
0000
0000
0000
0000
0000
0000
0020
0000
0000
0000
0000
0000
0000
0000
0000
0000
0000
0000
0000
0000
0000
0000
0000
0000
0000
0000
,
0001
0032
0000
0000
,
0203
0000
0000
0000
0000
0000
0000
0000
0310
0000
0000
0000
1000
0000
1000
0100
,
0010
0001
1000
0001
0100
0010
1000
0010
,
0100
0001
1000
0001
0010
0100
0010
0001
,
1000
0100
1000
0001
0100
0010
1000
0001
,
0010
0100
0010
0001
1000
0001
0100
0010
,
1000
0100
0010
0001
1000
0001
0100
0010
,
1000
0100
0010
0001
0100
0010
0100
0001
,
1000
0010
1000
0100
0010
0001
0010
0100
,
1000
0001
1000
0100
0010
0001
1000
0010
,
0100
0001
1000
0001
0010
0100
1000
0001
,
1000
0010
0100
0001
1000
0100
0100
0100
,
1000
0010
1000
0001
0010
0100
1000
0001
0010
0001
1000
0001
0100
0010
1000
0001
0100
0001
1000
0100
1000
0100
0010
0100
,
1000
0001
0100
0010
0100
0001
1000
0010
0100
0001
1000
0100
1000
0001
0010
0100
1000
0001
1000
0010
0100
0001
1000
0100
,
0010
0001
1000
0001
0100
0010
1000
0001
1000
0100
0010
0001
1000
0001
0100
0010
1000
0010
0100
0001
1000
0100
0010
0100
,
1000
0001
1000
0010
0100
0001
1000
0010
1000
0001
0100
0010
0100
0001
1000
0100
0010
0100
1000
0001
1000
0010
0100
0001
,
1000
0001
0010
0100
1000
0100
0010
0001
1000
0001
0100
0010
0100
0001
1000
0010
0100
0010
1000
0001
0100
0001
0010
0100
,
1000
0100
0010
0001
1000
0001
0100
0010
1000
0001
1000
0100
0010
0001
1000
0001
0100
0010
1000
0100
1000
0001
0010
0100
,
0010
0001
1000
0001
0100
0010
1000
0100
1000
0001
0100
0001
1000
0010
0100
0010
1000
0100
0010
0001
1000
0001
1000
0010
,
0100
0001
0010
0001
0010
0100
1000
0100
0010
0001
1000
0001
0100
0010
1000
0001
1000
0100
0010
0001
1000
0010
0100
0010
,
1000
0001
0100
0001
1000
0100
0010
0001
0100
0001
0100
0010
1000
0001
0010
0100
1000
0001
1000
0100
0010
0001
1000
0001
,
1000
0010
0100
0010
1000
0001
0010
0100
0010
0001
1000
0001
1000
0010
0100
0001
1000
0100
1000
0001
0010
0100
1000
0001
,
0100
0010
0100
0001
1000
0010
0100
0001
1000
0001
0010
0100
1000
0100
0010
0001
1000
0001
1000
0010
0100
0001
1000
0010
,
0100
0010
1000
0100
0010
0001
1000
0001
0010
0100
0010
0001
1000
0010
0100
0001
1000
0001
0010
0100
1000
0001
1000
0100
,
0010
0001
0100
0001
1000
0010
0100
0001
1000
0100
1000
0001
0100
0010
1000
0001
1000
0100
0010
0001
1000
0001
0100
0010
,
1000
0010
0100
0001
0100
0001
1000
0100
0010
0001
1000
0010
0100
0001
1000
0100
0010
0100
1000
0001
1000
0001
0010
0100
,
1000
0000
0001
0100
0010
1000
0100
0010
,
0001
2000
0000
3100
1100
0000
0110
0010
,
0001
0000
0001
0100
0001
1000
0010
0200
,
0000
0301
0010
0100
1000
0100
0010
0002
,
1000
1003
0001
0100
0010
1000
0001
0010
,
0100
1000
0100
1000
0001
0100
0001
0100
,
0010
1000
0001
0010
0100
1000
0100
0010
,
0001
1000
0010
1000
0001
1000
0010
0100
,
0001
0010
0100
1000
0100
0010
0001
1000
,
0001
0000
0100
0000
0010
0000
1000
0000
1100
0000
0100
0000
0010
0000
0001
1000
,
0002
0000
0103
0020
0000
2030
0000
3200
,
0310
0001
1000
0010
0100
0001
0010
0100
,
1000
0100
0010
0001
1000
0001
0100
0010
1000
0001
1000
0100
0010
0100
1000
0001
,
1000
0010
0100
0001
0010
0100
1000
0100
0010
0001
1000
0001
0100
0010
1000
0001
,
1000
0100
0010
0100
1000
0001
1000
0010
0100
0001
0100
0010
1000
0001
1000
0100
,
0010
0001
1000
0001
0100
0010
1000
0010
0100
0001
1000
0100
0010
0001
1000
0001
,
0100
0010
1000
0100
0010
0100
1000
0001
0100
0010
1000
0001
1000
0010
0100
0001
,
0010
0100
0010
0001
1000
0100
1000
0001
0100
0010
0100
0001
1000
0010
1000
0100
,
0010
0001
1000
0001
0100
0010
1000
0100
1000
0001
0010
0100
0010
0001
1000
0001
,
0100
0010
0100
0010
1000
0001
1000
0001
0010
0001
0010
0001
1000
0100
1000
0100
,
0010
0001
0010
0001
0100
0010
0100
0010
1000
0000
0001
0000
0001
0000
0002
0000
,
1003
0100
0010
0001
1000
0001
1000
0010
0100
0010
1000
0001
0010
0100
0010
0100
1000
0001
0010
0100
0010
0001
1000
0010
,
0100
0001
1000
0001
0100
0001
1000
0010
0100
0001
1000
0100
1000
0001
0010
0100
1000
0100
1000
0001
0100
0001
1000
0010
,
1000
0010
0100
0001
1000
0100
0010
0001
1000
0010
0100
0010
0100
0001
0010
0100
1000
0100
1000
0001
1000
0010
0100
0010
,
0100
0001
1000
0010
0100
0001
1000
0100
1000
0001
0010
0100
1000
0001
0100
0010
1000
0001
1000
0100
0010
0100
1000
0001
,
0100
0001
1000
0010
1000
0010
0100
0001
1000
0001
0100
0010
0100
0001
1000
0100
0010
0100
1000
0001
0100
0001
0010
0100
,
1000
0001
1000
0100
0010
0001
0100
0010
1000
0001
1000
0001
0100
0010
1000
0001
0100
0001
1000
0100
0010
0100
1000
0010
,
0100
0001
0100
0001
1000
0100
0010
0001
0100
0001
1000
0001
1000
0010
1000
0010
0100
0001
0010
0001
1000
0001
1000
0010
,
0100
0001
0010
0001
0010
0100
1000
0001
0010
0100
0010
0001
1000
0010
1000
0001
1000
0100
0010
0001
1000
0010
0100
0001
,
1000
0100
1000
0100
0010
0001
1000
0010
0100
0001
1000
0001
1000
0100
0010
0001
1000
0010
0100
0001
0100
0001
1000
0001
,
1000
0001
1000
0100
1000
0100
0010
0001
1000
0010
1000
0001
0010
0100
0010
0001
1000
0100
1000
0001
0010
0100
1000
0001
,
0100
0010
0100
0010
1000
0100
0010
0001
1000
0010
0100
0010
0100
0001
1000
0100
0010
0001
0100
0010
0100
0010
1000
0010
,
0100
0001
1000
0100
0010
0001
1000
0001
0010
0100
1000
0001
0100
0001
1000
0010
1000
0010
0100
0010
1000
0001
1000
0100
,
0010
0001
1000
0001
1000
0100
0010
0001
0010
0100
1000
0001
1000
0010
0100
0001
1000
0100
0010
0001
1000
0001
0100
0010
,
1000
0010
0100
0001
0100
0001
1000
0100
0010
0100
1000
0001
0010
0001
0100
0010
1000
0001
1000
0010
0100
0001
0010
0001
,
1000
0001
1000
0010
0001
1000
0100
0001
,
0011
0010
0100
1100
1000
0001
1001
1000
,
0001
0000
0010
0000
0100
0000
1000
0000
0100
00M0
0100
0000
0001
0000
1000
0000
0010
0000
0100
0000
0001
0000
1000
0000
0100
0000
0010
0000
0001
0000
1000
0000
,
0010
0000
1000
0000
0001
0000
0010
0000
0100
M000
0100
0000
0001
0000
1000
0000
0010
0000
0100
0000
0001
0000
0010
0000
0100
0000
0010
0000
0001
0000
0100
0000
,
0010
0100
0001
1000
0100
0010
0001
1000
,
0001
0100
0010
1000
0100
0010
0001
1000
,
0001
0100
0010
1000
0100
1000
0001
0010
,
0100
0000
1000
0001
1000
0000
0010
0000
0100
0000
0010
0000
0100
0000
0001
0000
,
0001
1000
0100
0010
0001
1000
0001
0100
,
0010
1000
0100
0010
0001
1000
0010
0100
,
0001
1000
0100
0010
0100
1000
0001
1000
,
0010
0100
0001
0010
0100
0010
0100
1000
,
1001
0001
0100
0010
1000
0100
0010
0100
,
1000
0001
0010
0001
0100
0010
1000
0001
,
1000
0100
0010
0001
1000
0010
0100
0001
,
0010
0000
0100
1000
0100
0000
0010
0000
0001
0000
2000
0000
0000
0000
3010
0000
,
0110
0000
0100
0001
0000
1000
0000
0100
,
0000
0000
0010
0100
0000
0000
0000
1000
,
0001
0000
0100
0001
0000
1000
0000
0020
,
0000
0000
1030
0010
1000
0010
1000
0010
1000
0010
1000
0010
1000
0010
1000
0010
,
0100
0001
1000
0001
0100
0001
1000
0001
0010
0000
0100
0000
0100
0000
0200
0000
,
1300
0001
0010
0100
0010
0001
1000
0100
1000
0001
0100
0001
0100
0010
1000
0010
0100
0001
1000
0100
1000
0001
0010
0100
,
1000
0001
1000
0001
0100
0010
1000
0001
0010
0100
0010
0100
1000
0001
1000
0010
0100
0001
1000
0001
0100
0010
1000
0001
,
1000
0001
0010
0100
0010
0001
1000
0010
1000
0001
0100
0010
0100
0001
0100
0010
1000
0001
0010
0100
1000
0001
0010
0001
,
0010
0100
1000
0010
0100
0001
1000
0001
1000
0100
0010
0001
1000
0001
0100
0010
1000
0001
0010
0100
0010
0001
0100
0001
,
1000
0010
0100
0010
1000
0001
1000
0010
0100
0001
1000
0100
0010
0001
1000
0001
0100
0010
1000
0010
0100
0001
0010
0100
,
1000
0100
0010
0001
1000
0001
0100
0010
0100
0010
1000
0001
0010
0100
1000
0001
0100
0010
1000
0100
1000
0001
0010
0100
,
0010
0001
1000
0010
0100
0010
1000
0001
1000
0100
0010
0001
1000
0010
0100
0010
1000
0100
0010
0001
1000
0001
0100
0010
,
1000
0001
0010
0001
0010
0100
1000
0001
1000
0010
0100
0001
0100
0010
1000
0001
1000
0100
0010
0001
1000
0010
0100
0010
,
1000
0100
1000
0100
0010
0001
1000
0010
0100
0001
0010
0001
0010
0100
0010
0100
1000
0001
0100
0010
0100
0010
1000
0001
,
1000
0010
0100
0010
1000
0001
0010
0100
1000
0001
0100
0010
1000
0010
0100
0001
1000
0100
1000
0001
0010
0100
1000
0001
,
1000
0100
1000
0100
0010
0001
1000
0010
0100
0001
0010
0001
0010
0100
1000
0010
0100
0010
1000
0100
1000
0100
0010
0001
,
0100
0010
1000
0100
0010
0001
1000
0001
0010
0100
0010
0001
1000
0010
0100
0001
1000
0010
1000
0001
0010
0100
0010
0001
,
1000
0010
0100
0001
1000
0010
0100
0010
1000
0100
1000
0001
0100
0010
1000
0001
1000
0100
0010
0001
1000
0001
0100
0010
,
1000
0010
0100
0001
1000
0001
1000
0100
0010
0001
1000
0010
0100
0001
1000
0100
0010
0100
1000
0001
0100
0001
0010
0001
,
1000
0100
1000
0010
1000
0001
0010
0100
0010
0001
0010
0100
1000
0010
1000
0100
1000
0001
0010
0001
0100
0001
1000
0010
,
1000
0100
1000
0001
1000
0010
0100
0001
0010
0001
1000
0010
1000
0100
0010
0001
0100
0010
2000
0000
0000
0000
0000
0000
,
0000
0000
0000
0000
,
0000
0000
3000
0000
,
000M
0000
0000
0000
;

//---------------dance-single - Sudzi781----------------
#NOTES:
     dance-single:
     Sudzi781:
     Hard:
     11:
     0.827,0.908,0.041,0.207,0.976,1228.000,9.000,46.000,4.000,0.000:
0000
0000
0000
0000
,
0000
0000
0000
0000
,
0000
0000
0000
0000
,
0000
0000
0000
0000
,
0001
0010
0100
0010
0000
0001
0000
0000
,
0100
0001
1000
0010
0000
0100
0000
0001
,
0010
0100
1000
0001
0000
1000
0000
0010
,
0100
0000
0000
0000
0001
0000
0000
1000
,
0200
0000
0320
0000
0032
0000
0103
0010
,
0100
0001
1000
0010
0000
0000
1000
0100
,
0010
0000
0000
0002
0000
0000
0000
0000
0000
0000
0000
0000
0000
0000
0013
0000
0000
0100
0000
0000
1000
0000
0000
0000
,
0001
0000
0000
0000
0100
0000
0000
0010
,
1000
0001
1000
0200
0000
0000
0310
0002
,
0000
0203
0000
0000
0000
0000
0310
1000
,
0100
0020
0000
0000
0000
0130
1000
0002
,
0200
0003
0320
0000
,
1030
0000
0100
1000
0000
0001
0000
0010
,
0000
0001
0000
0100
0000
0010
0000
0100
,
0000
0001
0000
1000
0000
0100
0000
0020
,
0001
0000
0000
0000
0100
0000
0000
0001
,
0031
0000
1000
0001
1000
0010
0000
0100
,
0000
0000
0000
0000
0000
0000
0000
0000
0000
0000
0010
0000
0000
0000
0000
0000
0000
0000
0000
1000
0000
0000
0000
0000
0000
0000
0000
0100
0000
0000
0000
0000
0000
0000
0000
0000
0000
0000
0000
0000
0000
0000
0000
0000
0020
0000
0000
0000
0000
0000
0000
0000
0000
0000
0000
0000
0000
0000
0000
0000
0000
0000
0000
0000
,
0001
0032
0000
0000
,
0203
0000
0000
0000
0000
0000
0000
0000
0310
0000
0000
0000
1000
0000
1000
0100
,
0010
0001
1000
0002
0000
0203
0000
0320
,
0000
2030
0000
3200
0000
0320
0000
0031
,
1000
0000
0010
1000
0001
0200
0000
0301
,
0010
0200
0000
2300
0000
3002
0000
0103
,
0010
0000
1000
0200
0000
2300
0000
3002
,
0103
0000
0010
2000
0000
3200
0000
0320
,
0001
0001
0100
0100
,
0031
0000
1000
0000
0010
0000
1000
0020
,
0000
0230
0000
0000
0302
0000
1000
0000
,
1000
0000
0010
0000
0013
0100
0100
0200
,
1300
0001
1000
0001
0010
0001
0010
0001
0100
0001
1000
0010
1000
0001
0010
0100
,
1000
0001
1000
0001
1000
0100
1000
0100
1000
0010
1000
0010
0100
0001
0010
0100
,
1000
0001
0010
0001
0100
0010
1000
0001
1000
0100
0010
0100
0010
0100
1000
0001
,
1000
0100
0010
0001
1000
0001
0100
0010
1000
0001
0100
0010
1000
0010
0100
0010
,
1000
0100
1000
0100
1000
0001
1000
0001
1000
0010
0100
0010
1000
0001
0010
0100
,
0010
0001
1000
0010
1000
0001
0010
0001
1000
0010
1000
0010
0100
0001
1000
0100
,
0010
0001
0010
0100
1000
0001
1000
0010
0100
0001
0100
0010
1000
0001
1000
0100
,
0010
0001
1000
0001
0100
0010
1000
0100
1000
0001
0100
0010
1000
0001
1000
0100
,
0010
0001
0100
0010
1000
0010
0100
0001
1000
0100
0010
0001
0100
0001
1000
0010
,
1000
0100
1000
0001
0100
0010
0100
0001
1000
0100
0010
0001
1000
0001
0100
0010
,
1000
0100
0010
0001
1000
0001
0100
0010
1000
0010
0100
0001
1000
0001
0010
0100
,
1000
0001
1000
0100
0010
0001
1000
0001
0100
0010
1000
0100
1000
0001
0100
0010
,
1000
0010
0100
0001
1000
0100
0010
0001
1000
0001
0100
0010
1000
0001
1000
0010
,
0100
0001
0010
0100
1000
0100
0010
0001
1000
0001
0100
0010
1000
0100
1000
0001
,
0100
0000
0001
0100
0010
1000
0100
0010
,
0001
2000
0000
3100
1100
0000
0110
0010
,
0001
0000
0001
0100
0001
1000
0010
0200
,
0000
0301
0010
0100
1000
0100
0010
0002
,
1000
1003
0001
0100
0010
1000
0001
0010
,
0100
1000
0100
1000
0001
0100
0001
0100
,
0010
1000
0001
0010
0100
1000
0100
0010
,
0001
1000
0010
1000
0001
1000
0010
0100
,
0001
0010
0100
1000
0100
0010
0001
1000
,
0001
0000
0100
0000
0010
0000
1000
0000
1100
0000
0100
0000
0010
0000
0001
1000
,
0002
0000
0103
0020
0000
2030
0000
3200
,
0310
0001
1000
0010
0100
0001
0010
0100
,
1000
0001
1000
0001
0100
0001
1000
0100
1000
0100
0010
0100
0010
0100
1000
0001
,
1000
0001
0100
0010
0100
0010
1000
0001
0010
0100
0010
0001
1000
0010
0100
0001
,
0100
0001
0100
0010
1000
0001
1000
0001
1000
0100
0010
0100
0010
0001
1000
0001
,
1000
0010
0100
0010
0100
0010
1000
0001
0100
0010
1000
0001
0010
0100
1000
0001
,
1000
0010
0100
0001
1000
0001
0010
0001
0010
0100
1000
0001
1000
0001
0100
0010
,
0100
0001
1000
0100
1000
0100
0010
0001
0010
0100
1000
0001
0100
0010
0100
0001
,
0010
0001
0010
0001
1000
0010
1000
0010
0100
0001
1000
0001
1000
0100
0010
0001
,
1000
1000
0010
0010
0100
0100
0001
0001
,
0010
0010
0100
0100
1000
0001
0001
0002
,
1003
0100
0010
0001
1000
0010
0100
0001
1000
0100
1000
0001
0100
0010
1000
0100
,
1000
0100
1000
0100
0010
0001
1000
0001
0100
0010
1000
0001
0010
0001
1000
0001
,
1000
0010
0100
0001
1000
0100
0010
0001
1000
0001
1000
0010
0100
0010
1000
0100
,
0010
0001
0100
0001
1000
0010
1000
0010
0100
0001
1000
0100
0010
0100
1000
0001
,
0100
0010
1000
0100
1000
0001
0010
0100
0010
0001
1000
0010
0100
0001
0010
0100
,
0010
0100
1000
0001
1000
0100
0010
0001
1000
0010
1000
0010
0100
0001
1000
0100
,
0010
0100
1000
0100
1000
0001
0100
0010
1000
0001
1000
0001
0010
0100
1000
0001
,
0100
0010
1000
0001
1000
0100
0010
0100
1000
0001
0100
0010
1000
0001
0010
0001
,
0100
0010
0100
0010
1000
0001
0010
0100
0010
0100
0010
0001
0100
0001
0100
0010
,
1000
0100
1000
0001
0100
0010
0100
0001
1000
0100
0010
0001
1000
0100
1000
0001
,
0010
0100
0010
0100
1000
0001
0100
0010
0100
0010
1000
0100
0010
0001
0010
0100
,
1000
0001
1000
0001
0010
0001
0010
0100
1000
0001
0100
0001
1000
0010
1000
0001
,
0010
0100
0010
0001
1000
0010
0100
0001
1000
0001
1000
0100
0010
0001
1000
0010
,
1000
0001
0010
0100
1000
0100
0010
0001
1000
0001
0100
0010
1000
0100
1000
0001
,
1000
0001
0100
0010
0001
0010
0100
0001
,
1001
1000
0100
1100
1000
0001
1001
1000
,
0001
0010
0100
1000
0001
0100
0001
1000
0010
0100
0001
1000
0100
0010
0001
1000
,
0010
0100
0001
1000
0010
0100
0010
1000
0001
0100
0001
0010
0100
0010
0001
0100
,
0010
0100
0001
1000
0100
0010
0001
1000
,
0001
0100
0010
1000
0100
0010
0001
1000
,
0001
0100
0010
1000
0100
1000
0001
0010
,
0100
0000
1000
0001
1000
0000
0010
0000
0100
0000
0010
0000
0100
0000
0001
0000
,
1001
1000
0100
0010
0001
1000
0001
0100
,
0010
1000
0100
0010
0001
1000
0010
0100
,
0001
1000
0100
0010
0100
1000
0001
1000
,
0010
0100
0001
0010
0100
0010
0100
1000
,
1001
0001
0100
0010
1000
0100
0010
0100
,
1000
0001
0010
0001
0100
0010
1000
0001
,
1000
0100
0010
0001
1000
0010
0100
0001
,
0010
0000
0100
1000
0100
0000
0010
0000
0001
0000
2000
0000
0000
0000
3010
0000
,
0110
0000
0100
0001
0000
1000
0000
0100
,
0000
0000
0010
0100
0000
0000
0000
1000
,
0001
0000
0100
0001
0000
1000
0000
0020
,
0000
1030
0010
1000
0001
0001
0010
0010
,
0100
0100
1000
1000
0010
0100
0100
0200
,
0301
1000
0010
0100
0001
1000
0010
1000
0001
0010
0100
1000
0001
0010
0001
1000
,
0010
0100
0001
0010
0100
1000
0001
1000
0010
0100
0001
0100
0010
1000
0100
0010
,
0100
1000
0001
1000
0010
0100
0001
1000
0010
1000
0100
0010
0100
0010
0001
1000
,
0001
0010
0100
1000
0001
1000
0010
0100
0001
1000
0001
0010
0001
1000
0010
0100
,
0010
1000
0001
0100
0001
1000
0100
0010
0001
1000
0001
0010
0100
1000
0001
1000
,
0010
0100
0001
1000
0001
0010
0100
1000
0001
0100
0001
0100
0010
1000
0001
0010
,
0100
1000
0100
0010
0001
1000
0001
0100
0010
1000
0010
0100
0001
1000
0001
0010
,
0100
1000
0001
1000
0010
0100
0001
0010
0001
1000
0010
0100
0001
1000
0001
0010
,
0100
1000
0010
0100
0001
0100
0010
1000
0001
0010
0100
1000
0001
1000
0010
0100
,
0001
0010
0001
1000
0010
0100
0010
1000
0001
0010
0100
1000
0001
1000
0010
0100
,
0001
0010
0100
1000
0001
1000
0010
0100
0001
0100
0010
1000
0001
1000
0100
0010
,
0001
1000
0001
0010
0100
1000
0001
1000
0010
0100
0001
0010
0001
1000
0010
0100
,
0001
0100
0010
1000
0001
0010
0100
1000
0001
1000
0010
0100
0001
1000
0001
0100
,
0010
1000
0100
0010
0001
0010
0100
1000
0001
1000
0010
0100
0001
0010
0001
0100
,
0010
1000
0100
1000
0010
0100
0001
0010
0001
0100
0010
1000
0100
1000
0010
0100
,
0001
0010
0001
0100
0010
1000
0100
1000
0010
0100
0001
0010
0001
0000
0000
0000
,
0000
0000
0000
0000
,
0000
0000
0000
0000
,
MMMM
0000
0000
0000
;
